<?xml version="1.0" standalone="no"?>
<!DOCTYPE svg PUBLIC "-//W3C//DTD SVG 1.1//EN" "http://www.w3.org/Graphics/SVG/1.1/DTD/svg11.dtd" >
<svg xmlns="http://www.w3.org/2000/svg" xmlns:xlink="http://www.w3.org/1999/xlink" version="1.1">
<metadata>
Created by FontForge 20170731 at Thu Jun  4 21:15:17 2020
 By Aleksey,,,
Copyright 2020 The Domine Project Authors (https://github.com/googlefonts/domine)
</metadata>
<defs>
<font id="Domine-Bold" horiz-adv-x="0" >
  <font-face 
    font-family="Domine"
    font-weight="700"
    font-stretch="normal"
    units-per-em="1000"
    panose-1="2 4 5 3 4 4 3 6 2 4"
    ascent="800"
    descent="-200"
    x-height="540"
    cap-height="720"
    bbox="-215 -240 1400 938"
    underline-thickness="50"
    underline-position="-150"
    unicode-range="U+000D-FB04"
  />
<missing-glyph horiz-adv-x="640" 
d="M65 -240v1140h510v-1140h-510zM192 815v-970h256v970h-256z" />
    <glyph glyph-name="f_f" unicode="ff" horiz-adv-x="698" 
d="M14 475v51l97 14v10q0 101 54 155.5t151 54.5q47 0 87.5 -12t63.5 -32q49 74 143 74q73 0 116.5 -28.5t43.5 -72.5q0 -35 -19.5 -53.5t-47.5 -18.5q-31 0 -48.5 16t-17.5 42t16 44q-18 18 -46 18q-11 0 -23 -6.5t-17 -15.5t-8.5 -28t-5 -44t-1.5 -53v-50h128v-65h-128
v-400l108 -19v-56h-292v56l57 19v400h-187v-400l68 -19v-56h-272v56l77 19v400h-97zM425 540v23q0 77 -20 110.5t-76 33.5q-42 0 -66.5 -30t-24.5 -87v-50h187z" />
    <glyph glyph-name="f_i" unicode="fi" horiz-adv-x="648" 
d="M14 475v51l97 14v10q0 111 65 175.5t176 64.5q91 0 146 -30.5t55 -81.5q0 -71 -71 -71q-24 0 -43.5 16t-19.5 44q0 22 17 42q-34 28 -86 28q-37 0 -65 -13q-25 -12 -36 -42t-11 -92v-50h314v-465l77 -19v-56h-271v56l67 19v400h-187v-400l78 -19v-56h-282v56l77 19v400
h-97z" />
    <glyph glyph-name="f_l" unicode="fl" horiz-adv-x="652" 
d="M338 790q45 0 80 -12.5t56 -37.5l18 40h60v-705l77 -19v-56h-271v56l67 19v400h-187v-400l78 -19v-56h-282v56l77 19v400h-97v51l97 14v10q0 111 60.5 175.5t166.5 64.5zM238 575v-35h187v90q0 50 -25.5 78.5t-63.5 28.5q-46 0 -72 -40.5t-26 -121.5z" />
    <glyph glyph-name="f_f_i" unicode="ffi" horiz-adv-x="961" 
d="M14 475v51l97 14v10q0 100 54 155t150 55q51 0 89 -14t66 -48q32 47 75.5 69.5t115.5 22.5q95 0 150 -30.5t55 -81.5q0 -34 -16 -52.5t-57 -18.5q-24 0 -42 15t-18 40q0 13 3.5 25t12.5 22q-16 13 -39 20.5t-49 7.5q-18 0 -34.5 -2.5t-32.5 -14.5q-22 -16 -32 -47.5
t-10 -97.5v-35h313v-465l77 -19v-56h-271v56l67 19v400h-186v-400l78 -19v-56h-272v56l67 19v400h-187v-400l78 -19v-56h-282v56l77 19v400h-97zM425 540v8q0 86 -22.5 122.5t-75.5 36.5q-42 0 -65.5 -33.5t-23.5 -98.5v-35h187z" />
    <glyph glyph-name="f_f_l" unicode="ffl" horiz-adv-x="965" 
d="M653 790q90 0 134 -50l18 40h60v-705l77 -19v-56h-271v56l67 19v400h-186v-400l78 -19v-56h-272v56l67 19v400h-187v-400l78 -19v-56h-282v56l77 19v400h-97v51l97 14v10q0 101 54.5 155.5t154.5 54.5q97 0 150 -62q57 92 183 92zM552 575v-35h186v90q0 50 -25 78.5
t-66 28.5q-51 0 -73 -40.5t-22 -121.5zM238 575v-35h187v8q0 85 -21.5 122t-74.5 37q-91 0 -91 -132z" />
    <glyph glyph-name="f_b" unicode="fb" horiz-adv-x="965" 
d="M927 275q0 -64 -19 -123t-53 -97q-57 -65 -158 -65q-54 0 -93.5 23.5t-71.5 87.5l-30 -101h-77v475h-187v-400l78 -19v-56h-282v56l77 19v400h-97v51l97 14v10q0 111 56 175.5t176 64.5q45 0 77.5 -12.5t53.5 -37.5l18 40h60v-298q30 38 67 53t85 15q51 0 90.5 -15
t67.5 -48q31 -37 48 -93.5t17 -118.5zM552 270q0 -58 9.5 -96t25.5 -64q16 -25 37.5 -39t50.5 -14q52 0 82 47q17 26 26 66t9 94q0 56 -9.5 97.5t-24.5 68.5q-14 26 -35.5 39.5t-51.5 13.5q-25 0 -46.5 -10.5t-37.5 -35.5q-16 -26 -25.5 -68.5t-9.5 -98.5zM238 575v-35h187
v90q0 50 -20 78.5t-63 28.5q-56 0 -80 -40.5t-24 -121.5z" />
    <glyph glyph-name="f_f_b" unicode="ffb" horiz-adv-x="1279" 
d="M1241 275q0 -65 -19 -123t-53 -97q-56 -65 -161 -65q-51 0 -91 23.5t-71 87.5l-30 -101h-77v475h-187v-400l78 -19v-56h-282v56l77 19v400h-187v-400l78 -19v-56h-282v56l77 19v400h-97v51l97 14v10q0 101 62.5 155.5t176.5 54.5q48 0 76.5 -16t54.5 -42q36 50 87.5 69
t113.5 19q35 0 62.5 -12.5t43.5 -37.5l18 40h60v-298q30 38 67 53t83 15q51 0 92.5 -15t67.5 -48q31 -38 48 -93t17 -119zM866 274q0 -112 35 -164q16 -25 34 -39t52 -14q32 0 52 13t33 34q16 26 25 67t9 96t-10 95t-25 68q-13 24 -31.5 38.5t-53.5 14.5q-32 0 -51.5 -11.5
t-33.5 -34.5q-16 -26 -25.5 -66.5t-9.5 -96.5zM552 575v-35h187v90q0 50 -22 78.5t-64 28.5q-56 0 -78.5 -40.5t-22.5 -121.5zM238 575v-35h187v8q0 80 -18.5 119.5t-68.5 39.5q-54 0 -77 -33.5t-23 -98.5z" />
    <glyph glyph-name="f_h" unicode="fh" horiz-adv-x="991" 
d="M771 75v193q0 65 -3.5 96.5t-12.5 50.5q-24 49 -87 49q-22 0 -43.5 -7t-36.5 -23q-21 -22 -28.5 -50.5t-7.5 -63.5v-245l67 -19v-56h-271v56l77 19v400h-187v-400l78 -19v-56h-282v56l77 19v400h-97v51l97 14v10q0 112 61 176t166 64q94 0 136 -50l18 40h60v-334
q26 51 71.5 77.5t94.5 26.5q50 0 86 -12.5t57 -41.5q20 -28 28.5 -78.5t8.5 -136.5v-206l77 -19v-56h-271v56zM238 575v-35h187v95q0 48 -23 75t-66 27q-45 0 -71.5 -41t-26.5 -121z" />
    <glyph glyph-name="f_f_h" unicode="ffh" horiz-adv-x="1304" 
d="M1084 75v193q0 65 -4 96.5t-12 50.5q-10 24 -28.5 35t-42.5 11q-50 0 -87 -33q-45 -39 -45 -112v-241l67 -19v-56h-271v56l77 19v400h-186v-400l78 -19v-56h-272v56l67 19v400h-187v-400l78 -19v-56h-282v56l77 19v400h-97v51l97 14v10q0 101 62.5 155.5t176.5 54.5
q97 0 150 -62q57 92 183 92q69 0 104 -50l18 40h60v-334q30 49 80 76.5t106 27.5q83 0 123 -54q20 -28 28.5 -78.5t8.5 -136.5v-206l77 -19v-56h-271v56zM552 575v-35h186v90q0 50 -17.5 78.5t-53.5 28.5q-115 0 -115 -162zM238 575v-35h187v8q0 85 -17.5 122t-64.5 37
q-54 0 -79.5 -33.5t-25.5 -98.5z" />
    <glyph glyph-name="f_j" unicode="fj" horiz-adv-x="626" 
d="M552 540v-470q0 -74 -5 -116.5t-17 -69.5q-22 -43 -66.5 -66t-102.5 -23q-53 0 -88 27t-35 68q0 32 16 54.5t56 22.5q29 0 44.5 -15.5t15.5 -41.5q0 -14 -11 -27t-35 -21q2 -7 12.5 -11t26.5 -4q35 0 48.5 28t13.5 101v499h-187v-400l78 -19v-56h-282v56l77 19v400h-97
v51l97 14v10q0 111 65 175.5t176 64.5q91 0 146 -32.5t55 -82.5q0 -29 -14.5 -48.5t-52.5 -19.5q-25 0 -45.5 12.5t-20.5 37.5q0 13 3.5 26t12.5 26q-34 28 -88 28q-18 0 -33.5 -2.5t-28.5 -7.5q-25 -13 -36.5 -44t-11.5 -93v-50h314z" />
    <glyph glyph-name="f_f_j" unicode="ffj" horiz-adv-x="939" 
d="M14 475v51l97 14v10q0 100 54 155t150 55q51 0 89 -14t66 -48q32 47 75.5 69.5t115.5 22.5q95 0 150 -30.5t55 -81.5q0 -70 -69 -70q-24 0 -44 12t-20 37q0 23 16 52q-16 13 -39 20.5t-49 7.5q-18 0 -36.5 -3t-32.5 -13q-19 -14 -29.5 -47t-10.5 -99v-35h313v-470
q0 -74 -4.5 -116.5t-16.5 -69.5q-22 -43 -66.5 -66t-102.5 -23q-53 0 -88 27t-35 68q0 33 18.5 53t53.5 20q26 0 43 -15t17 -41q0 -29 -46 -45q2 -7 12.5 -11t26.5 -4q31 0 46.5 28t15.5 101v499h-187v-400l78 -19v-56h-272v56l67 19v400h-187v-400l78 -19v-56h-282v56
l77 19v400h-97zM425 540v8q0 86 -21.5 122.5t-77.5 36.5q-40 0 -64 -33.5t-24 -98.5v-35h187z" />
    <glyph glyph-name="f_k" unicode="fk" horiz-adv-x="933" 
d="M682 56l59 19l-132 178l-57 -50v-128l77 -19v-56h-281v56l77 19v400h-187v-400l78 -19v-56h-282v56l77 19v400h-97v51l97 14v10q0 112 61 176t166 64q94 0 136 -50l18 40h60v-497l169 182l-66 19v56h245v-56l-73 -19l-137 -140l188 -252l53 -17v-56h-249v56zM238 575v-35
h187v95q0 48 -22 75t-71 27q-43 0 -68.5 -41t-25.5 -121z" />
    <glyph glyph-name="f_f_k" unicode="ffk" horiz-adv-x="1246" 
d="M995 56l59 19l-131 177l-58 -49v-128l77 -19v-56h-281v56l77 19v400h-186v-400l78 -19v-56h-272v56l67 19v400h-187v-400l78 -19v-56h-282v56l77 19v400h-97v51l97 14v10q0 101 54.5 155.5t154.5 54.5q97 0 150 -62q57 92 183 92q90 0 134 -50l18 40h60v-497l169 182
l-66 19v56h245v-56l-73 -19l-137 -140l188 -252l53 -17v-56h-249v56zM552 575v-35h186v95q0 48 -25 75t-63 27q-98 0 -98 -162zM238 575v-35h187v8q0 85 -23.5 122t-69.5 37q-94 0 -94 -132z" />
    <glyph glyph-name=".notdef" horiz-adv-x="640" 
d="M65 -240v1140h510v-1140h-510zM192 815v-970h256v970h-256z" />
    <glyph glyph-name=".null" 
 />
    <glyph glyph-name="nonmarkingreturn" horiz-adv-x="333" 
 />
    <glyph glyph-name="NULL" 
 />
    <glyph glyph-name="NULL" 
 />
    <glyph glyph-name="CR" unicode="&#xd;" horiz-adv-x="270" 
 />
    <glyph glyph-name="space" unicode=" " horiz-adv-x="236" 
 />
    <glyph glyph-name="exclam" unicode="!" horiz-adv-x="291" 
d="M189 205h-86q0 39 -2 82.5t-4.5 85.5t-5 75.5t-4.5 51.5q-3 37 -8 73t-5 77q0 35 18.5 57.5t55.5 22.5q39 0 54.5 -23.5t15.5 -55.5q0 -42 -4 -78t-9 -73q0 -18 -2.5 -51.5t-5.5 -75.5t-5.5 -85.5t-2.5 -82.5zM224 53q0 -36 -21 -57t-59 -21q-36 0 -56.5 20t-20.5 57
q0 38 21 59.5t57 21.5t57.5 -22t21.5 -58z" />
    <glyph glyph-name="quotedbl" unicode="&#x22;" horiz-adv-x="424" 
d="M150 470h-77q0 45 -6.5 88t-13 77.5t-6.5 53.5q0 32 14 51.5t51 19.5q36 0 50 -19.5t14 -51.5q0 -19 -6.5 -53.5t-13 -77.5t-6.5 -88zM351 470h-77q0 45 -6.5 88t-13 77.5t-6.5 53.5q0 32 14 51.5t51 19.5q36 0 50 -19.5t14 -51.5q0 -19 -6.5 -53.5t-13 -77.5t-6.5 -88z
" />
    <glyph glyph-name="numbersign" unicode="#" horiz-adv-x="761" 
d="M395 -10l40 197h-173l-40 -197h-87l40 197h-143v68h155l39 191h-145v68h157l43 216h87l-43 -216h173l43 216h87l-43 -216h143v-68h-155l-39 -191h145v-68h-157l-40 -197h-87zM313 446l-39 -191h173l39 191h-173z" />
    <glyph glyph-name="dollar" unicode="$" horiz-adv-x="588" 
d="M257 -130v120q-69 5 -119 30.5t-76.5 63t-26.5 78.5q0 37 21 61.5t58 24.5q34 0 53.5 -19t19.5 -48q0 -25 -13 -41.5t-29 -24.5q17 -22 44.5 -38t67.5 -18v244q-2 1 -4 1.5t-4 1.5q-50 20 -96.5 46.5t-76 69t-29.5 108.5q0 91 57.5 144t152.5 57v120h77v-122
q61 -7 104.5 -32t67 -60.5t23.5 -75.5q0 -37 -20.5 -60t-57.5 -23q-27 0 -48 14.5t-21 43.5q0 19 9.5 39.5t26.5 30.5q-26 48 -84 54v-243q74 -35 123 -67.5t73.5 -71.5t24.5 -94q0 -86 -58.5 -137.5t-162.5 -56.5v-120h-77zM417 156q0 45 -24 71.5t-59 47.5v-215
q38 5 60.5 29.5t22.5 66.5zM178 558q0 -41 18.5 -62t60.5 -47v211q-41 -4 -60 -31.5t-19 -70.5z" />
    <glyph glyph-name="percent" unicode="%" horiz-adv-x="701" 
d="M116 -10l386 740h84l-386 -740h-84zM32 560q0 90 36 131q17 20 43.5 29t62.5 9q69 0 104 -38q36 -39 36 -128q0 -42 -7.5 -75t-27.5 -54q-35 -38 -109 -38q-27 0 -55 7.5t-48 30.5q-35 40 -35 126zM226 562q0 61 -13 92q-4 11 -14 19.5t-25 8.5q-11 0 -21.5 -6t-18.5 -21
q-9 -19 -11.5 -45.5t-2.5 -46.5q0 -25 3 -49.5t11 -42.5q6 -13 15 -20t24 -7q13 0 22.5 6t16.5 21q6 14 10 37t4 54zM386 154q0 90 36 131q17 20 43.5 29t62.5 9q69 0 104 -38q36 -39 36 -128q0 -42 -7.5 -75t-27.5 -54q-35 -38 -109 -38q-27 0 -55 7.5t-48 30.5
q-35 40 -35 126zM580 156q0 61 -13 92q-4 11 -14 19.5t-25 8.5q-11 0 -21.5 -6t-18.5 -21q-9 -19 -11.5 -45.5t-2.5 -46.5q0 -25 3 -49.5t11 -42.5q6 -13 15 -20t24 -7q13 0 22.5 6t16.5 21q6 14 10 37t4 54z" />
    <glyph glyph-name="ampersand" unicode="&#x26;" horiz-adv-x="756" 
d="M721 329l-76 -19q-1 -57 -19 -113.5t-48 -100.5q10 -14 27 -23t31 -9q23 0 41.5 11t31.5 30l37 -54q-43 -61 -125 -61q-35 0 -66 12t-60 34q-37 -25 -82 -35.5t-101 -10.5q-121 0 -190.5 53t-69.5 145q0 62 35 107t118 91q-55 88 -55 167q0 52 22.5 91.5t65.5 61.5
t102 22q56 0 95.5 -18t60.5 -50t21 -73q0 -56 -39.5 -111.5t-123.5 -99.5l165 -213q12 23 25.5 61t14.5 86l-77 19v56h239v-56zM324 63q38 0 70 8.5t45 19.5l-185 237q-35 -20 -53.5 -57t-18.5 -82q0 -60 37 -93t105 -33zM265 576q0 -35 9 -63.5t34 -68.5q53 36 81.5 66.5
t28.5 71.5q0 35 -20 55.5t-59 20.5q-32 0 -53 -20.5t-21 -61.5z" />
    <glyph glyph-name="quotesingle" unicode="'" horiz-adv-x="223" 
d="M150 470h-77q0 45 -6.5 88t-13 77.5t-6.5 53.5q0 32 14 51.5t51 19.5q36 0 50 -19.5t14 -51.5q0 -19 -6.5 -53.5t-13 -77.5t-6.5 -88z" />
    <glyph glyph-name="parenleft" unicode="(" horiz-adv-x="382" 
d="M33 353q0 -104 23.5 -195.5t64.5 -163.5t95.5 -117.5t117.5 -58.5l40 78q-63 13 -110.5 73t-73.5 158t-26 224q0 125 27 224.5t75.5 162.5t112.5 78l-30 70q-66 -16 -123.5 -64t-101 -119.5t-67.5 -160.5t-24 -189z" />
    <glyph glyph-name="parenright" unicode=")" horiz-adv-x="382" 
d="M349 353q0 100 -24 189t-67.5 160.5t-101 119.5t-123.5 64l-30 -70q65 -15 113 -78t75 -162.5t27 -224.5q0 -126 -26.5 -224t-73.5 -158t-110 -73l40 -78q63 13 117.5 58.5t95.5 117.5t64.5 163.5t23.5 195.5z" />
    <glyph glyph-name="asterisk" unicode="*" horiz-adv-x="482" 
d="M293 756q0 -26 -10 -62t-21 -64q21 15 43.5 29.5t45.5 24.5t43 10q22 0 35.5 -16.5t13.5 -36.5q0 -26 -16.5 -37.5t-40 -13.5t-44.5 -2q-17 0 -35 1t-36 3q19 -10 46.5 -28t49 -40t21.5 -46q0 -19 -15.5 -35t-37.5 -16q-24 0 -42 22.5t-30.5 55t-21.5 60.5
q-13 -38 -25.5 -70t-28 -50.5t-37.5 -18.5q-21 0 -38 16.5t-17 37.5q0 19 17 39t43 39t51 35q-16 -2 -32.5 -3t-33.5 -1q-20 0 -44 2t-40.5 13.5t-16.5 37.5q0 20 13.5 36.5t35.5 16.5q20 0 43 -10t45.5 -24.5t41.5 -28.5q-12 33 -21.5 66t-9.5 58q0 23 15.5 37.5t37.5 14.5
q21 0 37 -14t16 -38z" />
    <glyph glyph-name="plus" unicode="+" horiz-adv-x="500" 
d="M36 321v82h165v158h98v-158h165v-82h-165v-158h-98v158h-165z" />
    <glyph glyph-name="comma" unicode="," horiz-adv-x="254" 
d="M125 133q38 0 61 -26.5t23 -71.5q0 -54 -35 -103t-106 -90l-31 36q36 30 61.5 56.5t27.5 47.5l-4 3q-7 -6 -22 -6q-23 0 -39 20t-16 54q0 35 22 57.5t58 22.5z" />
    <glyph glyph-name="hyphen" unicode="-" horiz-adv-x="371" 
d="M60 229v97h251v-97h-251z" />
    <glyph glyph-name="hyphen" unicode="&#xad;" horiz-adv-x="371" 
d="M60 229v97h251v-97h-251z" />
    <glyph glyph-name="period" unicode="." horiz-adv-x="247" 
d="M45 52q0 38 21 59.5t57 21.5t57.5 -22t21.5 -58t-21 -57t-59 -21q-36 0 -56.5 20t-20.5 57z" />
    <glyph glyph-name="slash" unicode="/" horiz-adv-x="321" 
d="M44 -10l146 740h87l-146 -740h-87z" />
    <glyph glyph-name="zero" unicode="0" horiz-adv-x="684" 
d="M47 360q0 192 83 292q36 44 89 61t123 17q52 0 89 -7.5t66.5 -24.5t56.5 -46q83 -100 83 -292q0 -96 -21.5 -169.5t-61.5 -122.5q-27 -29 -56.5 -46t-66.5 -24.5t-89 -7.5q-70 0 -123 17.5t-89 60.5q-83 100 -83 292zM495 360q0 82 -11 141.5t-34 96.5q-19 32 -41.5 47.5
t-66.5 15.5q-34 0 -64 -15.5t-44 -47.5q-22 -37 -33.5 -96.5t-11.5 -141.5t11 -141.5t34 -96.5q14 -31 43 -47t65 -16q44 0 66.5 16t41.5 47q23 37 34 96.5t11 141.5z" />
    <glyph glyph-name="one" unicode="1" horiz-adv-x="416" 
d="M165 75v543h-127v66q24 0 56 5.5t60.5 15.5t39.5 25h98v-655l107 -19v-56h-361v56z" />
    <glyph glyph-name="two" unicode="2" horiz-adv-x="600" 
d="M152 110h285l24 128h85v-238h-505v66q0 52 26.5 95.5t68 82t88 75t88 73t68 76.5t26.5 86q0 51 -34.5 79.5t-96.5 28.5q-55 0 -85.5 -24t-39.5 -73q32 0 49 -16.5t17 -43.5q0 -29 -20 -45t-53 -16q-36 0 -62.5 23t-26.5 78q0 54 28 96t81 66t126 24t128.5 -24t87.5 -68
t32 -104q0 -58 -28 -105.5t-71.5 -86t-93 -70.5t-93 -59.5t-71.5 -53t-28 -50.5z" />
    <glyph glyph-name="three" unicode="3" horiz-adv-x="590" 
d="M531 541q0 -61 -37.5 -107.5t-104.5 -57.5v-4q80 -16 116.5 -62.5t36.5 -109.5q0 -67 -36 -114t-96.5 -71.5t-132.5 -24.5q-74 0 -126.5 24t-80 66t-27.5 95q0 46 21.5 74.5t66.5 28.5q36 0 55 -18t19 -44t-18 -43t-48 -17q8 -48 38.5 -72.5t87.5 -24.5q65 0 102 32
t37 95q0 72 -48.5 113.5t-133.5 41.5v63q81 0 130 41t49 107q0 56 -34.5 83t-93.5 27q-106 0 -120 -87q31 0 48.5 -16t17.5 -42q0 -25 -17 -43.5t-55 -18.5q-48 0 -72 30t-24 74q0 51 29 89.5t81 60.5t122 22q72 0 128 -24t88 -66.5t32 -99.5z" />
    <glyph glyph-name="four" unicode="4" horiz-adv-x="573" 
d="M312 75v123h-288l-15 59l321 473h109v-460h109l-10 -72h-99v-123l77 -19v-56h-301v56zM312 588l-204 -318h204v318z" />
    <glyph glyph-name="five" unicode="5" horiz-adv-x="566" 
d="M462 610l45 142h-72l-18 -32h-288l-53 -359l74 -30q20 25 50.5 37.5t70.5 12.5q62 0 92 -43t30 -116q0 -74 -35 -119.5t-97 -45.5q-58 0 -87 25t-36 60q32 0 49.5 19t17.5 43t-15 42t-56 18q-36 0 -64.5 -29.5t-28.5 -81.5q0 -43 28 -80.5t80 -60t125 -22.5
q80 0 137.5 29.5t88.5 83t31 124.5q0 69 -29 119t-80.5 77.5t-121.5 27.5q-43 0 -77.5 -11t-63.5 -33l31 203h272z" />
    <glyph glyph-name="six" unicode="6" horiz-adv-x="612" 
d="M173 351h4q28 37 75 58t102 21q64 0 111.5 -27.5t74.5 -77t27 -115.5q0 -102 -64.5 -161t-174.5 -59q-142 0 -211 86t-69 264q0 191 71.5 291t215.5 100q61 0 107.5 -21t72.5 -59t26 -88q0 -41 -18.5 -65.5t-62.5 -24.5q-40 0 -60.5 19.5t-20.5 47.5t18 44.5t48 16.5
q-6 28 -33.5 44t-67.5 16q-91 0 -132 -62.5t-41 -200.5q0 -14 0.5 -24t1.5 -23zM430 210q0 148 -118 148q-55 0 -86.5 -37t-31.5 -111t31.5 -112t86.5 -38q118 0 118 150z" />
    <glyph glyph-name="seven" unicode="7" horiz-adv-x="528" 
d="M284 59q0 -34 -14 -51.5t-57 -17.5q-35 0 -48.5 19.5t-13.5 50.5q0 42 12 96t33.5 114t51.5 121t65.5 117t74.5 102h-255l-19 -117h-82v227h489v-76q-50 -59 -93 -129.5t-75.5 -147.5t-50.5 -155.5t-18 -152.5z" />
    <glyph glyph-name="eight" unicode="8" horiz-adv-x="581" 
d="M506 569q0 -54 -28.5 -101.5t-80.5 -78.5q74 -40 108 -85.5t34 -106.5q0 -63 -33 -109.5t-92 -72t-138 -25.5q-110 0 -171.5 50t-61.5 139q0 63 32.5 111t102.5 88q-55 40 -78.5 78.5t-23.5 90.5q0 86 55 135t161 49q96 0 155 -41.5t59 -120.5zM247 335
q-50 -28 -77 -63.5t-27 -88.5q0 -62 36.5 -93t97.5 -31t97.5 29t36.5 80q0 30 -15 53t-50.5 49.5t-98.5 64.5zM345 427q30 21 50.5 58.5t20.5 77.5q0 49 -31.5 74t-83.5 25q-49 0 -79.5 -22.5t-30.5 -65.5q0 -38 32 -73.5t122 -73.5z" />
    <glyph glyph-name="nine" unicode="9" horiz-adv-x="611" 
d="M438 370h-4q-28 -37 -75 -58t-102 -21q-63 0 -111 27.5t-75 77t-27 115.5q0 68 30 117.5t85 76t128 26.5q143 0 209.5 -85.5t66.5 -264.5q0 -191 -71.5 -291t-215.5 -100q-61 0 -107.5 21t-72.5 59t-26 88q0 39 20.5 64.5t60.5 25.5q41 0 61 -19t20 -48q0 -28 -18 -44.5
t-48 -16.5q6 -28 33.5 -44t67.5 -16q91 0 132 62.5t41 200.5v24t-2 23zM181 511q0 -148 118 -148q55 0 86.5 37.5t31.5 110.5q0 74 -31.5 112t-86.5 38q-118 0 -118 -150z" />
    <glyph glyph-name="colon" unicode=":" horiz-adv-x="277" 
d="M60 38q0 38 21 59.5t57 21.5t57.5 -22t21.5 -58t-21 -57t-59 -21q-36 0 -56.5 20t-20.5 57zM60 388q0 38 21 59.5t57 21.5t57.5 -22t21.5 -58t-21 -57t-59 -21q-36 0 -56.5 20t-20.5 57z" />
    <glyph glyph-name="semicolon" unicode=";" horiz-adv-x="287" 
d="M64 387q0 38 21 59.5t57 21.5t57.5 -22t21.5 -58t-21 -57t-59 -21q-36 0 -56.5 20t-20.5 57zM142 133q38 0 61 -26.5t23 -71.5q0 -54 -35 -103t-106 -90l-31 36q36 30 61.5 56.5t27.5 47.5l-4 3q-7 -6 -22 -6q-23 0 -39 20t-16 54q0 35 22 57.5t58 22.5z" />
    <glyph glyph-name="less" unicode="&#x3c;" horiz-adv-x="491" 
d="M429 135l-399 196v58l399 195v-93l-298 -131l298 -131v-94z" />
    <glyph glyph-name="equal" unicode="=" horiz-adv-x="556" 
d="M64 408v88h428v-88h-428zM64 220v89h428v-89h-428z" />
    <glyph glyph-name="greater" unicode="&#x3e;" horiz-adv-x="491" 
d="M461 331l-399 -196v94l298 131l-298 131v93l399 -195v-58z" />
    <glyph glyph-name="question" unicode="?" horiz-adv-x="506" 
d="M266 205h-86q0 41 9 72.5t31.5 63t62.5 71.5q35 35 50 67t15 72q0 53 -30.5 81.5t-86.5 28.5q-28 0 -50.5 -14.5t-22.5 -34.5q20 -11 31.5 -30.5t11.5 -41.5q0 -28 -22.5 -49.5t-60.5 -21.5t-62 32.5t-24 76.5q0 43 27.5 77.5t75 55t105.5 20.5q71 0 124.5 -22t84 -61.5
t30.5 -90.5q0 -45 -25 -87.5t-86 -99.5q-38 -36 -60.5 -62t-32 -49.5t-9.5 -53.5zM146 53q0 37 21 58.5t57 21.5t57.5 -22t21.5 -58t-21 -57t-59 -21q-36 0 -56.5 20t-20.5 58z" />
    <glyph glyph-name="at" unicode="@" horiz-adv-x="817" 
d="M399 449q77 0 101 -55l32 37h70l-37 -246q-2 -12 -3 -22.5t-1 -19.5q0 -26 12 -39t27 -13q26 0 49 25.5t37.5 68.5t14.5 96q0 80 -35.5 138.5t-100 91t-152.5 32.5q-65 0 -120.5 -26t-97 -73t-64.5 -109.5t-23 -135.5q0 -134 73.5 -208.5t205.5 -74.5q139 0 246 69
l19 -46q-55 -37 -124 -56t-143 -19q-108 0 -186 40.5t-120.5 115.5t-42.5 178q0 84 29 156t81 126t121 84t149 30q108 0 188.5 -39t125.5 -108.5t45 -162.5q0 -70 -25.5 -125.5t-69.5 -87.5t-102 -32q-48 0 -67 18.5t-27 49.5q-23 -31 -61 -52t-82 -21q-81 0 -119 42
t-38 120q0 72 28.5 129.5t77 90.5t109.5 33zM407 395q-48 0 -81.5 -57t-33.5 -152q0 -52 15.5 -75t45.5 -23q53 0 88.5 55t35.5 153q0 53 -17.5 76t-52.5 23z" />
    <glyph glyph-name="A" unicode="A" horiz-adv-x="728" 
d="M515 79l-51 155h-244l-52 -155l83 -21v-58h-264v58l82 21l234 651h123l232 -651l80 -21v-58h-305v58zM343 598l-98 -291h195l-93 291h-4z" />
    <glyph glyph-name="B" unicode="B" horiz-adv-x="697" 
d="M624 547q0 -38 -17.5 -71t-47.5 -55t-69 -27v-4q78 -16 123 -66t45 -123q0 -56 -29.5 -103.5t-74.5 -70.5q-28 -14 -69 -20.5t-115 -6.5h-329v58l84 21v562l-84 21v58h366q105 0 162 -51q26 -24 40.5 -56t14.5 -66zM353 339h-98v-264h80q46 0 74 5t47 16q27 14 44 44.5
t17 70.5q0 35 -13 59t-33 40q-18 14 -46 21.5t-72 7.5zM255 647v-235h95q70 0 103 35q15 14 26 35.5t11 49.5t-11 50t-26 35q-30 30 -99 30h-99z" />
    <glyph glyph-name="C" unicode="C" horiz-adv-x="698" 
d="M377 661q-38 0 -72.5 -16t-55.5 -46q-27 -39 -45.5 -97.5t-18.5 -129.5t15 -133t42 -104q22 -34 59.5 -50t84.5 -16q168 0 197 169h85q-49 -248 -304 -248q-138 0 -220 80q-49 48 -75 121t-26 162q0 101 33 183t93 131q76 63 201 63q62 0 101 -16t77 -57l20 63h85v-236
h-91q-14 88 -62.5 132.5t-122.5 44.5z" />
    <glyph glyph-name="D" unicode="D" horiz-adv-x="779" 
d="M255 75h125q54 0 92 16.5t64 49.5q27 34 41 87t14 126q0 142 -55 217q-27 37 -67.5 55.5t-98.5 18.5h-115v-570zM41 720h366q149 0 232 -84q47 -48 72 -118t25 -150q0 -84 -26.5 -157.5t-73.5 -123.5q-83 -87 -238 -87h-357v58l84 21v562l-84 21v58z" />
    <glyph glyph-name="E" unicode="E" horiz-adv-x="698" 
d="M495 238h-81l-17 94h-137v-257h275l28 148h88v-223h-615v58l94 21v562l-94 21v58h593v-212h-82l-29 139h-258v-240h137l17 95h81v-264z" />
    <glyph glyph-name="F" unicode="F" horiz-adv-x="650" 
d="M496 227h-81l-17 94h-137v-239l117 -19v-63h-341v58l94 24v559l-94 21v58h593v-214h-84l-32 141h-253v-251h137l17 95h81v-264z" />
    <glyph glyph-name="G" unicode="G" horiz-adv-x="765" 
d="M378 70q85 0 121 42.5t36 125.5v40l-84 21v60h298v-60l-84 -21v-278h-82l-25 79q-43 -48 -89.5 -68.5t-109.5 -20.5q-137 0 -219 84q-46 47 -71.5 119t-25.5 159q0 89 26.5 165.5t74.5 126.5q41 43 97 64.5t132 21.5q60 0 99 -16t76 -56l20 62h85v-236h-91
q-13 80 -59 128.5t-126 48.5q-45 0 -75 -15t-52 -43q-28 -42 -47 -103.5t-19 -133.5q0 -70 17.5 -135t49.5 -109q20 -27 53.5 -39.5t73.5 -12.5z" />
    <glyph glyph-name="H" unicode="H" horiz-adv-x="819" 
d="M694 641v-562l84 -21v-58h-298v58l84 21v254h-309v-254l84 -21v-58h-298v58l84 21v562l-84 21v58h298v-58l-84 -21v-235h309v235l-84 21v58h298v-58z" />
    <glyph glyph-name="I" unicode="I" horiz-adv-x="390" 
d="M260 641v-562l94 -21v-58h-318v58l94 21v562l-94 21v58h318v-58z" />
    <glyph glyph-name="J" unicode="J" horiz-adv-x="597" 
d="M355 207v434l-99 21v58h308v-58l-79 -21v-423q0 -69 -29.5 -120.5t-82.5 -80t-124 -28.5t-125.5 23t-85 63.5t-30.5 94.5q0 46 20 75t60 29q35 0 57 -20t22 -53q0 -23 -13 -46.5t-30 -31.5q5 -26 34 -43.5t82 -17.5q55 0 85 36t30 109z" />
    <glyph glyph-name="K" unicode="K" horiz-adv-x="747" 
d="M260 641v-244l235 244l-91 21v58h293v-58l-88 -21l-219 -217l287 -347l84 -19v-58h-309v58l66 20l-212 262l-46 -44v-217l84 -21v-58h-308v58l94 21v562l-94 21v58h308v-58z" />
    <glyph glyph-name="L" unicode="L" horiz-adv-x="645" 
d="M260 641v-566h242l34 173h85v-248h-585v58l94 21v562l-94 21v58h328v-58z" />
    <glyph glyph-name="M" unicode="M" horiz-adv-x="977" 
d="M486 106l186 614h264v-58l-84 -21v-562l84 -21v-58h-287v58l73 21v561l-182 -640h-142l-178 640v-561l73 -21v-58h-252v58l84 21v562l-84 21v58h268l173 -614h4z" />
    <glyph glyph-name="N" unicode="N" horiz-adv-x="817" 
d="M125 79v562l-84 21v58h231l334 -528v449l-84 21v58h263v-58l-84 -21v-641h-111l-370 574v-495l84 -21v-58h-263v58z" />
    <glyph glyph-name="O" unicode="O" horiz-adv-x="774" 
d="M731 368q0 -83 -24 -160t-76 -131q-43 -44 -103 -65.5t-144 -21.5t-144 21t-101 63q-43 45 -69.5 117.5t-26.5 160.5q0 87 26.5 163.5t73.5 127.5q42 45 101 66t143 21q80 0 141 -20t106 -64q52 -52 74.5 -125.5t22.5 -152.5zM188 371q0 -78 14.5 -138t39.5 -98
q24 -37 60 -56t88 -19q94 0 142 66q26 35 40 92t14 136t-14.5 137.5t-40.5 95.5q-26 38 -63.5 56t-84.5 18t-81.5 -17.5t-57.5 -48.5q-56 -74 -56 -224z" />
    <glyph glyph-name="P" unicode="P" horiz-adv-x="645" 
d="M255 348h94q28 0 52.5 8.5t38.5 22.5q20 20 34 48.5t14 65.5q0 33 -13.5 64.5t-34.5 53.5q-16 17 -41 26.5t-54 9.5h-90v-299zM401 275h-146v-196l95 -21v-58h-309v58l84 21v562l-84 21v58h361q47 0 86 -12.5t64 -35.5q35 -31 55.5 -74.5t20.5 -91.5q0 -49 -21.5 -99.5
t-56.5 -81.5q-26 -27 -65 -38.5t-84 -11.5z" />
    <glyph glyph-name="Q" unicode="Q" horiz-adv-x="774" 
d="M731 368q0 -87 -26 -163.5t-74 -127.5q-37 -40 -86.5 -60.5t-111.5 -25.5v-4l97 -66q36 -24 81 -24q19 0 31 6.5t29 22.5l22 -40q-21 -38 -56 -54.5t-83 -16.5q-55 0 -97.5 19t-65.5 57l-60 101q-122 9 -192 82q-46 48 -71 120.5t-25 157.5q0 87 26 164t74 127
q44 46 103 66.5t141 20.5q81 0 142.5 -20t104.5 -64q47 -47 72 -120.5t25 -157.5zM188 374q0 -79 14 -141t40 -99q44 -74 147 -74q97 0 142 66q55 70 55 228t-55 233q-47 74 -147 74q-94 0 -141 -66q-55 -67 -55 -221z" />
    <glyph glyph-name="R" unicode="R" horiz-adv-x="717" 
d="M566 382q-18 -14 -40.5 -27t-57.5 -21q5 -5 16 -17.5t21 -29.5l124 -210l89 -19v-58h-236v58l-131 257h-96v-236l95 -21v-58h-309v58l84 21v562l-84 21v58h374q48 0 84.5 -9t64.5 -29q36 -25 57 -66.5t21 -83.5t-20.5 -82.5t-55.5 -67.5zM255 388h113q55 0 91 31
q20 17 31.5 45.5t11.5 61.5q0 30 -12 54.5t-32 40.5q-17 14 -39.5 20t-54.5 6h-109v-259z" />
    <glyph glyph-name="S" unicode="S" horiz-adv-x="613" 
d="M322 -11q-57 0 -96.5 16.5t-70.5 52.5l-11 -58h-86v242h91q6 -100 49 -141.5t114 -41.5q57 0 91 24t34 74q0 41 -22.5 67.5t-63 47t-94.5 42.5q-62 26 -106 53t-67 65t-23 96q0 97 59.5 150t159.5 53q99 0 161 -56l8 45h86v-242h-87q0 94 -35 139t-108 45
q-113 0 -113 -107q0 -35 14 -56t46.5 -39t88.5 -43q84 -38 134 -71t71.5 -69.5t21.5 -85.5q0 -67 -33 -112t-88.5 -67.5t-124.5 -22.5z" />
    <glyph glyph-name="T" unicode="T" horiz-adv-x="674" 
d="M24 720h626v-225h-64l-32 150h-152v-563l106 -24v-58h-342v58l106 24v563h-153l-31 -150h-64v225z" />
    <glyph glyph-name="U" unicode="U" horiz-adv-x="784" 
d="M584 274v367l-84 21v58h261v-58l-84 -21v-398q0 -124 -74.5 -189t-218.5 -65q-133 0 -204.5 66.5t-71.5 188.5v397l-84 21v58h298v-58l-84 -21v-365q0 -217 168 -217q94 0 136 51t42 164z" />
    <glyph glyph-name="V" unicode="V" horiz-adv-x="724" 
d="M203 641l174 -523h4l170 523l-83 21v58h264v-58l-82 -21l-219 -641h-128l-238 641l-80 21v58h300v-58z" />
    <glyph glyph-name="W" unicode="W" horiz-adv-x="1051" 
d="M737 127l141 515l-79 20v58h259v-58l-83 -21l-185 -641h-134l-131 431l-119 -431h-134l-205 641l-78 21v58h314v-58l-96 -21l142 -513h4l126 468l-9 45l-78 21v58h294v-58l-92 -21l139 -514h4z" />
    <glyph glyph-name="X" unicode="X" horiz-adv-x="742" 
d="M356 662l-94 -21l117 -189l143 189l-91 21v58h293v-58l-98 -21l-196 -255l205 -307l106 -21v-58h-357l-2 58l103 21l-134 214l-150 -214l109 -21v-58h-302v58l93 21l200 279l-186 283l-106 21v58h347v-58z" />
    <glyph glyph-name="Y" unicode="Y" horiz-adv-x="682" 
d="M360 363l152 278l-81 21v58h257v-58l-82 -21l-196 -359v-203l94 -21v-58h-318v58l94 21v187l-207 375l-83 21v58h306v-58l-84 -21z" />
    <glyph glyph-name="Z" unicode="Z" horiz-adv-x="659" 
d="M502 75l32 163h87v-238h-593v61l415 584h-270l-32 -152h-82v227h539v-61l-415 -584h319z" />
    <glyph glyph-name="bracketleft" unicode="[" horiz-adv-x="383" 
d="M84 -149v1004h281v-75h-162v-855h162v-74h-281z" />
    <glyph glyph-name="backslash" unicode="\" horiz-adv-x="321" 
d="M131 730l146 -740h-87l-146 740h87z" />
    <glyph glyph-name="bracketright" unicode="]" horiz-adv-x="383" 
d="M299 855v-1004h-281v74h162v855h-162v75h281z" />
    <glyph glyph-name="asciicircum" unicode="^" horiz-adv-x="392" 
d="M347 639l-89 151h-125l-88 -151h83l68 76l68 -76h83z" />
    <glyph glyph-name="underscore" unicode="_" horiz-adv-x="614" 
d="M60 -73v88h494v-88h-494z" />
    <glyph glyph-name="grave" unicode="`" horiz-adv-x="259" 
d="M185 715l49 -76h-83l-38 28q-48 35 -66 53.5t-18 33.5q0 17 12 29.5t44 12.5q29 0 49 -17t51 -64z" />
    <glyph glyph-name="a" unicode="a" horiz-adv-x="549" 
d="M30 118q0 83 76 128.5t239 70.5q-4 50 -11 77t-18 46q-13 23 -32 37t-48 14q-21 0 -38.5 -8t-23.5 -22q14 -7 19.5 -22t5.5 -26q0 -25 -22 -44.5t-53 -19.5t-49 20.5t-18 51.5q0 41 29 70t74 44t91 15q47 0 84.5 -13.5t60.5 -33.5q79 -70 79 -222v-130q0 -49 6.5 -68
t28.5 -19h45v-45q-92 -29 -139 -29q-33 0 -44 22t-11 87h-4q-31 -51 -82 -80t-110 -29q-63 0 -99 34t-36 94zM226 63q21 0 46.5 14t44.5 39q11 14 21 40t10 62q0 12 -1 27t-3 28q-69 -15 -108.5 -32t-56 -40.5t-16.5 -57.5q0 -43 20 -61.5t43 -18.5z" />
    <glyph glyph-name="b" unicode="b" horiz-adv-x="615" 
d="M577 275q0 -65 -19 -123t-53 -97q-56 -65 -161 -65q-51 0 -91 23.5t-71 87.5l-30 -101h-77v705l-77 19v56h204v-298q30 38 67 53t83 15q51 0 92.5 -15t67.5 -48q31 -38 48 -93t17 -119zM202 270q0 -60 10 -98t25 -62q16 -25 38 -39t54 -14t50.5 13.5t31.5 34.5
q15 26 23 62.5t8 88.5q0 57 -8.5 101.5t-21.5 72.5q-12 26 -32 39.5t-52 13.5q-27 0 -51.5 -10t-39.5 -36t-25 -66.5t-10 -100.5z" />
    <glyph glyph-name="c" unicode="c" horiz-adv-x="546" 
d="M300 550q62 0 110 -19.5t75.5 -54.5t27.5 -82q0 -45 -24 -68.5t-59 -23.5q-39 0 -54.5 24t-15.5 49t12.5 43.5t37.5 25.5q-13 18 -41.5 29t-63.5 11q-63 0 -98 -46t-35 -165q0 -54 7 -85t19 -54q16 -29 41 -45.5t64 -16.5q41 0 86.5 19.5t75.5 60.5l54 -42
q-46 -64 -108 -92t-132 -28q-74 0 -125.5 28.5t-80.5 83.5q-36 67 -36 163q0 87 31.5 151t90.5 99t141 35z" />
    <glyph glyph-name="d" unicode="d" horiz-adv-x="636" 
d="M38 269q0 66 18.5 123.5t49.5 92.5q29 32 69 48.5t90 16.5q47 0 83 -17t65 -61v233l-77 19v56h204v-705l77 -19v-56l-185 -10l-8 82q-31 -46 -70 -64t-91 -18q-55 0 -92.5 16.5t-63.5 46.5q-31 35 -50 91.5t-19 124.5zM413 266q0 58 -10 101t-24 65q-15 24 -37.5 37
t-54.5 13q-24 0 -49 -10t-39 -36q-13 -24 -19.5 -66t-6.5 -92q0 -58 8 -101t20 -66q14 -25 38.5 -39.5t52.5 -14.5q23 0 47 10.5t40 35.5q16 26 25 68.5t9 94.5z" />
    <glyph glyph-name="e" unicode="e" horiz-adv-x="556" 
d="M518 256h-349q0 -68 20 -113q16 -34 43 -52.5t67 -18.5q44 0 87.5 20t74.5 60l54 -42q-35 -50 -94.5 -85t-146.5 -35q-73 0 -126 29.5t-81 86.5q-15 31 -22 69t-7 82q0 140 64.5 216.5t182.5 76.5q109 0 172.5 -63.5t63.5 -175.5q0 -11 -0.5 -21.5t-2.5 -33.5zM283 481
q-103 0 -113 -161h220v26q0 65 -28.5 100t-78.5 35z" />
    <glyph glyph-name="f" unicode="f" horiz-adv-x="389" 
d="M17 460v64l97 14v27q0 107 58.5 166t156.5 59q59 0 94.5 -28.5t35.5 -72.5q0 -32 -16.5 -49.5t-45.5 -17.5q-32 0 -49.5 16t-17.5 44q0 21 16 37q-10 18 -30 18q-19 0 -32 -8q-21 -14 -30 -35.5t-11 -48t-2 -55.5v-50h128v-80h-128v-385l108 -19v-56h-312v56l77 19v385
h-97z" />
    <glyph glyph-name="g" unicode="g" horiz-adv-x="575" 
d="M528 -6q0 -92 -66 -135t-210 -43q-64 0 -116.5 12t-83.5 39.5t-31 74.5q0 46 29 74t86 30v4q-76 21 -76 76q0 20 10 42t33 39t60 22q-53 13 -83 53.5t-30 95.5q0 80 54 126t155 46q67 0 105 -11.5t67 -34.5l34 12l92 44h17v-103h-17l-70 8h-25q20 -31 20 -81
q0 -82 -51 -129.5t-147 -47.5q-10 0 -20 0.5t-20 1.5q-39 -5 -62.5 -17.5t-23.5 -35.5q0 -18 19 -24.5t69 -6.5h116q82 0 124 -32.5t42 -98.5zM288 33h-35q-67 0 -97 -21t-30 -55q0 -76 143 -76q77 0 117 22.5t40 65.5q0 35 -31 49.5t-107 14.5zM168 382q0 -56 24.5 -85.5
t68.5 -29.5q53 0 78 29.5t25 85.5q0 53 -25 80t-78 27q-45 0 -69 -27t-24 -80z" />
    <glyph glyph-name="h" unicode="h" horiz-adv-x="658" 
d="M442 75v193q0 65 -3.5 96.5t-12.5 50.5q-24 49 -88 49q-28 0 -54 -14t-41 -40q-8 -13 -14 -36.5t-6 -57.5v-241l67 -19v-56h-271v56l77 19v630l-77 19v56h204v-334q26 48 68.5 76t93.5 28q43 0 72.5 -10.5t51.5 -33.5q31 -32 45.5 -85.5t14.5 -139.5v-206l77 -19v-56
h-271v56z" />
    <glyph glyph-name="i" unicode="i" horiz-adv-x="331" 
d="M108 465l-77 19v56h204v-465l77 -19v-56h-281v56l77 19v390zM97 692q0 32 19.5 52t54.5 20t55 -20t20 -52q0 -31 -19.5 -51t-55.5 -20t-55 19.5t-19 51.5z" />
    <glyph glyph-name="j" unicode="j" horiz-adv-x="300" 
d="M225 540v-455q0 -74 -4.5 -116.5t-17.5 -69.5q-22 -47 -58.5 -68t-90.5 -21q-64 0 -103.5 24.5t-39.5 70.5q0 29 18 50.5t52 21.5q29 0 46.5 -18t17.5 -44q0 -10 -4.5 -21t-13.5 -17q2 -11 12.5 -13t14.5 -2q22 0 33 28t11 101v474l-77 19v56h204zM90 692q0 32 19.5 52
t54.5 20t55 -20t20 -52q0 -31 -19.5 -51t-55.5 -20t-55 19.5t-19 51.5z" />
    <glyph glyph-name="k" unicode="k" horiz-adv-x="609" 
d="M352 56l59 19l-132 176l-56 -47v-129l77 -19v-56h-281v56l77 19v630l-77 19v56h204v-498l170 184l-52 18v56h245v-56l-88 -19l-137 -140l187 -252l53 -17v-56h-249v56z" />
    <glyph glyph-name="l" unicode="l" horiz-adv-x="326" 
d="M99 76v628l-77 19v57h204v-704l77 -19v-57h-281v57z" />
    <glyph glyph-name="m" unicode="m" horiz-adv-x="995" 
d="M108 75v390l-77 19v56h174l22 -100h4q29 50 77.5 80t103.5 30q41 0 73 -15.5t47 -38.5q16 -25 26 -66q32 56 83 88t109 32q40 0 72 -15.5t49 -42.5q12 -19 19 -49t10 -77.5t3 -120.5v-170l77 -19v-56h-271v56l67 19v193q0 65 -4 96.5t-12 50.5q-10 24 -26.5 33.5
t-34.5 9.5q-25 0 -45.5 -7t-39.5 -24q-22 -20 -32.5 -47t-12.5 -68v-237l67 -19v-56h-261v56l67 19v193q0 65 -4 96.5t-12 50.5q-10 24 -26.5 33.5t-34.5 9.5q-25 0 -45.5 -7t-39.5 -24q-22 -20 -32.5 -47t-12.5 -68v-237l67 -19v-56h-271v56z" />
    <glyph glyph-name="n" unicode="n" horiz-adv-x="674" 
d="M108 75v390l-77 19v56h174l22 -100h4q30 51 81 80.5t109 29.5q83 0 123 -54q20 -28 28.5 -78.5t8.5 -136.5v-206l77 -19v-56h-271v56l67 19v193q0 60 -3.5 93.5t-12.5 53.5q-11 26 -30 36t-45 10q-49 0 -83 -32q-41 -38 -45 -117v-237l67 -19v-56h-271v56z" />
    <glyph glyph-name="o" unicode="o" horiz-adv-x="594" 
d="M557 270q0 -64 -18.5 -120.5t-53.5 -94.5q-33 -35 -79.5 -50t-108.5 -15t-108.5 15t-79.5 50q-35 38 -53.5 94.5t-18.5 120.5t18.5 121t53.5 94q33 35 79.5 50t108.5 15t108.5 -15t79.5 -50q35 -37 53.5 -94t18.5 -121zM206 97q14 -20 36.5 -30t54.5 -10t55 10t36 30
q32 49 32 173q0 63 -8 106t-24 67q-13 20 -36 30t-55 10t-54.5 -10t-36.5 -30q-32 -49 -32 -173t32 -173z" />
    <glyph glyph-name="p" unicode="p" horiz-adv-x="635" 
d="M223 -105l97 -19v-56h-301v56l77 19v570l-77 19v56h174l15 -77q32 50 72.5 68.5t91.5 18.5t92.5 -15t67.5 -48q30 -38 47.5 -91.5t17.5 -115.5q0 -64 -19.5 -120.5t-52.5 -94.5q-56 -65 -161 -65q-43 0 -77.5 16.5t-63.5 57.5v-179zM222 280q0 -55 9 -95t24 -65t38.5 -39
t54.5 -14t50.5 13t31.5 34q15 26 23.5 67t8.5 89q0 50 -9 94.5t-24 71.5q-15 26 -37 36t-50 10q-31 0 -52 -11t-36 -35q-14 -23 -23 -62t-9 -94z" />
    <glyph glyph-name="q" unicode="q" horiz-adv-x="615" 
d="M413 -105v172q-29 -38 -65.5 -52.5t-80.5 -14.5q-51 0 -92 15t-68 48q-31 38 -50 91.5t-19 115.5q0 64 18.5 120.5t49.5 94.5q53 65 161 65q53 0 94 -24.5t72 -88.5l30 103h77v-645l77 -19v-56h-301v56zM413 271q0 109 -35 159q-16 26 -38 39t-53 13q-24 0 -48.5 -10.5
t-39.5 -35.5q-16 -25 -21 -65t-5 -93q0 -105 26 -158q15 -31 38 -42t49 -11q35 0 56.5 12t35.5 34q16 26 25.5 65t9.5 93z" />
    <glyph glyph-name="r" unicode="r" horiz-adv-x="474" 
d="M330 467v0v0q-11 0 -25 -13.5t-25.5 -31.5t-16.5 -32q-12 -34 -21 -70t-9 -88v-157l108 -19v-56h-312v56l77 19v405l-77 19v41h174l22 -132h4q23 68 62 105t86 37q39 0 65 -24.5t26 -65.5q0 -30 -18 -54.5t-51 -24.5q-40 0 -57 18.5t-17 40.5q0 7 0.5 10.5t4.5 16.5z" />
    <glyph glyph-name="s" unicode="s" horiz-adv-x="516" 
d="M243 51q50 0 85.5 19t35.5 53q0 27 -21.5 45t-54 30t-66.5 22q-41 13 -79 33t-62 53.5t-24 84.5q0 72 52.5 115.5t148.5 43.5q92 0 146.5 -38.5t54.5 -99.5q0 -34 -18.5 -52.5t-50.5 -18.5t-50 15.5t-18 36.5q0 17 10 33t26 23q-13 19 -37 29.5t-59 10.5
q-46 0 -69.5 -19.5t-23.5 -54.5q0 -26 12 -43.5t33.5 -28.5t50.5 -20q40 -12 78.5 -25t69.5 -32t49.5 -46.5t18.5 -66.5q0 -52 -32 -88.5t-86.5 -55.5t-122.5 -19q-95 0 -149 35.5t-54 94.5q0 41 23 64t55 23q24 0 44.5 -13.5t20.5 -38.5q0 -18 -11 -35t-25 -25
q10 -16 33 -30t66 -14z" />
    <glyph glyph-name="t" unicode="t" horiz-adv-x="365" 
d="M5 475v51l98 14l12 124l114 16v-140h128v-65h-128v-327q0 -34 1 -46.5t4 -20.5q3 -6 11 -9t26 -3h70v-44q-58 -18 -102.5 -26.5t-70.5 -8.5q-45 0 -58 37q-4 12 -6 31t-2 56v361h-97z" />
    <glyph glyph-name="u" unicode="u" horiz-adv-x="652" 
d="M218 540v-268q0 -64 3 -96t9 -51q8 -24 26.5 -36.5t37.5 -12.5q27 0 49 10t41 27q41 37 45 115v237l-87 19v56h214v-465l77 -19v-56l-185 -10l-11 110h-4q-29 -51 -79 -80.5t-107 -29.5q-38 0 -69.5 14.5t-49.5 39.5q-19 28 -28 79t-9 136v206l-67 19v56h194z" />
    <glyph glyph-name="v" unicode="v" horiz-adv-x="604" 
d="M368 -10h-133l-173 476l-56 19v56h254v-56l-66 -19l120 -367h4l123 366l-62 19v56h220v-56l-58 -19z" />
    <glyph glyph-name="w" unicode="w" horiz-adv-x="888" 
d="M193 464l85 -314l10 -59h5l11 59l104 400h102l107 -399l10 -59h4l12 59l81 313l-65 19v56h220v-56l-54 -19l-144 -474h-133l-104 361l-101 -361h-133l-149 474l-53 19v56h254v-56z" />
    <glyph glyph-name="x" unicode="x" horiz-adv-x="574" 
d="M208 465l95 -124l91 124l-60 19v56h218v-56l-57 -19l-150 -178l165 -213l55 -18v-56h-249v56l57 19l-102 131l-97 -131l60 -19v-56h-218v56l56 19l158 185l-159 205l-56 19v56h237v-56z" />
    <glyph glyph-name="y" unicode="y" horiz-adv-x="600" 
d="M529 465l-161 -441q-33 -77 -60 -124.5t-59.5 -68.5t-84.5 -21q-47 0 -80.5 25t-33.5 63q0 35 20.5 57.5t53.5 22.5q29 0 44.5 -13t15.5 -39q0 -10 -10.5 -27.5t-35.5 -17.5q2 -10 12 -13.5t17 -3.5q14 0 26 5.5t25.5 25.5t29.5 61l12 37l-201 472l-60 19v56h254l8 -56
l-71 -19l123 -347h4l111 347l-58 19v56h220v-56z" />
    <glyph glyph-name="z" unicode="z" horiz-adv-x="558" 
d="M405 71l20 136h87v-207h-473v71l313 398h-189l-24 -131h-87v202h456v-71l-312 -398h209z" />
    <glyph glyph-name="braceleft" unicode="{" horiz-adv-x="424" 
d="M2 312v89h34q55 0 80 27t25 85q0 17 -1.5 47t-3.5 60t-2 47q0 91 65.5 136.5t206.5 51.5v-75q-81 -5 -114.5 -31t-33.5 -85q0 -8 0.5 -25.5t1.5 -38.5t1.5 -40.5t0.5 -30.5q0 -69 -25.5 -108t-83.5 -59v-4q59 -13 84 -53t25 -120q0 -13 -0.5 -33.5t-1.5 -42.5t-1.5 -40.5
t-0.5 -27.5q0 -59 34 -85.5t114 -30.5v-75q-141 6 -206.5 51.5t-65.5 137.5q0 13 1 34.5t2.5 45.5t2.5 45.5t1 34.5q0 60 -24.5 86.5t-80.5 26.5h-34z" />
    <glyph glyph-name="bar" unicode="|" horiz-adv-x="255" 
d="M84 -170v940h87v-940h-87z" />
    <glyph glyph-name="braceright" unicode="}" horiz-adv-x="424" 
d="M422 401v-89h-34q-55 0 -80 -26.5t-25 -86.5q0 -13 1 -34.5t2.5 -45.5t2.5 -45.5t1 -34.5q0 -92 -65.5 -137.5t-206.5 -51.5v75q80 4 114 30.5t34 85.5q0 9 -0.5 27.5t-1.5 40.5t-1.5 42.5t-0.5 33.5q0 80 25.5 120t83.5 53v4q-58 20 -83.5 59t-25.5 108q0 11 0.5 30.5
t1.5 40.5t1.5 38.5t0.5 25.5q0 59 -33.5 85t-114.5 31v75q141 -6 206.5 -51.5t65.5 -136.5q0 -17 -1.5 -47t-3.5 -60t-2 -47q0 -58 25 -85t80 -27h34z" />
    <glyph glyph-name="asciitilde" unicode="~" horiz-adv-x="483" 
d="M60 289q18 145 112 145q34 0 56.5 -13.5t42 -27.5t43.5 -14q45 0 54 50h60q-19 -151 -112 -151q-33 0 -56 14t-42.5 28t-43.5 14q-44 0 -54 -45h-60z" />
    <glyph glyph-name="uni00A0" unicode="&#xa0;" horiz-adv-x="236" 
 />
    <glyph glyph-name="exclamdown" unicode="&#xa1;" horiz-adv-x="271" 
d="M93 335h86q0 -39 2.5 -82.5t5.5 -85.5t5.5 -75.5t2.5 -51.5q5 -37 9 -73t4 -78q0 -32 -15.5 -55.5t-54.5 -23.5q-37 0 -55.5 22.5t-18.5 57.5q0 41 5 77t8 73q2 18 4.5 51.5t5 75.5t4.5 85.5t2 82.5zM214 486q0 -36 -21 -57t-59 -21q-36 0 -56.5 20t-20.5 57
q0 38 21 59.5t57 21.5t57.5 -22t21.5 -58z" />
    <glyph glyph-name="cent" unicode="&#xa2;" horiz-adv-x="555" 
d="M256 -108v99q-126 10 -179 111q-36 67 -36 163q0 116 56.5 191.5t158.5 90.5v105h77v-103q81 -7 132.5 -48.5t51.5 -106.5q0 -45 -24 -68.5t-59 -23.5q-39 0 -54.5 24t-15.5 49t12.5 43.5t37.5 25.5q-11 15 -32.5 25t-48.5 14v-409q36 5 73.5 24.5t62.5 53.5l54 -42
q-38 -52 -86.5 -80t-103.5 -36v-102h-77zM202 134q10 -18 23 -31t31 -21v393q-38 -16 -59 -63.5t-21 -138.5q0 -54 7 -85t19 -54z" />
    <glyph glyph-name="sterling" unicode="&#xa3;" horiz-adv-x="628" 
d="M72 311v78h124q-21 44 -30.5 78t-9.5 65q0 79 59.5 124t167.5 45q86 0 133 -37.5t47 -102.5q0 -31 -16.5 -51t-49.5 -20q-31 0 -51 14.5t-20 38.5q0 20 9 34.5t27 22.5q-11 20 -33.5 30t-50.5 10q-49 0 -77 -20.5t-28 -64.5q0 -31 10 -72t32 -94h173v-78h-152
q5 -25 6 -39.5t1 -26.5q0 -24 -4 -50.5t-15 -53.5q43 -28 66 -38t44 -10q35 0 53.5 15t26.5 52h75q-11 -90 -39.5 -130t-80.5 -40q-20 0 -41 7t-52 25.5t-82 53.5q-60 -86 -134 -86q-58 0 -93 27.5t-35 77.5q0 31 16.5 52t41.5 32t52 11q21 0 47 -4t48 -13q3 9 4.5 23
t1.5 29q0 25 -3 44.5t-14 41.5h-154zM165 56q31 0 47 51q-10 8 -22.5 13t-21.5 5q-22 0 -35 -9t-13 -26q0 -34 45 -34z" />
    <glyph glyph-name="currency" unicode="&#xa4;" horiz-adv-x="588" 
d="M305 175q-57 0 -99.5 22.5t-66 62t-23.5 90.5t25 91.5t67.5 64t96.5 23.5q55 0 97.5 -22.5t67 -62t24.5 -91.5q0 -50 -25 -90.5t-67.5 -64t-96.5 -23.5zM307 246q40 0 64.5 29.5t24.5 74.5q0 46 -26 76t-67 30q-39 0 -64 -29.5t-25 -74.5q0 -46 26.5 -76t66.5 -30z
M191 401l-128 139l49 48l138 -128zM419 400l-59 59l138 128l49 -48zM191 299l59 -59l-138 -128l-49 48zM419 300l128 -139l-49 -48l-138 128z" />
    <glyph glyph-name="yen" unicode="&#xa5;" horiz-adv-x="754" 
d="M146 268v88h122l-157 285l-83 21v58h306v-58l-84 -21l147 -278h3l150 278l-81 21v58h257v-58l-82 -21l-156 -285h117v-88h-157v-50h157v-88h-157v-51l94 -21v-58h-318v58l94 21v51h-172v88h172v48l-1 2h-171z" />
    <glyph glyph-name="brokenbar" unicode="&#xa6;" horiz-adv-x="259" 
d="M86 -170v418h87v-418h-87zM86 368v402h87v-402h-87z" />
    <glyph glyph-name="section" unicode="&#xa7;" horiz-adv-x="540" 
d="M502 251q0 -52 -25.5 -92t-69.5 -63q55 -49 55 -120q0 -79 -60 -122.5t-161 -43.5q-88 0 -134.5 34t-46.5 93q0 37 18 59.5t53 22.5q29 0 47.5 -15t18.5 -39q0 -15 -10 -32t-41 -22q13 -22 33.5 -31t54.5 -9q57 0 86.5 22t29.5 61q0 34 -19 57t-48 40t-59 31
q-47 23 -89.5 50.5t-69.5 65.5t-27 92q0 52 25.5 91.5t68.5 62.5q-28 25 -41 54t-13 66q0 79 51.5 122.5t148.5 43.5q92 0 147 -38t55 -99q0 -34 -18 -53t-54 -19q-33 0 -49 15t-16 36q0 18 10 34t26 23q-16 21 -41 30.5t-57 9.5q-47 0 -69 -19.5t-22 -58.5
q0 -34 14.5 -55.5t40.5 -36.5t59 -32q50 -25 95.5 -53t74 -67t28.5 -96zM243 377q-3 2 -17.5 8.5t-39.5 21.5q-13 -13 -22 -35.5t-9 -49.5q0 -35 16.5 -60t49.5 -47t81 -49q8 -4 25 -13t32 -18q12 13 19 33.5t7 48.5q0 26 -9.5 51.5t-40 52.5t-92.5 56z" />
    <glyph glyph-name="dieresis" unicode="&#xa8;" horiz-adv-x="407" 
d="M15 690q0 35 19.5 54.5t53.5 19.5t54 -20t20 -54t-19.5 -53.5t-54.5 -19.5q-34 0 -53.5 19.5t-19.5 53.5zM245 690q0 35 19.5 54.5t53.5 19.5t54 -20t20 -54t-19.5 -53.5t-54.5 -19.5q-34 0 -53.5 19.5t-19.5 53.5z" />
    <glyph glyph-name="copyright" unicode="&#xa9;" horiz-adv-x="852" 
d="M418 -10q-81 0 -149.5 28.5t-119.5 79t-79 118t-28 145.5t28.5 145t79 117.5t119.5 78.5t150 28q89 0 161 -28t123.5 -78.5t79 -117.5t27.5 -145t-28.5 -145.5t-81 -118t-124 -79t-158.5 -28.5zM418 45q70 0 128 24t100.5 67t65.5 100.5t23 124.5t-22.5 124t-64.5 99.5
t-100 66.5t-129 24q-63 0 -117.5 -23.5t-95.5 -66t-64 -100t-23 -124.5t23 -125t64 -100.5t95 -66.5t117 -24zM425 510q-43 0 -65 -32q-15 -22 -22.5 -48.5t-7.5 -60.5q0 -31 6.5 -57.5t17.5 -46.5q12 -22 34 -32.5t44 -10.5q34 0 59 23.5t35 66.5h59q-14 -73 -56 -108
t-108 -35q-82 0 -126 42q-28 27 -43.5 66t-15.5 83q0 50 19.5 94.5t52.5 71.5q23 19 52.5 26t57.5 7q26 0 47.5 -8.5t42.5 -30.5l10 33h59v-136h-62q-7 47 -31.5 70t-58.5 23z" />
    <glyph glyph-name="ordfeminine" unicode="&#xaa;" horiz-adv-x="386" 
d="M46 493q0 44 39 71t130 42q-6 53 -16 67q-6 8 -14.5 10.5t-16.5 2.5q-14 0 -21 -6.5t-9 -14.5q8 -4 10 -11t2 -12q0 -17 -14.5 -24.5t-30.5 -7.5q-22 0 -35.5 12.5t-13.5 34.5q0 24 16 40t43.5 24.5t59.5 8.5q22 0 49 -5t46 -22q21 -17 28 -48t7 -73v-65q0 -27 3.5 -37.5
t15.5 -10.5h25v-31q-29 -8 -52.5 -12t-37.5 -4q-22 0 -28 12t-6 48h-4q-15 -26 -41 -43t-60 -17t-54 18.5t-20 52.5zM161 476q4 0 15 3t23 16q8 8 12.5 19.5t4.5 27.5q0 6 -0.5 13t-1.5 14q-41 -10 -58.5 -26t-17.5 -39q0 -28 23 -28z" />
    <glyph glyph-name="guillemotleft" unicode="&#xab;" horiz-adv-x="548" 
d="M162 255l133 -201l-47 -47l-216 223v47l214 217l48 -36zM372 255l133 -201l-47 -47l-216 223v47l214 217l48 -36z" />
    <glyph glyph-name="logicalnot" unicode="&#xac;" horiz-adv-x="568" 
d="M60 313v100h439v-239h-90v139h-349z" />
    <glyph glyph-name="registered" unicode="&#xae;" horiz-adv-x="638" 
d="M314 230q-75 0 -134 33t-92.5 90t-33.5 128q0 72 33.5 128.5t92.5 88.5t134 32q80 0 140.5 -32t95 -88.5t34.5 -128.5q0 -71 -34.5 -128t-95 -90t-140.5 -33zM314 282q98 0 148 54t50 145q0 90 -50 143.5t-148 53.5q-86 0 -137 -53.5t-51 -143.5q0 -91 50 -145t138 -54z
M407 489q-7 -5 -13.5 -9t-20.5 -9l5.5 -5.5t5.5 -7.5l39 -65l32 -7v-30h-109v30l-39 77h-12v-69l28 -8v-30h-129v30l30 8v181l-30 8v30h158q33 0 53 -14q13 -9 20.5 -22t7.5 -35q0 -15 -6 -29t-20 -24zM295 504h16q9 0 19 3t16 8q8 6 10 12.5t2 16.5q0 9 -4.5 15.5t-9.5 8.5
q-3 2 -10.5 3t-24.5 1h-14v-68z" />
    <glyph glyph-name="macron" unicode="&#xaf;" horiz-adv-x="329" 
d="M25 635v95h279v-95h-279z" />
    <glyph glyph-name="degree" unicode="&#xb0;" horiz-adv-x="371" 
d="M186 458q-67 0 -108 37.5t-41 97.5q0 39 19.5 70t53 49t76.5 18q66 0 107.5 -37.5t41.5 -97.5q0 -39 -19.5 -70t-53 -49t-76.5 -18zM188 509q30 0 48.5 23.5t18.5 60.5q0 38 -19.5 61.5t-51.5 23.5q-29 0 -48 -23.5t-19 -60.5t20 -61t51 -24z" />
    <glyph glyph-name="plusminus" unicode="&#xb1;" horiz-adv-x="530" 
d="M61 360v72h160v148h88v-148h160v-72h-160v-148h-88v148h-160zM61 60v72h408v-72h-408z" />
    <glyph glyph-name="uni00B2" unicode="&#xb2;" horiz-adv-x="350" 
d="M130 464h99l10 47h56v-110h-247v30q0 28 16 50.5t40 42.5t48 39.5t40 41.5t16 49q0 21 -18 27.5t-29 6.5q-5 0 -16 -1.5t-20.5 -7t-11.5 -17.5q14 0 21 -9t7 -23t-9.5 -23.5t-31.5 -9.5q-26 0 -36.5 14t-10.5 33q0 39 29.5 62.5t86.5 23.5q61 0 91.5 -23.5t30.5 -63.5
q0 -30 -16.5 -53t-40 -40.5t-47.5 -32t-40.5 -27.5t-16.5 -26z" />
    <glyph glyph-name="uni00B3" unicode="&#xb3;" horiz-adv-x="344" 
d="M288 646q0 -30 -18.5 -49.5t-49.5 -24.5v-4q73 -14 73 -77q0 -42 -39 -68t-103 -26q-46 0 -74.5 23t-28.5 61q0 21 11 33.5t30 12.5q26 0 35.5 -10.5t9.5 -24.5q0 -11 -5.5 -19t-16.5 -8q2 -17 15 -21t26 -4q22 0 37.5 11.5t15.5 35.5q0 29 -20.5 45t-56.5 16v40
q34 0 55 15.5t21 45.5q0 20 -14 30.5t-37 10.5q-13 0 -25.5 -5t-14.5 -18q10 0 19 -7t9 -20t-10.5 -25.5t-36.5 -12.5q-21 0 -32 15.5t-11 34.5q0 35 29.5 56.5t82.5 21.5q59 0 91.5 -23t32.5 -61z" />
    <glyph glyph-name="acute" unicode="&#xb4;" horiz-adv-x="259" 
d="M25 639l49 76q31 47 51.5 64t48.5 17q32 0 44 -12.5t12 -29.5q0 -15 -18 -33.5t-66 -53.5l-38 -28h-83z" />
    <glyph glyph-name="uni03BC" unicode="&#xb5;" horiz-adv-x="682" 
d="M104 -179v644l-67 19v56h194v-268q0 -64 3.5 -97.5t10.5 -51.5q10 -23 30 -35t39 -12q53 0 87 34q21 22 29.5 49t11.5 69v237l-87 19v56h214v-465l77 -19v-56l-185 -10l-11 110h-4q-23 -52 -58 -81t-81 -29q-23 0 -50 17.5t-32 51.5h-4l10 -238h-127z" />
    <glyph glyph-name="paragraph" unicode="&#xb6;" horiz-adv-x="702" 
d="M482 -96v687h-40v-687h-100v284h-66q-121 0 -184 62t-63 182q0 115 64 176.5t182 61.5h391v-58l-84 -21v-687h-100z" />
    <glyph glyph-name="periodcentered" unicode="&#xb7;" horiz-adv-x="264" 
d="M54 298q0 37 21 58.5t57 21.5t57.5 -22t21.5 -58t-21.5 -57t-57.5 -21q-37 0 -57.5 20.5t-20.5 57.5z" />
    <glyph glyph-name="cedilla" unicode="&#xb8;" horiz-adv-x="254" 
d="M101 -210q-53 0 -91 28l31 42q29 -20 59 -20q20 0 31 7t11 19q0 13 -12.5 20.5t-32.5 7.5q-11 0 -24 -1.5t-22 -4.5l-17 29l77 100h74l-42 -70l1 -3q56 0 78 -19t22 -51q0 -40 -42 -62t-101 -22z" />
    <glyph glyph-name="uni00B9" unicode="&#xb9;" horiz-adv-x="332" 
d="M131 442v212h-60v46q16 0 41 5t32 15h69v-278l48 -9v-41h-190v41z" />
    <glyph glyph-name="ordmasculine" unicode="&#xba;" horiz-adv-x="381" 
d="M341 579q0 -35 -10.5 -68t-30.5 -53q-18 -19 -46 -27.5t-65 -8.5q-36 0 -64 8.5t-45 26.5q-19 20 -29 50.5t-10 64.5q0 36 11 69t30 53q35 36 110 36q35 0 63.5 -8.5t46.5 -26.5q20 -19 29.5 -50t9.5 -66zM135 578q0 -56 19 -86q5 -8 15.5 -14.5t23.5 -6.5q22 0 35 15
q19 23 19 88q0 29 -4 50.5t-15 37.5q-6 8 -15.5 13.5t-22.5 5.5q-12 0 -21 -5.5t-14 -11.5q-11 -14 -15.5 -35t-4.5 -51z" />
    <glyph glyph-name="guillemotright" unicode="&#xbb;" horiz-adv-x="548" 
d="M43 54l133 201l-132 203l48 36l214 -217v-47l-216 -223zM253 54l133 201l-132 203l48 36l214 -217v-47l-216 -223z" />
    <glyph glyph-name="onequarter" unicode="&#xbc;" horiz-adv-x="634" 
d="M88 -10l386 740h84l-386 -740h-84zM104 442v212h-60v46q16 0 41 5t32 15h69v-278l48 -9v-41h-190v41zM471 49v28h-129l-7 46l136 205h82v-203h49l-8 -48h-41v-28l35 -9v-40h-160v40zM471 237l-68 -112h68v112z" />
    <glyph glyph-name="onehalf" unicode="&#xbd;" horiz-adv-x="653" 
d="M84 -10l386 740h84l-386 -740h-84zM100 442v212h-60v46q16 0 41 5t32 15h69v-278l48 -9v-41h-190v41zM453 63h99l10 47h56v-110h-247v30q0 28 16 50.5t40 42.5t48 39.5t40 41.5t16 49q0 21 -18 27.5t-29 6.5q-5 0 -16 -1.5t-20.5 -7t-11.5 -17.5q14 0 21 -9t7 -23
t-9.5 -23.5t-31.5 -9.5q-26 0 -36.5 14t-10.5 33q0 39 29.5 62.5t86.5 23.5q61 0 91.5 -23.5t30.5 -63.5q0 -30 -16.5 -53t-40 -40.5t-47.5 -32t-40.5 -27.5t-16.5 -26z" />
    <glyph glyph-name="threequarters" unicode="&#xbe;" horiz-adv-x="644" 
d="M98 -10l386 740h84l-386 -740h-84zM481 49v28h-129l-7 46l136 205h82v-203h49l-8 -48h-41v-28l35 -9v-40h-160v40zM481 237l-68 -112h68v112zM276 646q0 -30 -18.5 -49.5t-49.5 -24.5v-4q73 -14 73 -77q0 -42 -39 -68t-103 -26q-46 0 -74.5 23t-28.5 61q0 21 11 33.5
t30 12.5q26 0 35.5 -10.5t9.5 -24.5q0 -11 -5.5 -19t-16.5 -8q2 -17 15 -21t26 -4q22 0 37.5 11.5t15.5 35.5q0 29 -20.5 45t-56.5 16v40q34 0 55 15.5t21 45.5q0 20 -14 30.5t-37 10.5q-13 0 -25.5 -5t-14.5 -18q10 0 19 -7t9 -20t-10.5 -25.5t-36.5 -12.5q-21 0 -32 15.5
t-11 34.5q0 35 29.5 56.5t82.5 21.5q59 0 91.5 -23t32.5 -61z" />
    <glyph glyph-name="questiondown" unicode="&#xbf;" horiz-adv-x="500" 
d="M238 336h86q0 -41 -9 -72.5t-31.5 -63t-62.5 -71.5q-35 -35 -50 -67t-15 -72q0 -53 30.5 -81.5t86.5 -28.5q28 0 50.5 14.5t22.5 34.5q-20 11 -31.5 30.5t-11.5 41.5q0 28 22.5 49.5t60.5 21.5t62 -32.5t24 -76.5q0 -43 -27.5 -77.5t-75 -55t-105.5 -20.5
q-71 0 -124.5 22t-84 61.5t-30.5 90.5q0 45 25 87.5t86 99.5q38 36 60.5 62t32 49.5t9.5 53.5zM358 488q0 -37 -21 -58.5t-57 -21.5t-57.5 22t-21.5 58t21 57t59 21q36 0 56.5 -20t20.5 -58z" />
    <glyph glyph-name="Agrave" unicode="&#xc0;" horiz-adv-x="728" 
d="M515 79l-51 155h-244l-52 -155l83 -21v-58h-264v58l82 21l234 651h123l232 -651l80 -21v-58h-305v58zM343 598l-98 -291h195l-93 291h-4zM368 836l60 -76h-83l-47 28q-31 19 -47 30t-22 20.5t-6 22.5q0 15 11.5 27t35.5 12q19 0 33 -4.5t28.5 -18t36.5 -41.5z" />
    <glyph glyph-name="Aacute" unicode="&#xc1;" horiz-adv-x="728" 
d="M515 79l-51 155h-244l-52 -155l83 -21v-58h-264v58l82 21l234 651h123l232 -651l80 -21v-58h-305v58zM343 598l-98 -291h195l-93 291h-4zM323 760l60 76q22 28 37 41.5t28.5 18t32.5 4.5q24 0 35.5 -12t11.5 -27q0 -13 -6 -22.5t-22 -20.5t-47 -30l-47 -28h-83z" />
    <glyph glyph-name="Acircumflex" unicode="&#xc2;" horiz-adv-x="728" 
d="M515 79l-51 155h-244l-52 -155l83 -21v-58h-264v58l82 21l234 651h123l232 -651l80 -21v-58h-305v58zM343 598l-98 -291h195l-93 291h-4zM546 769l-119 121h-125l-118 -121h83l98 61l98 -61h83z" />
    <glyph glyph-name="Atilde" unicode="&#xc3;" horiz-adv-x="728" 
d="M515 79l-51 155h-244l-52 -155l83 -21v-58h-264v58l82 21l234 651h123l232 -651l80 -21v-58h-305v58zM343 598l-98 -291h195l-93 291h-4zM166 766q2 73 37 109t90 36q26 0 44.5 -8.5t34.5 -19t32 -19t35 -8.5q30 0 45 13t20 37h60q-21 -151 -127 -151q-25 0 -44 8.5
t-35 19.5t-31.5 19.5t-35.5 8.5q-30 0 -45 -12t-20 -33h-60z" />
    <glyph glyph-name="Adieresis" unicode="&#xc4;" horiz-adv-x="728" 
d="M515 79l-51 155h-244l-52 -155l83 -21v-58h-264v58l82 21l234 651h123l232 -651l80 -21v-58h-305v58zM343 598l-98 -291h195l-93 291h-4zM172 842q0 36 21 57t56 21t56.5 -21.5t21.5 -56.5t-21 -56t-57 -21t-56.5 20.5t-20.5 56.5zM402 842q0 36 21 57t56 21t56.5 -21.5
t21.5 -56.5t-21 -56t-57 -21t-56.5 20.5t-20.5 56.5z" />
    <glyph glyph-name="Aring" unicode="&#xc5;" horiz-adv-x="728" 
d="M515 79l-51 155h-244l-52 -155l83 -21v-58h-264v58l82 21l234 651h123l232 -651l80 -21v-58h-305v58zM343 598l-98 -291h195l-93 291h-4zM275 824q0 38 26.5 57t63.5 19q38 0 64.5 -19t26.5 -57q0 -37 -26.5 -55.5t-64.5 -18.5q-37 0 -63.5 18.5t-26.5 55.5zM335 824
q0 -15 7.5 -22.5t22.5 -7.5t23.5 7.5t8.5 22.5t-8.5 23.5t-23.5 8.5t-22.5 -8.5t-7.5 -23.5z" />
    <glyph glyph-name="AE" unicode="&#xc6;" horiz-adv-x="1072" 
d="M869 238h-81l-16 94h-138v-257h275l28 148h88v-223h-615v58l94 21v155h-227l-85 -155l71 -21v-58h-277v58l102 21l320 572l-75 11v58h670v-212h-82l-29 139h-258v-240h138l16 95h81v-264zM504 641l-7 1l-179 -335h186v334z" />
    <glyph glyph-name="Ccedilla" unicode="&#xc7;" horiz-adv-x="698" 
d="M377 661q-38 0 -72.5 -16t-55.5 -46q-27 -39 -45.5 -97.5t-18.5 -129.5t15 -133t42 -104q22 -34 59.5 -50t84.5 -16q168 0 197 169h85q-49 -248 -304 -248q-138 0 -220 80q-49 48 -75 121t-26 162q0 101 33 183t93 131q76 63 201 63q62 0 101 -16t77 -57l20 63h85v-236
h-91q-14 88 -62.5 132.5t-122.5 44.5zM344 -210q-53 0 -91 28l31 42q29 -20 59 -20q20 0 31 7t11 19q0 13 -12.5 20.5t-32.5 7.5q-11 0 -24 -1.5t-22 -4.5l-17 29l77 100h74l-42 -70l1 -3q56 0 78 -19t22 -51q0 -40 -42 -62t-101 -22z" />
    <glyph glyph-name="Egrave" unicode="&#xc8;" horiz-adv-x="698" 
d="M495 238h-81l-17 94h-137v-257h275l28 148h88v-223h-615v58l94 21v562l-94 21v58h593v-212h-82l-29 139h-258v-240h137l17 95h81v-264zM380 836l60 -76h-83l-47 28q-31 19 -47 30t-22 20.5t-6 22.5q0 15 11.5 27t35.5 12q19 0 33 -4.5t28.5 -18t36.5 -41.5z" />
    <glyph glyph-name="Eacute" unicode="&#xc9;" horiz-adv-x="698" 
d="M495 238h-81l-17 94h-137v-257h275l28 148h88v-223h-615v58l94 21v562l-94 21v58h593v-212h-82l-29 139h-258v-240h137l17 95h81v-264zM312 760l60 76q22 28 37 41.5t28.5 18t32.5 4.5q24 0 35.5 -12t11.5 -27q0 -13 -6 -22.5t-22 -20.5t-47 -30l-47 -28h-83z" />
    <glyph glyph-name="Ecircumflex" unicode="&#xca;" horiz-adv-x="698" 
d="M495 238h-81l-17 94h-137v-257h275l28 148h88v-223h-615v58l94 21v562l-94 21v58h593v-212h-82l-29 139h-258v-240h137l17 95h81v-264zM535 769l-119 121h-125l-118 -121h83l98 61l98 -61h83z" />
    <glyph glyph-name="Edieresis" unicode="&#xcb;" horiz-adv-x="698" 
d="M495 238h-81l-17 94h-137v-257h275l28 148h88v-223h-615v58l94 21v562l-94 21v58h593v-212h-82l-29 139h-258v-240h137l17 95h81v-264zM160 842q0 36 21 57t56 21t56.5 -21.5t21.5 -56.5t-21 -56t-57 -21t-56.5 20.5t-20.5 56.5zM390 842q0 36 21 57t56 21t56.5 -21.5
t21.5 -56.5t-21 -56t-57 -21t-56.5 20.5t-20.5 56.5z" />
    <glyph glyph-name="Igrave" unicode="&#xcc;" horiz-adv-x="390" 
d="M260 641v-562l94 -21v-58h-318v58l94 21v562l-94 21v58h318v-58zM220 836l60 -76h-83l-47 28q-31 19 -47 30t-22 20.5t-6 22.5q0 15 11.5 27t35.5 12q19 0 33 -4.5t28.5 -18t36.5 -41.5z" />
    <glyph glyph-name="Iacute" unicode="&#xcd;" horiz-adv-x="390" 
d="M260 641v-562l94 -21v-58h-318v58l94 21v562l-94 21v58h318v-58zM153 760l60 76q22 28 37 41.5t28.5 18t32.5 4.5q24 0 35.5 -12t11.5 -27q0 -13 -6 -22.5t-22 -20.5t-47 -30l-47 -28h-83z" />
    <glyph glyph-name="Icircumflex" unicode="&#xce;" horiz-adv-x="390" 
d="M260 641v-562l94 -21v-58h-318v58l94 21v562l-94 21v58h318v-58zM376 769l-119 121h-125l-118 -121h83l98 61l98 -61h83z" />
    <glyph glyph-name="Idieresis" unicode="&#xcf;" horiz-adv-x="390" 
d="M260 641v-562l94 -21v-58h-318v58l94 21v562l-94 21v58h318v-58zM2 842q0 36 21 57t56 21t56.5 -21.5t21.5 -56.5t-21 -56t-57 -21t-56.5 20.5t-20.5 56.5zM232 842q0 36 21 57t56 21t56.5 -21.5t21.5 -56.5t-21 -56t-57 -21t-56.5 20.5t-20.5 56.5z" />
    <glyph glyph-name="Eth" unicode="&#xd0;" horiz-adv-x="785" 
d="M47 322v82h84v237l-84 21v58h366q149 0 232 -84q47 -48 72 -118t25 -150q0 -84 -26.5 -157.5t-73.5 -123.5q-83 -87 -238 -87h-357v58l84 21v243h-84zM261 75h125q105 0 156 51q27 36 41 92.5t14 135.5q0 156 -55 232q-52 59 -166 59h-115v-241h127v-82h-127v-247z" />
    <glyph glyph-name="Ntilde" unicode="&#xd1;" horiz-adv-x="817" 
d="M125 79v562l-84 21v58h231l334 -528v449l-84 21v58h263v-58l-84 -21v-641h-111l-370 574v-495l84 -21v-58h-263v58zM209 766q2 73 37 109t90 36q26 0 44.5 -8.5t34.5 -19t32 -19t35 -8.5q30 0 45 13t20 37h60q-21 -151 -127 -151q-25 0 -44 8.5t-35 19.5t-31.5 19.5
t-35.5 8.5q-30 0 -45 -12t-20 -33h-60z" />
    <glyph glyph-name="Ograve" unicode="&#xd2;" horiz-adv-x="774" 
d="M731 368q0 -83 -24 -160t-76 -131q-43 -44 -103 -65.5t-144 -21.5t-144 21t-101 63q-43 45 -69.5 117.5t-26.5 160.5q0 87 26.5 163.5t73.5 127.5q42 45 101 66t143 21q80 0 141 -20t106 -64q52 -52 74.5 -125.5t22.5 -152.5zM188 371q0 -78 14.5 -138t39.5 -98
q24 -37 60 -56t88 -19q94 0 142 66q26 35 40 92t14 136t-14.5 137.5t-40.5 95.5q-26 38 -63.5 56t-84.5 18t-81.5 -17.5t-57.5 -48.5q-56 -74 -56 -224zM415 836l60 -76h-83l-47 28q-31 19 -47 30t-22 20.5t-6 22.5q0 15 11.5 27t35.5 12q19 0 33 -4.5t28.5 -18t36.5 -41.5z
" />
    <glyph glyph-name="Oacute" unicode="&#xd3;" horiz-adv-x="774" 
d="M731 368q0 -83 -24 -160t-76 -131q-43 -44 -103 -65.5t-144 -21.5t-144 21t-101 63q-43 45 -69.5 117.5t-26.5 160.5q0 87 26.5 163.5t73.5 127.5q42 45 101 66t143 21q80 0 141 -20t106 -64q52 -52 74.5 -125.5t22.5 -152.5zM188 371q0 -78 14.5 -138t39.5 -98
q24 -37 60 -56t88 -19q94 0 142 66q26 35 40 92t14 136t-14.5 137.5t-40.5 95.5q-26 38 -63.5 56t-84.5 18t-81.5 -17.5t-57.5 -48.5q-56 -74 -56 -224zM345 760l60 76q22 28 37 41.5t28.5 18t32.5 4.5q24 0 35.5 -12t11.5 -27q0 -13 -6 -22.5t-22 -20.5t-47 -30l-47 -28
h-83z" />
    <glyph glyph-name="Ocircumflex" unicode="&#xd4;" horiz-adv-x="774" 
d="M731 368q0 -83 -24 -160t-76 -131q-43 -44 -103 -65.5t-144 -21.5t-144 21t-101 63q-43 45 -69.5 117.5t-26.5 160.5q0 87 26.5 163.5t73.5 127.5q42 45 101 66t143 21q80 0 141 -20t106 -64q52 -52 74.5 -125.5t22.5 -152.5zM188 371q0 -78 14.5 -138t39.5 -98
q24 -37 60 -56t88 -19q94 0 142 66q26 35 40 92t14 136t-14.5 137.5t-40.5 95.5q-26 38 -63.5 56t-84.5 18t-81.5 -17.5t-57.5 -48.5q-56 -74 -56 -224zM568 769l-119 121h-125l-118 -121h83l98 61l98 -61h83z" />
    <glyph glyph-name="Otilde" unicode="&#xd5;" horiz-adv-x="774" 
d="M731 368q0 -83 -24 -160t-76 -131q-43 -44 -103 -65.5t-144 -21.5t-144 21t-101 63q-43 45 -69.5 117.5t-26.5 160.5q0 87 26.5 163.5t73.5 127.5q42 45 101 66t143 21q80 0 141 -20t106 -64q52 -52 74.5 -125.5t22.5 -152.5zM188 371q0 -78 14.5 -138t39.5 -98
q24 -37 60 -56t88 -19q94 0 142 66q26 35 40 92t14 136t-14.5 137.5t-40.5 95.5q-26 38 -63.5 56t-84.5 18t-81.5 -17.5t-57.5 -48.5q-56 -74 -56 -224zM188 766q2 73 37 109t90 36q26 0 44.5 -8.5t34.5 -19t32 -19t35 -8.5q30 0 45 13t20 37h60q-21 -151 -127 -151
q-25 0 -44 8.5t-35 19.5t-31.5 19.5t-35.5 8.5q-30 0 -45 -12t-20 -33h-60z" />
    <glyph glyph-name="Odieresis" unicode="&#xd6;" horiz-adv-x="774" 
d="M731 368q0 -83 -24 -160t-76 -131q-43 -44 -103 -65.5t-144 -21.5t-144 21t-101 63q-43 45 -69.5 117.5t-26.5 160.5q0 87 26.5 163.5t73.5 127.5q42 45 101 66t143 21q80 0 141 -20t106 -64q52 -52 74.5 -125.5t22.5 -152.5zM188 371q0 -78 14.5 -138t39.5 -98
q24 -37 60 -56t88 -19q94 0 142 66q26 35 40 92t14 136t-14.5 137.5t-40.5 95.5q-26 38 -63.5 56t-84.5 18t-81.5 -17.5t-57.5 -48.5q-56 -74 -56 -224zM192 842q0 36 21 57t56 21t56.5 -21.5t21.5 -56.5t-21 -56t-57 -21t-56.5 20.5t-20.5 56.5zM422 842q0 36 21 57t56 21
t56.5 -21.5t21.5 -56.5t-21 -56t-57 -21t-56.5 20.5t-20.5 56.5z" />
    <glyph glyph-name="multiply" unicode="&#xd7;" horiz-adv-x="506" 
d="M119 148l-70 70l135 134l-135 134l70 70l134 -135l134 135l70 -70l-135 -134l135 -134l-70 -70l-134 135z" />
    <glyph glyph-name="Oslash" unicode="&#xd8;" horiz-adv-x="771" 
d="M61 -10l526 740h101l-526 -740h-101zM729 368q0 -83 -24 -160t-76 -131q-43 -44 -103 -65.5t-144 -21.5t-144 21t-101 63q-43 45 -69.5 117.5t-26.5 160.5q0 87 26.5 163.5t73.5 127.5q42 45 101 66t143 21q80 0 141 -20t106 -64q52 -52 74.5 -125.5t22.5 -152.5z
M186 371q0 -78 14.5 -138t39.5 -98q24 -37 60 -56t88 -19q94 0 142 66q26 35 40 92t14 136t-14.5 137.5t-40.5 95.5q-26 38 -63.5 56t-84.5 18t-81.5 -17.5t-57.5 -48.5q-56 -74 -56 -224z" />
    <glyph glyph-name="Ugrave" unicode="&#xd9;" horiz-adv-x="784" 
d="M584 274v367l-84 21v58h261v-58l-84 -21v-398q0 -124 -74.5 -189t-218.5 -65q-133 0 -204.5 66.5t-71.5 188.5v397l-84 21v58h298v-58l-84 -21v-365q0 -217 168 -217q94 0 136 51t42 164zM439 836l60 -76h-83l-47 28q-31 19 -47 30t-22 20.5t-6 22.5q0 15 11.5 27
t35.5 12q19 0 33 -4.5t28.5 -18t36.5 -41.5z" />
    <glyph glyph-name="Uacute" unicode="&#xda;" horiz-adv-x="784" 
d="M584 274v367l-84 21v58h261v-58l-84 -21v-398q0 -124 -74.5 -189t-218.5 -65q-133 0 -204.5 66.5t-71.5 188.5v397l-84 21v58h298v-58l-84 -21v-365q0 -217 168 -217q94 0 136 51t42 164zM370 760l60 76q22 28 37 41.5t28.5 18t32.5 4.5q24 0 35.5 -12t11.5 -27
q0 -13 -6 -22.5t-22 -20.5t-47 -30l-47 -28h-83z" />
    <glyph glyph-name="Ucircumflex" unicode="&#xdb;" horiz-adv-x="784" 
d="M584 274v367l-84 21v58h261v-58l-84 -21v-398q0 -124 -74.5 -189t-218.5 -65q-133 0 -204.5 66.5t-71.5 188.5v397l-84 21v58h298v-58l-84 -21v-365q0 -217 168 -217q94 0 136 51t42 164zM593 769l-119 121h-125l-118 -121h83l98 61l98 -61h83z" />
    <glyph glyph-name="Udieresis" unicode="&#xdc;" horiz-adv-x="784" 
d="M584 274v367l-84 21v58h261v-58l-84 -21v-398q0 -124 -74.5 -189t-218.5 -65q-133 0 -204.5 66.5t-71.5 188.5v397l-84 21v58h298v-58l-84 -21v-365q0 -217 168 -217q94 0 136 51t42 164zM218 842q0 36 21 57t56 21t56.5 -21.5t21.5 -56.5t-21 -56t-57 -21t-56.5 20.5
t-20.5 56.5zM448 842q0 36 21 57t56 21t56.5 -21.5t21.5 -56.5t-21 -56t-57 -21t-56.5 20.5t-20.5 56.5z" />
    <glyph glyph-name="Yacute" unicode="&#xdd;" horiz-adv-x="682" 
d="M360 363l152 278l-81 21v58h257v-58l-82 -21l-196 -359v-203l94 -21v-58h-318v58l94 21v187l-207 375l-83 21v58h306v-58l-84 -21zM319 760l60 76q22 28 37 41.5t28.5 18t32.5 4.5q24 0 35.5 -12t11.5 -27q0 -13 -6 -22.5t-22 -20.5t-47 -30l-47 -28h-83z" />
    <glyph glyph-name="Thorn" unicode="&#xde;" horiz-adv-x="656" 
d="M409 148h-151v-69l95 -21v-58h-309v58l84 21v562l-95 21v58h309v-58l-84 -21v-66h152q47 0 85.5 -12.5t64.5 -35.5q34 -31 52.5 -72.5t18.5 -88.5q0 -48 -19 -93t-54 -76q-26 -23 -65 -36t-84 -13zM258 221h99q28 0 52.5 8.5t38.5 22.5q20 18 31.5 46.5t11.5 61.5
q0 65 -43 106q-16 17 -41 26.5t-54 9.5h-95v-281z" />
    <glyph glyph-name="germandbls" unicode="&#xdf;" horiz-adv-x="647" 
d="M377 424q0 23 17.5 39.5t61.5 44.5q42 26 59.5 58t17.5 72q0 70 -57 111t-155 41q-105 0 -165 -64t-60 -176v-475l-77 -19v-56h204v575q0 80 28 120t74 40q44 0 68.5 -25t24.5 -71q0 -36 -14 -61.5t-47 -50.5q-38 -28 -58 -47t-27 -37t-7 -42q0 -29 11 -51t40 -44.5
t84 -55.5q48 -29 72 -47t32 -34.5t8 -39.5q0 -36 -26 -57t-58 -21q-18 0 -39 9.5t-27 24.5q17 8 26.5 23.5t9.5 37.5q0 19 -16.5 37t-51.5 18q-39 0 -57 -27t-18 -58q0 -55 47 -90.5t123 -35.5q59 0 105 19t72.5 55.5t26.5 88.5q0 40 -12.5 70t-46.5 58t-97 60
q-39 21 -60 33.5t-28.5 23.5t-7.5 26z" />
    <glyph glyph-name="agrave" unicode="&#xe0;" horiz-adv-x="549" 
d="M30 118q0 83 76 128.5t239 70.5q-4 50 -11 77t-18 46q-13 23 -32 37t-48 14q-21 0 -38.5 -8t-23.5 -22q14 -7 19.5 -22t5.5 -26q0 -25 -22 -44.5t-53 -19.5t-49 20.5t-18 51.5q0 41 29 70t74 44t91 15q47 0 84.5 -13.5t60.5 -33.5q79 -70 79 -222v-130q0 -49 6.5 -68
t28.5 -19h45v-45q-92 -29 -139 -29q-33 0 -44 22t-11 87h-4q-31 -51 -82 -80t-110 -29q-63 0 -99 34t-36 94zM226 63q21 0 46.5 14t44.5 39q11 14 21 40t10 62q0 12 -1 27t-3 28q-69 -15 -108.5 -32t-56 -40.5t-16.5 -57.5q0 -43 20 -61.5t43 -18.5zM277 715l49 -76h-83
l-38 28q-48 35 -66 53.5t-18 33.5q0 17 12 29.5t44 12.5q29 0 49 -17t51 -64z" />
    <glyph glyph-name="aacute" unicode="&#xe1;" horiz-adv-x="549" 
d="M30 118q0 83 76 128.5t239 70.5q-4 50 -11 77t-18 46q-13 23 -32 37t-48 14q-21 0 -38.5 -8t-23.5 -22q14 -7 19.5 -22t5.5 -26q0 -25 -22 -44.5t-53 -19.5t-49 20.5t-18 51.5q0 41 29 70t74 44t91 15q47 0 84.5 -13.5t60.5 -33.5q79 -70 79 -222v-130q0 -49 6.5 -68
t28.5 -19h45v-45q-92 -29 -139 -29q-33 0 -44 22t-11 87h-4q-31 -51 -82 -80t-110 -29q-63 0 -99 34t-36 94zM226 63q21 0 46.5 14t44.5 39q11 14 21 40t10 62q0 12 -1 27t-3 28q-69 -15 -108.5 -32t-56 -40.5t-16.5 -57.5q0 -43 20 -61.5t43 -18.5zM209 639l49 76
q31 47 51.5 64t48.5 17q32 0 44 -12.5t12 -29.5q0 -15 -18 -33.5t-66 -53.5l-38 -28h-83z" />
    <glyph glyph-name="acircumflex" unicode="&#xe2;" horiz-adv-x="549" 
d="M30 118q0 83 76 128.5t239 70.5q-4 50 -11 77t-18 46q-13 23 -32 37t-48 14q-21 0 -38.5 -8t-23.5 -22q14 -7 19.5 -22t5.5 -26q0 -25 -22 -44.5t-53 -19.5t-49 20.5t-18 51.5q0 41 29 70t74 44t91 15q47 0 84.5 -13.5t60.5 -33.5q79 -70 79 -222v-130q0 -49 6.5 -68
t28.5 -19h45v-45q-92 -29 -139 -29q-33 0 -44 22t-11 87h-4q-31 -51 -82 -80t-110 -29q-63 0 -99 34t-36 94zM226 63q21 0 46.5 14t44.5 39q11 14 21 40t10 62q0 12 -1 27t-3 28q-69 -15 -108.5 -32t-56 -40.5t-16.5 -57.5q0 -43 20 -61.5t43 -18.5zM412 639l-89 151h-125
l-88 -151h83l68 76l68 -76h83z" />
    <glyph glyph-name="atilde" unicode="&#xe3;" horiz-adv-x="549" 
d="M30 118q0 83 76 128.5t239 70.5q-4 50 -11 77t-18 46q-13 23 -32 37t-48 14q-21 0 -38.5 -8t-23.5 -22q14 -7 19.5 -22t5.5 -26q0 -25 -22 -44.5t-53 -19.5t-49 20.5t-18 51.5q0 41 29 70t74 44t91 15q47 0 84.5 -13.5t60.5 -33.5q79 -70 79 -222v-130q0 -49 6.5 -68
t28.5 -19h45v-45q-92 -29 -139 -29q-33 0 -44 22t-11 87h-4q-31 -51 -82 -80t-110 -29q-63 0 -99 34t-36 94zM226 63q21 0 46.5 14t44.5 39q11 14 21 40t10 62q0 12 -1 27t-3 28q-69 -15 -108.5 -32t-56 -40.5t-16.5 -57.5q0 -43 20 -61.5t43 -18.5zM52 624q2 73 37 109
t90 36q26 0 44.5 -8.5t34.5 -19t32 -19t35 -8.5q30 0 45 13t20 37h60q-21 -151 -127 -151q-25 0 -44 8.5t-35 19.5t-31.5 19.5t-35.5 8.5q-30 0 -45 -12t-20 -33h-60z" />
    <glyph glyph-name="adieresis" unicode="&#xe4;" horiz-adv-x="549" 
d="M30 118q0 83 76 128.5t239 70.5q-4 50 -11 77t-18 46q-13 23 -32 37t-48 14q-21 0 -38.5 -8t-23.5 -22q14 -7 19.5 -22t5.5 -26q0 -25 -22 -44.5t-53 -19.5t-49 20.5t-18 51.5q0 41 29 70t74 44t91 15q47 0 84.5 -13.5t60.5 -33.5q79 -70 79 -222v-130q0 -49 6.5 -68
t28.5 -19h45v-45q-92 -29 -139 -29q-33 0 -44 22t-11 87h-4q-31 -51 -82 -80t-110 -29q-63 0 -99 34t-36 94zM226 63q21 0 46.5 14t44.5 39q11 14 21 40t10 62q0 12 -1 27t-3 28q-69 -15 -108.5 -32t-56 -40.5t-16.5 -57.5q0 -43 20 -61.5t43 -18.5zM83 690q0 35 19.5 54.5
t53.5 19.5t54 -20t20 -54t-19.5 -53.5t-54.5 -19.5q-34 0 -53.5 19.5t-19.5 53.5zM313 690q0 35 19.5 54.5t53.5 19.5t54 -20t20 -54t-19.5 -53.5t-54.5 -19.5q-34 0 -53.5 19.5t-19.5 53.5z" />
    <glyph glyph-name="aring" unicode="&#xe5;" horiz-adv-x="549" 
d="M30 118q0 83 76 128.5t239 70.5q-4 50 -11 77t-18 46q-13 23 -32 37t-48 14q-21 0 -38.5 -8t-23.5 -22q14 -7 19.5 -22t5.5 -26q0 -25 -22 -44.5t-53 -19.5t-49 20.5t-18 51.5q0 41 29 70t74 44t91 15q47 0 84.5 -13.5t60.5 -33.5q79 -70 79 -222v-130q0 -49 6.5 -68
t28.5 -19h45v-45q-92 -29 -139 -29q-33 0 -44 22t-11 87h-4q-31 -51 -82 -80t-110 -29q-63 0 -99 34t-36 94zM226 63q21 0 46.5 14t44.5 39q11 14 21 40t10 62q0 12 -1 27t-3 28q-69 -15 -108.5 -32t-56 -40.5t-16.5 -57.5q0 -43 20 -61.5t43 -18.5zM173 713q0 43 28 72
t71 29t72 -29t29 -72t-29 -71t-72 -28t-71 28t-28 71zM244 713q0 -12 8 -20t20 -8q13 0 21.5 8t8.5 20q0 13 -8.5 21.5t-21.5 8.5q-12 0 -20 -8.5t-8 -21.5z" />
    <glyph glyph-name="ae" unicode="&#xe6;" horiz-adv-x="850" 
d="M31 117q0 78 73 126.5t242 73.5q-4 53 -11 79t-18 44q-15 26 -36.5 38.5t-50.5 12.5q-17 0 -34.5 -10t-22.5 -27q13 -10 20 -24.5t7 -28.5q0 -24 -18.5 -40.5t-51.5 -16.5t-52.5 19.5t-19.5 56.5q0 42 29.5 71t74 44t89.5 15q59 0 103.5 -25.5t58.5 -77.5h5
q20 51 63.5 77t100.5 26q116 0 174.5 -63.5t58.5 -175.5q0 -10 -0.5 -22.5t-2.5 -32.5h-349q0 -37 5 -63.5t15 -49.5q15 -38 44 -54.5t63 -16.5q47 0 86 19.5t70 53.5l60 -43q-27 -32 -59 -57.5t-74.5 -40t-102.5 -14.5q-67 0 -114 27.5t-76 81.5h-7q-31 -51 -80 -80
t-127 -29q-63 0 -99 34t-36 93zM566 481q-46 0 -71.5 -39t-30.5 -122h220v26q0 65 -30.5 100t-87.5 35zM238 63q20 0 42 15t40 40q13 18 21 41.5t8 55.5q0 17 -1 29.5t-3 27.5q-69 -16 -108.5 -32.5t-56 -40t-16.5 -61.5q0 -36 19.5 -55.5t54.5 -19.5z" />
    <glyph glyph-name="ccedilla" unicode="&#xe7;" horiz-adv-x="546" 
d="M300 550q62 0 110 -19.5t75.5 -54.5t27.5 -82q0 -45 -24 -68.5t-59 -23.5q-39 0 -54.5 24t-15.5 49t12.5 43.5t37.5 25.5q-13 18 -41.5 29t-63.5 11q-63 0 -98 -46t-35 -165q0 -54 7 -85t19 -54q16 -29 41 -45.5t64 -16.5q41 0 86.5 19.5t75.5 60.5l54 -42
q-46 -64 -108 -92t-132 -28q-74 0 -125.5 28.5t-80.5 83.5q-36 67 -36 163q0 87 31.5 151t90.5 99t141 35zM252 -210q-53 0 -91 28l31 42q29 -20 59 -20q20 0 31 7t11 19q0 13 -12.5 20.5t-32.5 7.5q-11 0 -24 -1.5t-22 -4.5l-17 29l77 100h74l-42 -70l1 -3q56 0 78 -19
t22 -51q0 -40 -42 -62t-101 -22z" />
    <glyph glyph-name="egrave" unicode="&#xe8;" horiz-adv-x="556" 
d="M518 256h-349q0 -68 20 -113q16 -34 43 -52.5t67 -18.5q44 0 87.5 20t74.5 60l54 -42q-35 -50 -94.5 -85t-146.5 -35q-73 0 -126 29.5t-81 86.5q-15 31 -22 69t-7 82q0 140 64.5 216.5t182.5 76.5q109 0 172.5 -63.5t63.5 -175.5q0 -11 -0.5 -21.5t-2.5 -33.5zM283 481
q-103 0 -113 -161h220v26q0 65 -28.5 100t-78.5 35zM297 715l49 -76h-83l-38 28q-48 35 -66 53.5t-18 33.5q0 17 12 29.5t44 12.5q29 0 49 -17t51 -64z" />
    <glyph glyph-name="eacute" unicode="&#xe9;" horiz-adv-x="556" 
d="M518 256h-349q0 -68 20 -113q16 -34 43 -52.5t67 -18.5q44 0 87.5 20t74.5 60l54 -42q-35 -50 -94.5 -85t-146.5 -35q-73 0 -126 29.5t-81 86.5q-15 31 -22 69t-7 82q0 140 64.5 216.5t182.5 76.5q109 0 172.5 -63.5t63.5 -175.5q0 -11 -0.5 -21.5t-2.5 -33.5zM283 481
q-103 0 -113 -161h220v26q0 65 -28.5 100t-78.5 35zM234 639l49 76q31 47 51.5 64t48.5 17q32 0 44 -12.5t12 -29.5q0 -15 -18 -33.5t-66 -53.5l-38 -28h-83z" />
    <glyph glyph-name="ecircumflex" unicode="&#xea;" horiz-adv-x="556" 
d="M518 256h-349q0 -68 20 -113q16 -34 43 -52.5t67 -18.5q44 0 87.5 20t74.5 60l54 -42q-35 -50 -94.5 -85t-146.5 -35q-73 0 -126 29.5t-81 86.5q-15 31 -22 69t-7 82q0 140 64.5 216.5t182.5 76.5q109 0 172.5 -63.5t63.5 -175.5q0 -11 -0.5 -21.5t-2.5 -33.5zM283 481
q-103 0 -113 -161h220v26q0 65 -28.5 100t-78.5 35zM436 639l-89 151h-125l-88 -151h83l68 76l68 -76h83z" />
    <glyph glyph-name="edieresis" unicode="&#xeb;" horiz-adv-x="556" 
d="M518 256h-349q0 -68 20 -113q16 -34 43 -52.5t67 -18.5q44 0 87.5 20t74.5 60l54 -42q-35 -50 -94.5 -85t-146.5 -35q-73 0 -126 29.5t-81 86.5q-15 31 -22 69t-7 82q0 140 64.5 216.5t182.5 76.5q109 0 172.5 -63.5t63.5 -175.5q0 -11 -0.5 -21.5t-2.5 -33.5zM283 481
q-103 0 -113 -161h220v26q0 65 -28.5 100t-78.5 35zM90 690q0 35 19.5 54.5t53.5 19.5t54 -20t20 -54t-19.5 -53.5t-54.5 -19.5q-34 0 -53.5 19.5t-19.5 53.5zM320 690q0 35 19.5 54.5t53.5 19.5t54 -20t20 -54t-19.5 -53.5t-54.5 -19.5q-34 0 -53.5 19.5t-19.5 53.5z" />
    <glyph glyph-name="igrave" unicode="&#xec;" horiz-adv-x="331" 
d="M108 465l-77 19v56h204v-465l77 -19v-56h-281v56l77 19v390zM165 715l49 -76h-83l-38 28q-48 35 -66 53.5t-18 33.5q0 17 12 29.5t44 12.5q29 0 49 -17t51 -64z" />
    <glyph glyph-name="iacute" unicode="&#xed;" horiz-adv-x="331" 
d="M108 465l-77 19v56h204v-465l77 -19v-56h-281v56l77 19v390zM129 639l49 76q31 47 51.5 64t48.5 17q32 0 44 -12.5t12 -29.5q0 -15 -18 -33.5t-66 -53.5l-38 -28h-83z" />
    <glyph glyph-name="icircumflex" unicode="&#xee;" horiz-adv-x="331" 
d="M108 465l-77 19v56h204v-465l77 -19v-56h-281v56l77 19v390zM322 639l-89 151h-125l-88 -151h83l68 76l68 -76h83z" />
    <glyph glyph-name="idieresis" unicode="&#xef;" horiz-adv-x="331" 
d="M108 465l-77 19v56h204v-465l77 -19v-56h-281v56l77 19v390zM-17 690q0 35 19.5 54.5t53.5 19.5t54 -20t20 -54t-19.5 -53.5t-54.5 -19.5q-34 0 -53.5 19.5t-19.5 53.5zM213 690q0 35 19.5 54.5t53.5 19.5t54 -20t20 -54t-19.5 -53.5t-54.5 -19.5q-34 0 -53.5 19.5
t-19.5 53.5z" />
    <glyph glyph-name="eth" unicode="&#xf0;" horiz-adv-x="582" 
d="M161 210q0 74 31.5 111t82.5 37q63 0 92.5 -37t29.5 -111t-29 -112t-93 -38q-51 0 -82.5 38t-31.5 112zM418 351h-4q-28 37 -75 58t-102 21q-63 0 -111 -27.5t-75 -76.5t-27 -115q0 -101 63.5 -161t172.5 -60q137 0 210 79t73 225q0 60 -14.5 115.5t-44.5 110t-77 111.5
l72 32l-32 63l-89 -39q-18 18 -27.5 26.5t-15.5 14t-15 11.5l-78 -28q18 -16 31 -29.5t26 -30.5l-117 -52l29 -64l133 58q40 -47 65 -110.5t29 -131.5z" />
    <glyph glyph-name="ntilde" unicode="&#xf1;" horiz-adv-x="674" 
d="M108 75v390l-77 19v56h174l22 -100h4q30 51 81 80.5t109 29.5q83 0 123 -54q20 -28 28.5 -78.5t8.5 -136.5v-206l77 -19v-56h-271v56l67 19v193q0 60 -3.5 93.5t-12.5 53.5q-11 26 -30 36t-45 10q-49 0 -83 -32q-41 -38 -45 -117v-237l67 -19v-56h-271v56zM158 624
q2 73 37 109t90 36q26 0 44.5 -8.5t34.5 -19t32 -19t35 -8.5q30 0 45 13t20 37h60q-21 -151 -127 -151q-25 0 -44 8.5t-35 19.5t-31.5 19.5t-35.5 8.5q-30 0 -45 -12t-20 -33h-60z" />
    <glyph glyph-name="ograve" unicode="&#xf2;" horiz-adv-x="594" 
d="M557 270q0 -64 -18.5 -120.5t-53.5 -94.5q-33 -35 -79.5 -50t-108.5 -15t-108.5 15t-79.5 50q-35 38 -53.5 94.5t-18.5 120.5t18.5 121t53.5 94q33 35 79.5 50t108.5 15t108.5 -15t79.5 -50q35 -37 53.5 -94t18.5 -121zM206 97q14 -20 36.5 -30t54.5 -10t55 10t36 30
q32 49 32 173q0 63 -8 106t-24 67q-13 20 -36 30t-55 10t-54.5 -10t-36.5 -30q-32 -49 -32 -173t32 -173zM291 715l49 -76h-83l-38 28q-48 35 -66 53.5t-18 33.5q0 17 12 29.5t44 12.5q29 0 49 -17t51 -64z" />
    <glyph glyph-name="oacute" unicode="&#xf3;" horiz-adv-x="594" 
d="M557 270q0 -64 -18.5 -120.5t-53.5 -94.5q-33 -35 -79.5 -50t-108.5 -15t-108.5 15t-79.5 50q-35 38 -53.5 94.5t-18.5 120.5t18.5 121t53.5 94q33 35 79.5 50t108.5 15t108.5 -15t79.5 -50q35 -37 53.5 -94t18.5 -121zM206 97q14 -20 36.5 -30t54.5 -10t55 10t36 30
q32 49 32 173q0 63 -8 106t-24 67q-13 20 -36 30t-55 10t-54.5 -10t-36.5 -30q-32 -49 -32 -173t32 -173zM255 639l49 76q31 47 51.5 64t48.5 17q32 0 44 -12.5t12 -29.5q0 -15 -18 -33.5t-66 -53.5l-38 -28h-83z" />
    <glyph glyph-name="ocircumflex" unicode="&#xf4;" horiz-adv-x="594" 
d="M557 270q0 -64 -18.5 -120.5t-53.5 -94.5q-33 -35 -79.5 -50t-108.5 -15t-108.5 15t-79.5 50q-35 38 -53.5 94.5t-18.5 120.5t18.5 121t53.5 94q33 35 79.5 50t108.5 15t108.5 -15t79.5 -50q35 -37 53.5 -94t18.5 -121zM206 97q14 -20 36.5 -30t54.5 -10t55 10t36 30
q32 49 32 173q0 63 -8 106t-24 67q-13 20 -36 30t-55 10t-54.5 -10t-36.5 -30q-32 -49 -32 -173t32 -173zM448 639l-89 151h-125l-88 -151h83l68 76l68 -76h83z" />
    <glyph glyph-name="otilde" unicode="&#xf5;" horiz-adv-x="594" 
d="M557 270q0 -64 -18.5 -120.5t-53.5 -94.5q-33 -35 -79.5 -50t-108.5 -15t-108.5 15t-79.5 50q-35 38 -53.5 94.5t-18.5 120.5t18.5 121t53.5 94q33 35 79.5 50t108.5 15t108.5 -15t79.5 -50q35 -37 53.5 -94t18.5 -121zM206 97q14 -20 36.5 -30t54.5 -10t55 10t36 30
q32 49 32 173q0 63 -8 106t-24 67q-13 20 -36 30t-55 10t-54.5 -10t-36.5 -30q-32 -49 -32 -173t32 -173zM98 624q2 73 37 109t90 36q26 0 44.5 -8.5t34.5 -19t32 -19t35 -8.5q30 0 45 13t20 37h60q-21 -151 -127 -151q-25 0 -44 8.5t-35 19.5t-31.5 19.5t-35.5 8.5
q-30 0 -45 -12t-20 -33h-60z" />
    <glyph glyph-name="odieresis" unicode="&#xf6;" horiz-adv-x="594" 
d="M557 270q0 -64 -18.5 -120.5t-53.5 -94.5q-33 -35 -79.5 -50t-108.5 -15t-108.5 15t-79.5 50q-35 38 -53.5 94.5t-18.5 120.5t18.5 121t53.5 94q33 35 79.5 50t108.5 15t108.5 -15t79.5 -50q35 -37 53.5 -94t18.5 -121zM206 97q14 -20 36.5 -30t54.5 -10t55 10t36 30
q32 49 32 173q0 63 -8 106t-24 67q-13 20 -36 30t-55 10t-54.5 -10t-36.5 -30q-32 -49 -32 -173t32 -173zM109 690q0 35 19.5 54.5t53.5 19.5t54 -20t20 -54t-19.5 -53.5t-54.5 -19.5q-34 0 -53.5 19.5t-19.5 53.5zM339 690q0 35 19.5 54.5t53.5 19.5t54 -20t20 -54
t-19.5 -53.5t-54.5 -19.5q-34 0 -53.5 19.5t-19.5 53.5z" />
    <glyph glyph-name="divide" unicode="&#xf7;" horiz-adv-x="515" 
d="M39 318v69h438v-69h-438zM187 174q0 35 20 55.5t55 20.5q34 0 54 -20.5t20 -55.5q0 -34 -20 -54t-55 -20q-74 0 -74 74zM187 528q0 35 20 55.5t55 20.5q34 0 54 -20.5t20 -55.5q0 -34 -20 -54t-55 -20q-74 0 -74 74z" />
    <glyph glyph-name="oslash" unicode="&#xf8;" horiz-adv-x="594" 
d="M87 -60l334 642h94l-334 -642h-94zM557 270q0 -64 -18.5 -120.5t-53.5 -94.5q-33 -35 -79.5 -50t-108.5 -15t-108.5 15t-79.5 50q-35 38 -53.5 94.5t-18.5 120.5t18.5 121t53.5 94q33 35 79.5 50t108.5 15t108.5 -15t79.5 -50q35 -37 53.5 -94t18.5 -121zM206 97
q14 -20 36.5 -30t54.5 -10t55 10t36 30q32 49 32 173q0 63 -8 106t-24 67q-13 20 -36 30t-55 10t-54.5 -10t-36.5 -30q-32 -49 -32 -173t32 -173z" />
    <glyph glyph-name="ugrave" unicode="&#xf9;" horiz-adv-x="652" 
d="M218 540v-268q0 -64 3 -96t9 -51q8 -24 26.5 -36.5t37.5 -12.5q27 0 49 10t41 27q41 37 45 115v237l-87 19v56h214v-465l77 -19v-56l-185 -10l-11 110h-4q-29 -51 -79 -80.5t-107 -29.5q-38 0 -69.5 14.5t-49.5 39.5q-19 28 -28 79t-9 136v206l-67 19v56h194zM315 715
l49 -76h-83l-38 28q-48 35 -66 53.5t-18 33.5q0 17 12 29.5t44 12.5q29 0 49 -17t51 -64z" />
    <glyph glyph-name="uacute" unicode="&#xfa;" horiz-adv-x="652" 
d="M218 540v-268q0 -64 3 -96t9 -51q8 -24 26.5 -36.5t37.5 -12.5q27 0 49 10t41 27q41 37 45 115v237l-87 19v56h214v-465l77 -19v-56l-185 -10l-11 110h-4q-29 -51 -79 -80.5t-107 -29.5q-38 0 -69.5 14.5t-49.5 39.5q-19 28 -28 79t-9 136v206l-67 19v56h194zM279 639
l49 76q31 47 51.5 64t48.5 17q32 0 44 -12.5t12 -29.5q0 -15 -18 -33.5t-66 -53.5l-38 -28h-83z" />
    <glyph glyph-name="ucircumflex" unicode="&#xfb;" horiz-adv-x="652" 
d="M218 540v-268q0 -64 3 -96t9 -51q8 -24 26.5 -36.5t37.5 -12.5q27 0 49 10t41 27q41 37 45 115v237l-87 19v56h214v-465l77 -19v-56l-185 -10l-11 110h-4q-29 -51 -79 -80.5t-107 -29.5q-38 0 -69.5 14.5t-49.5 39.5q-19 28 -28 79t-9 136v206l-67 19v56h194zM472 639
l-89 151h-125l-88 -151h83l68 76l68 -76h83z" />
    <glyph glyph-name="udieresis" unicode="&#xfc;" horiz-adv-x="652" 
d="M218 540v-268q0 -64 3 -96t9 -51q8 -24 26.5 -36.5t37.5 -12.5q27 0 49 10t41 27q41 37 45 115v237l-87 19v56h214v-465l77 -19v-56l-185 -10l-11 110h-4q-29 -51 -79 -80.5t-107 -29.5q-38 0 -69.5 14.5t-49.5 39.5q-19 28 -28 79t-9 136v206l-67 19v56h194zM133 690
q0 35 19.5 54.5t53.5 19.5t54 -20t20 -54t-19.5 -53.5t-54.5 -19.5q-34 0 -53.5 19.5t-19.5 53.5zM363 690q0 35 19.5 54.5t53.5 19.5t54 -20t20 -54t-19.5 -53.5t-54.5 -19.5q-34 0 -53.5 19.5t-19.5 53.5z" />
    <glyph glyph-name="yacute" unicode="&#xfd;" horiz-adv-x="600" 
d="M529 465l-161 -441q-33 -77 -60 -124.5t-59.5 -68.5t-84.5 -21q-47 0 -80.5 25t-33.5 63q0 35 20.5 57.5t53.5 22.5q29 0 44.5 -13t15.5 -39q0 -10 -10.5 -27.5t-35.5 -17.5q2 -10 12 -13.5t17 -3.5q14 0 26 5.5t25.5 25.5t29.5 61l12 37l-201 472l-60 19v56h254l8 -56
l-71 -19l123 -347h4l111 347l-58 19v56h220v-56zM248 639l49 76q31 47 51.5 64t48.5 17q32 0 44 -12.5t12 -29.5q0 -15 -18 -33.5t-66 -53.5l-38 -28h-83z" />
    <glyph glyph-name="thorn" unicode="&#xfe;" horiz-adv-x="614" 
d="M576 275q0 -68 -19 -120t-52 -90q-56 -65 -161 -65q-93 0 -142 75v-180l97 -19v-56h-301v56l77 19v810l-77 19v56h204v-298q54 68 150 68q109 0 160 -63q31 -38 47.5 -90t16.5 -122zM202 274q0 -53 8.5 -90t26.5 -64q17 -28 40 -40.5t45 -12.5q29 0 50.5 12.5t35.5 34.5
t23.5 61.5t9.5 91.5q0 55 -9.5 95t-24.5 68q-15 27 -37.5 40t-48.5 13q-58 0 -84 -46q-35 -55 -35 -163z" />
    <glyph glyph-name="ydieresis" unicode="&#xff;" horiz-adv-x="600" 
d="M529 465l-161 -441q-33 -77 -60 -124.5t-59.5 -68.5t-84.5 -21q-47 0 -80.5 25t-33.5 63q0 35 20.5 57.5t53.5 22.5q29 0 44.5 -13t15.5 -39q0 -10 -10.5 -27.5t-35.5 -17.5q2 -10 12 -13.5t17 -3.5q14 0 26 5.5t25.5 25.5t29.5 61l12 37l-201 472l-60 19v56h254l8 -56
l-71 -19l123 -347h4l111 347l-58 19v56h220v-56zM130 690q0 35 19.5 54.5t53.5 19.5t54 -20t20 -54t-19.5 -53.5t-54.5 -19.5q-34 0 -53.5 19.5t-19.5 53.5zM360 690q0 35 19.5 54.5t53.5 19.5t54 -20t20 -54t-19.5 -53.5t-54.5 -19.5q-34 0 -53.5 19.5t-19.5 53.5z" />
    <glyph glyph-name="Amacron" unicode="&#x100;" horiz-adv-x="728" 
d="M515 79l-51 155h-244l-52 -155l83 -21v-58h-264v58l82 21l234 651h123l232 -651l80 -21v-58h-305v58zM343 598l-98 -291h195l-93 291h-4zM221 766v95h279v-95h-279z" />
    <glyph glyph-name="amacron" unicode="&#x101;" horiz-adv-x="549" 
d="M30 118q0 83 76 128.5t239 70.5q-4 50 -11 77t-18 46q-13 23 -32 37t-48 14q-21 0 -38.5 -8t-23.5 -22q14 -7 19.5 -22t5.5 -26q0 -25 -22 -44.5t-53 -19.5t-49 20.5t-18 51.5q0 41 29 70t74 44t91 15q47 0 84.5 -13.5t60.5 -33.5q79 -70 79 -222v-130q0 -49 6.5 -68
t28.5 -19h45v-45q-92 -29 -139 -29q-33 0 -44 22t-11 87h-4q-31 -51 -82 -80t-110 -29q-63 0 -99 34t-36 94zM226 63q21 0 46.5 14t44.5 39q11 14 21 40t10 62q0 12 -1 27t-3 28q-69 -15 -108.5 -32t-56 -40.5t-16.5 -57.5q0 -43 20 -61.5t43 -18.5zM130 635v95h279v-95
h-279z" />
    <glyph glyph-name="Abreve" unicode="&#x102;" horiz-adv-x="728" 
d="M515 79l-51 155h-244l-52 -155l83 -21v-58h-264v58l82 21l234 651h123l232 -651l80 -21v-58h-305v58zM343 598l-98 -291h195l-93 291h-4zM527 938h-63q-1 -43 -30.5 -62.5t-68.5 -19.5t-68 19.5t-31 62.5h-63q0 -81 43.5 -131t118.5 -50t118.5 50t43.5 131z" />
    <glyph glyph-name="abreve" unicode="&#x103;" horiz-adv-x="549" 
d="M30 118q0 83 76 128.5t239 70.5q-4 50 -11 77t-18 46q-13 23 -32 37t-48 14q-21 0 -38.5 -8t-23.5 -22q14 -7 19.5 -22t5.5 -26q0 -25 -22 -44.5t-53 -19.5t-49 20.5t-18 51.5q0 41 29 70t74 44t91 15q47 0 84.5 -13.5t60.5 -33.5q79 -70 79 -222v-130q0 -49 6.5 -68
t28.5 -19h45v-45q-92 -29 -139 -29q-33 0 -44 22t-11 87h-4q-31 -51 -82 -80t-110 -29q-63 0 -99 34t-36 94zM226 63q21 0 46.5 14t44.5 39q11 14 21 40t10 62q0 12 -1 27t-3 28q-69 -15 -108.5 -32t-56 -40.5t-16.5 -57.5q0 -43 20 -61.5t43 -18.5zM419 780h-63
q0 -43 -27.5 -62.5t-77.5 -19.5q-39 0 -65 19.5t-28 62.5h-63q0 -81 40.5 -131t115.5 -50q72 0 119 48t49 133z" />
    <glyph glyph-name="Aogonek" unicode="&#x104;" horiz-adv-x="728" 
d="M515 79l-51 155h-244l-52 -155l83 -21v-58h-264v58l82 21l234 651h123l232 -651l80 -21v-58h-305v58zM343 598l-98 -291h195l-93 291h-4zM577 -210q-55 0 -83 23.5t-28 61.5q0 75 114 139h71q-15 -9 -34.5 -28t-34 -41.5t-14.5 -42.5q0 -18 13.5 -28.5t36.5 -10.5
q16 0 31.5 4t27.5 14l24 -35q-17 -25 -45 -40.5t-79 -15.5z" />
    <glyph glyph-name="aogonek" unicode="&#x105;" horiz-adv-x="549" 
d="M30 118q0 83 76 128.5t239 70.5q-4 50 -11 77t-18 46q-13 23 -32 37t-48 14q-21 0 -38.5 -8t-23.5 -22q14 -7 19.5 -22t5.5 -26q0 -25 -22 -44.5t-53 -19.5t-49 20.5t-18 51.5q0 41 29 70t74 44t91 15q47 0 84.5 -13.5t60.5 -33.5q79 -70 79 -222v-130q0 -49 6.5 -68
t28.5 -19h45v-45q-92 -29 -139 -29q-33 0 -44 22t-11 87h-4q-31 -51 -82 -80t-110 -29q-63 0 -99 34t-36 94zM226 63q21 0 46.5 14t44.5 39q11 14 21 40t10 62q0 12 -1 27t-3 28q-69 -15 -108.5 -32t-56 -40.5t-16.5 -57.5q0 -43 20 -61.5t43 -18.5zM407 -210
q-55 0 -83 23.5t-28 61.5q0 75 114 139h71q-15 -9 -34.5 -28t-34 -41.5t-14.5 -42.5q0 -18 13.5 -28.5t36.5 -10.5q16 0 31.5 4t27.5 14l24 -35q-17 -25 -45 -40.5t-79 -15.5z" />
    <glyph glyph-name="Cacute" unicode="&#x106;" horiz-adv-x="698" 
d="M377 661q-38 0 -72.5 -16t-55.5 -46q-27 -39 -45.5 -97.5t-18.5 -129.5t15 -133t42 -104q22 -34 59.5 -50t84.5 -16q168 0 197 169h85q-49 -248 -304 -248q-138 0 -220 80q-49 48 -75 121t-26 162q0 101 33 183t93 131q76 63 201 63q62 0 101 -16t77 -57l20 63h85v-236
h-91q-14 88 -62.5 132.5t-122.5 44.5zM345 760l60 76q22 28 37 41.5t28.5 18t32.5 4.5q24 0 35.5 -12t11.5 -27q0 -13 -6 -22.5t-22 -20.5t-47 -30l-47 -28h-83z" />
    <glyph glyph-name="cacute" unicode="&#x107;" horiz-adv-x="546" 
d="M300 550q62 0 110 -19.5t75.5 -54.5t27.5 -82q0 -45 -24 -68.5t-59 -23.5q-39 0 -54.5 24t-15.5 49t12.5 43.5t37.5 25.5q-13 18 -41.5 29t-63.5 11q-63 0 -98 -46t-35 -165q0 -54 7 -85t19 -54q16 -29 41 -45.5t64 -16.5q41 0 86.5 19.5t75.5 60.5l54 -42
q-46 -64 -108 -92t-132 -28q-74 0 -125.5 28.5t-80.5 83.5q-36 67 -36 163q0 87 31.5 151t90.5 99t141 35zM266 639l49 76q31 47 51.5 64t48.5 17q32 0 44 -12.5t12 -29.5q0 -15 -18 -33.5t-66 -53.5l-38 -28h-83z" />
    <glyph glyph-name="Ccircumflex" unicode="&#x108;" horiz-adv-x="698" 
d="M377 661q-38 0 -72.5 -16t-55.5 -46q-27 -39 -45.5 -97.5t-18.5 -129.5t15 -133t42 -104q22 -34 59.5 -50t84.5 -16q168 0 197 169h85q-49 -248 -304 -248q-138 0 -220 80q-49 48 -75 121t-26 162q0 101 33 183t93 131q76 63 201 63q62 0 101 -16t77 -57l20 63h85v-236
h-91q-14 88 -62.5 132.5t-122.5 44.5zM568 769l-119 121h-125l-118 -121h83l98 61l98 -61h83z" />
    <glyph glyph-name="ccircumflex" unicode="&#x109;" horiz-adv-x="546" 
d="M300 550q62 0 110 -19.5t75.5 -54.5t27.5 -82q0 -45 -24 -68.5t-59 -23.5q-39 0 -54.5 24t-15.5 49t12.5 43.5t37.5 25.5q-13 18 -41.5 29t-63.5 11q-63 0 -98 -46t-35 -165q0 -54 7 -85t19 -54q16 -29 41 -45.5t64 -16.5q41 0 86.5 19.5t75.5 60.5l54 -42
q-46 -64 -108 -92t-132 -28q-74 0 -125.5 28.5t-80.5 83.5q-36 67 -36 163q0 87 31.5 151t90.5 99t141 35zM459 639l-89 151h-125l-88 -151h83l68 76l68 -76h83z" />
    <glyph glyph-name="Cdotaccent" unicode="&#x10a;" horiz-adv-x="698" 
d="M377 661q-38 0 -72.5 -16t-55.5 -46q-27 -39 -45.5 -97.5t-18.5 -129.5t15 -133t42 -104q22 -34 59.5 -50t84.5 -16q168 0 197 169h85q-49 -248 -304 -248q-138 0 -220 80q-49 48 -75 121t-26 162q0 101 33 183t93 131q76 63 201 63q62 0 101 -16t77 -57l20 63h85v-236
h-91q-14 88 -62.5 132.5t-122.5 44.5zM310 837q0 36 21 57t56 21t56.5 -21.5t21.5 -56.5t-21 -56t-57 -21t-56.5 20.5t-20.5 56.5z" />
    <glyph glyph-name="cdotaccent" unicode="&#x10b;" horiz-adv-x="546" 
d="M300 550q62 0 110 -19.5t75.5 -54.5t27.5 -82q0 -45 -24 -68.5t-59 -23.5q-39 0 -54.5 24t-15.5 49t12.5 43.5t37.5 25.5q-13 18 -41.5 29t-63.5 11q-63 0 -98 -46t-35 -165q0 -54 7 -85t19 -54q16 -29 41 -45.5t64 -16.5q41 0 86.5 19.5t75.5 60.5l54 -42
q-46 -64 -108 -92t-132 -28q-74 0 -125.5 28.5t-80.5 83.5q-36 67 -36 163q0 87 31.5 151t90.5 99t141 35zM231 686q0 36 21 57t56 21t56.5 -21.5t21.5 -56.5t-21 -56t-57 -21t-56.5 20.5t-20.5 56.5z" />
    <glyph glyph-name="Ccaron" unicode="&#x10c;" horiz-adv-x="698" 
d="M377 661q-38 0 -72.5 -16t-55.5 -46q-27 -39 -45.5 -97.5t-18.5 -129.5t15 -133t42 -104q22 -34 59.5 -50t84.5 -16q168 0 197 169h85q-49 -248 -304 -248q-138 0 -220 80q-49 48 -75 121t-26 162q0 101 33 183t93 131q76 63 201 63q62 0 101 -16t77 -57l20 63h85v-236
h-91q-14 88 -62.5 132.5t-122.5 44.5zM449 769l119 121h-83l-98 -61l-98 61h-83l118 -121h125z" />
    <glyph glyph-name="ccaron" unicode="&#x10d;" horiz-adv-x="546" 
d="M300 550q62 0 110 -19.5t75.5 -54.5t27.5 -82q0 -45 -24 -68.5t-59 -23.5q-39 0 -54.5 24t-15.5 49t12.5 43.5t37.5 25.5q-13 18 -41.5 29t-63.5 11q-63 0 -98 -46t-35 -165q0 -54 7 -85t19 -54q16 -29 41 -45.5t64 -16.5q41 0 86.5 19.5t75.5 60.5l54 -42
q-46 -64 -108 -92t-132 -28q-74 0 -125.5 28.5t-80.5 83.5q-36 67 -36 163q0 87 31.5 151t90.5 99t141 35zM370 629l89 151h-83l-68 -76l-68 76h-83l88 -151h125z" />
    <glyph glyph-name="Dcaron" unicode="&#x10e;" horiz-adv-x="779" 
d="M255 75h125q54 0 92 16.5t64 49.5q27 34 41 87t14 126q0 142 -55 217q-27 37 -67.5 55.5t-98.5 18.5h-115v-570zM41 720h366q149 0 232 -84q47 -48 72 -118t25 -150q0 -84 -26.5 -157.5t-73.5 -123.5q-83 -87 -238 -87h-357v58l84 21v562l-84 21v58zM432 769l119 121h-83
l-98 -61l-98 61h-83l118 -121h125z" />
    <glyph glyph-name="dcaron" unicode="&#x10f;" horiz-adv-x="636" 
d="M38 269q0 66 18.5 123.5t49.5 92.5q29 32 69 48.5t90 16.5q47 0 83 -17t65 -61v233l-77 19v56h204v-705l77 -19v-56l-185 -10l-8 82q-31 -46 -70 -64t-91 -18q-55 0 -92.5 16.5t-63.5 46.5q-31 35 -50 91.5t-19 124.5zM413 266q0 58 -10 101t-24 65q-15 24 -37.5 37
t-54.5 13q-24 0 -49 -10t-39 -36q-13 -24 -19.5 -66t-6.5 -92q0 -58 8 -101t20 -66q14 -25 38.5 -39.5t52.5 -14.5q23 0 47 10.5t40 35.5q16 26 25 68.5t9 94.5zM675 590h-70q0 33 -4.5 57t-9.5 44t-5 41q0 18 10.5 38t44.5 20q32 0 43 -19t11 -39q0 -21 -5 -41t-10 -44
t-5 -57z" />
    <glyph glyph-name="Dcroat" unicode="&#x110;" horiz-adv-x="784" 
d="M61 324v80h329v-80h-329zM260 75h125q54 0 92 16.5t64 49.5q27 34 41 87t14 126q0 142 -55 217q-27 37 -67.5 55.5t-98.5 18.5h-115v-570zM46 720h366q149 0 232 -84q47 -48 72 -118t25 -150q0 -84 -26.5 -157.5t-73.5 -123.5q-83 -87 -238 -87h-357v58l84 21v562l-84 21
v58z" />
    <glyph glyph-name="dcroat" unicode="&#x111;" horiz-adv-x="636" 
d="M321 601v76h281v-76h-281zM38 269q0 66 18.5 123.5t49.5 92.5q29 32 69 48.5t90 16.5q47 0 83 -17t65 -61v233l-77 19v56h204v-705l77 -19v-56l-185 -10l-8 82q-31 -46 -70 -64t-91 -18q-55 0 -92.5 16.5t-63.5 46.5q-31 35 -50 91.5t-19 124.5zM413 266q0 58 -10 101
t-24 65q-15 24 -37.5 37t-54.5 13q-24 0 -49 -10t-39 -36q-13 -24 -19.5 -66t-6.5 -92q0 -58 8 -101t20 -66q14 -25 38.5 -39.5t52.5 -14.5q23 0 47 10.5t40 35.5q16 26 25 68.5t9 94.5z" />
    <glyph glyph-name="Emacron" unicode="&#x112;" horiz-adv-x="698" 
d="M495 238h-81l-17 94h-137v-257h275l28 148h88v-223h-615v58l94 21v562l-94 21v58h593v-212h-82l-29 139h-258v-240h137l17 95h81v-264zM219 766v95h279v-95h-279z" />
    <glyph glyph-name="emacron" unicode="&#x113;" horiz-adv-x="556" 
d="M518 256h-349q0 -68 20 -113q16 -34 43 -52.5t67 -18.5q44 0 87.5 20t74.5 60l54 -42q-35 -50 -94.5 -85t-146.5 -35q-73 0 -126 29.5t-81 86.5q-15 31 -22 69t-7 82q0 140 64.5 216.5t182.5 76.5q109 0 172.5 -63.5t63.5 -175.5q0 -11 -0.5 -21.5t-2.5 -33.5zM283 481
q-103 0 -113 -161h220v26q0 65 -28.5 100t-78.5 35zM136 635v95h279v-95h-279z" />
    <glyph glyph-name="Ebreve" unicode="&#x114;" horiz-adv-x="698" 
d="M495 238h-81l-17 94h-137v-257h275l28 148h88v-223h-615v58l94 21v562l-94 21v58h593v-212h-82l-29 139h-258v-240h137l17 95h81v-264zM516 938h-63q-1 -43 -30.5 -62.5t-68.5 -19.5t-68 19.5t-31 62.5h-63q0 -81 43.5 -131t118.5 -50t118.5 50t43.5 131z" />
    <glyph glyph-name="ebreve" unicode="&#x115;" horiz-adv-x="556" 
d="M518 256h-349q0 -68 20 -113q16 -34 43 -52.5t67 -18.5q44 0 87.5 20t74.5 60l54 -42q-35 -50 -94.5 -85t-146.5 -35q-73 0 -126 29.5t-81 86.5q-15 31 -22 69t-7 82q0 140 64.5 216.5t182.5 76.5q109 0 172.5 -63.5t63.5 -175.5q0 -11 -0.5 -21.5t-2.5 -33.5zM283 481
q-103 0 -113 -161h220v26q0 65 -28.5 100t-78.5 35zM444 780h-63q0 -43 -27.5 -62.5t-77.5 -19.5q-39 0 -65 19.5t-28 62.5h-63q0 -81 40.5 -131t115.5 -50q72 0 119 48t49 133z" />
    <glyph glyph-name="Edotaccent" unicode="&#x116;" horiz-adv-x="698" 
d="M495 238h-81l-17 94h-137v-257h275l28 148h88v-223h-615v58l94 21v562l-94 21v58h593v-212h-82l-29 139h-258v-240h137l17 95h81v-264zM279 837q0 36 21 57t56 21t56.5 -21.5t21.5 -56.5t-21 -56t-57 -21t-56.5 20.5t-20.5 56.5z" />
    <glyph glyph-name="edotaccent" unicode="&#x117;" horiz-adv-x="556" 
d="M518 256h-349q0 -68 20 -113q16 -34 43 -52.5t67 -18.5q44 0 87.5 20t74.5 60l54 -42q-35 -50 -94.5 -85t-146.5 -35q-73 0 -126 29.5t-81 86.5q-15 31 -22 69t-7 82q0 140 64.5 216.5t182.5 76.5q109 0 172.5 -63.5t63.5 -175.5q0 -11 -0.5 -21.5t-2.5 -33.5zM283 481
q-103 0 -113 -161h220v26q0 65 -28.5 100t-78.5 35zM199 686q0 36 21 57t56 21t56.5 -21.5t21.5 -56.5t-21 -56t-57 -21t-56.5 20.5t-20.5 56.5z" />
    <glyph glyph-name="Eogonek" unicode="&#x118;" horiz-adv-x="698" 
d="M495 238h-81l-17 94h-137v-257h275l28 148h88v-223h-615v58l94 21v562l-94 21v58h593v-212h-82l-29 139h-258v-240h137l17 95h81v-264zM339 -210q-55 0 -83 23.5t-28 61.5q0 75 114 139h71q-15 -9 -34.5 -28t-34 -41.5t-14.5 -42.5q0 -18 13.5 -28.5t36.5 -10.5
q16 0 31.5 4t27.5 14l24 -35q-17 -25 -45 -40.5t-79 -15.5z" />
    <glyph glyph-name="eogonek" unicode="&#x119;" horiz-adv-x="556" 
d="M518 256h-349q0 -68 20 -113q16 -34 43 -52.5t67 -18.5q44 0 87.5 20t74.5 60l54 -42q-35 -50 -94.5 -85t-146.5 -35q-73 0 -126 29.5t-81 86.5q-15 31 -22 69t-7 82q0 140 64.5 216.5t182.5 76.5q109 0 172.5 -63.5t63.5 -175.5q0 -11 -0.5 -21.5t-2.5 -33.5zM283 481
q-103 0 -113 -161h220v26q0 65 -28.5 100t-78.5 35zM251 -210q-55 0 -83 23.5t-28 61.5q0 75 114 139h71q-15 -9 -34.5 -28t-34 -41.5t-14.5 -42.5q0 -18 13.5 -28.5t36.5 -10.5q16 0 31.5 4t27.5 14l24 -35q-17 -25 -45 -40.5t-79 -15.5z" />
    <glyph glyph-name="Ecaron" unicode="&#x11a;" horiz-adv-x="698" 
d="M495 238h-81l-17 94h-137v-257h275l28 148h88v-223h-615v58l94 21v562l-94 21v58h593v-212h-82l-29 139h-258v-240h137l17 95h81v-264zM435 769l119 121h-83l-98 -61l-98 61h-83l118 -121h125z" />
    <glyph glyph-name="ecaron" unicode="&#x11b;" horiz-adv-x="556" 
d="M518 256h-349q0 -68 20 -113q16 -34 43 -52.5t67 -18.5q44 0 87.5 20t74.5 60l54 -42q-35 -50 -94.5 -85t-146.5 -35q-73 0 -126 29.5t-81 86.5q-15 31 -22 69t-7 82q0 140 64.5 216.5t182.5 76.5q109 0 172.5 -63.5t63.5 -175.5q0 -11 -0.5 -21.5t-2.5 -33.5zM283 481
q-103 0 -113 -161h220v26q0 65 -28.5 100t-78.5 35zM338 629l89 151h-83l-68 -76l-68 76h-83l88 -151h125z" />
    <glyph glyph-name="Gcircumflex" unicode="&#x11c;" horiz-adv-x="765" 
d="M378 70q85 0 121 42.5t36 125.5v40l-84 21v60h298v-60l-84 -21v-278h-82l-25 79q-43 -48 -89.5 -68.5t-109.5 -20.5q-137 0 -219 84q-46 47 -71.5 119t-25.5 159q0 89 26.5 165.5t74.5 126.5q41 43 97 64.5t132 21.5q60 0 99 -16t76 -56l20 62h85v-236h-91
q-13 80 -59 128.5t-126 48.5q-45 0 -75 -15t-52 -43q-28 -42 -47 -103.5t-19 -133.5q0 -70 17.5 -135t49.5 -109q20 -27 53.5 -39.5t73.5 -12.5zM560 769l-119 121h-125l-118 -121h83l98 61l98 -61h83z" />
    <glyph glyph-name="gcircumflex" unicode="&#x11d;" horiz-adv-x="575" 
d="M528 -6q0 -92 -66 -135t-210 -43q-64 0 -116.5 12t-83.5 39.5t-31 74.5q0 46 29 74t86 30v4q-76 21 -76 76q0 20 10 42t33 39t60 22q-53 13 -83 53.5t-30 95.5q0 80 54 126t155 46q67 0 105 -11.5t67 -34.5l34 12l92 44h17v-103h-17l-70 8h-25q20 -31 20 -81
q0 -82 -51 -129.5t-147 -47.5q-10 0 -20 0.5t-20 1.5q-39 -5 -62.5 -17.5t-23.5 -35.5q0 -18 19 -24.5t69 -6.5h116q82 0 124 -32.5t42 -98.5zM288 33h-35q-67 0 -97 -21t-30 -55q0 -76 143 -76q77 0 117 22.5t40 65.5q0 35 -31 49.5t-107 14.5zM168 382q0 -56 24.5 -85.5
t68.5 -29.5q53 0 78 29.5t25 85.5q0 53 -25 80t-78 27q-45 0 -69 -27t-24 -80zM418 639l-89 151h-125l-88 -151h83l68 76l68 -76h83z" />
    <glyph glyph-name="Gbreve" unicode="&#x11e;" horiz-adv-x="765" 
d="M378 70q85 0 121 42.5t36 125.5v40l-84 21v60h298v-60l-84 -21v-278h-82l-25 79q-43 -48 -89.5 -68.5t-109.5 -20.5q-137 0 -219 84q-46 47 -71.5 119t-25.5 159q0 89 26.5 165.5t74.5 126.5q41 43 97 64.5t132 21.5q60 0 99 -16t76 -56l20 62h85v-236h-91
q-13 80 -59 128.5t-126 48.5q-45 0 -75 -15t-52 -43q-28 -42 -47 -103.5t-19 -133.5q0 -70 17.5 -135t49.5 -109q20 -27 53.5 -39.5t73.5 -12.5zM541 938h-63q-1 -43 -30.5 -62.5t-68.5 -19.5t-68 19.5t-31 62.5h-63q0 -81 43.5 -131t118.5 -50t118.5 50t43.5 131z" />
    <glyph glyph-name="gbreve" unicode="&#x11f;" horiz-adv-x="575" 
d="M528 -6q0 -92 -66 -135t-210 -43q-64 0 -116.5 12t-83.5 39.5t-31 74.5q0 46 29 74t86 30v4q-76 21 -76 76q0 20 10 42t33 39t60 22q-53 13 -83 53.5t-30 95.5q0 80 54 126t155 46q67 0 105 -11.5t67 -34.5l34 12l92 44h17v-103h-17l-70 8h-25q20 -31 20 -81
q0 -82 -51 -129.5t-147 -47.5q-10 0 -20 0.5t-20 1.5q-39 -5 -62.5 -17.5t-23.5 -35.5q0 -18 19 -24.5t69 -6.5h116q82 0 124 -32.5t42 -98.5zM288 33h-35q-67 0 -97 -21t-30 -55q0 -76 143 -76q77 0 117 22.5t40 65.5q0 35 -31 49.5t-107 14.5zM168 382q0 -56 24.5 -85.5
t68.5 -29.5q53 0 78 29.5t25 85.5q0 53 -25 80t-78 27q-45 0 -69 -27t-24 -80zM435 780h-63q0 -43 -27.5 -62.5t-77.5 -19.5q-39 0 -65 19.5t-28 62.5h-63q0 -81 40.5 -131t115.5 -50q72 0 119 48t49 133z" />
    <glyph glyph-name="Gdotaccent" unicode="&#x120;" horiz-adv-x="765" 
d="M378 70q85 0 121 42.5t36 125.5v40l-84 21v60h298v-60l-84 -21v-278h-82l-25 79q-43 -48 -89.5 -68.5t-109.5 -20.5q-137 0 -219 84q-46 47 -71.5 119t-25.5 159q0 89 26.5 165.5t74.5 126.5q41 43 97 64.5t132 21.5q60 0 99 -16t76 -56l20 62h85v-236h-91
q-13 80 -59 128.5t-126 48.5q-45 0 -75 -15t-52 -43q-28 -42 -47 -103.5t-19 -133.5q0 -70 17.5 -135t49.5 -109q20 -27 53.5 -39.5t73.5 -12.5zM302 837q0 36 21 57t56 21t56.5 -21.5t21.5 -56.5t-21 -56t-57 -21t-56.5 20.5t-20.5 56.5z" />
    <glyph glyph-name="gdotaccent" unicode="&#x121;" horiz-adv-x="575" 
d="M528 -6q0 -92 -66 -135t-210 -43q-64 0 -116.5 12t-83.5 39.5t-31 74.5q0 46 29 74t86 30v4q-76 21 -76 76q0 20 10 42t33 39t60 22q-53 13 -83 53.5t-30 95.5q0 80 54 126t155 46q67 0 105 -11.5t67 -34.5l34 12l92 44h17v-103h-17l-70 8h-25q20 -31 20 -81
q0 -82 -51 -129.5t-147 -47.5q-10 0 -20 0.5t-20 1.5q-39 -5 -62.5 -17.5t-23.5 -35.5q0 -18 19 -24.5t69 -6.5h116q82 0 124 -32.5t42 -98.5zM288 33h-35q-67 0 -97 -21t-30 -55q0 -76 143 -76q77 0 117 22.5t40 65.5q0 35 -31 49.5t-107 14.5zM168 382q0 -56 24.5 -85.5
t68.5 -29.5q53 0 78 29.5t25 85.5q0 53 -25 80t-78 27q-45 0 -69 -27t-24 -80zM190 686q0 36 21 57t56 21t56.5 -21.5t21.5 -56.5t-21 -56t-57 -21t-56.5 20.5t-20.5 56.5z" />
    <glyph glyph-name="uni0122" unicode="&#x122;" horiz-adv-x="765" 
d="M378 70q85 0 121 42.5t36 125.5v40l-84 21v60h298v-60l-84 -21v-278h-82l-25 79q-43 -48 -89.5 -68.5t-109.5 -20.5q-137 0 -219 84q-46 47 -71.5 119t-25.5 159q0 89 26.5 165.5t74.5 126.5q41 43 97 64.5t132 21.5q60 0 99 -16t76 -56l20 62h85v-236h-91
q-13 80 -59 128.5t-126 48.5q-45 0 -75 -15t-52 -43q-28 -42 -47 -103.5t-19 -133.5q0 -70 17.5 -135t49.5 -109q20 -27 53.5 -39.5t73.5 -12.5zM388 -44q33 0 52.5 -17.5t19.5 -47.5q0 -39 -23.5 -71t-76.5 -60l-30 32q26 20 38.5 36t13.5 31l-3 2q-3 -5 -17 -5
q-19 0 -29 14t-10 31q0 26 16 40.5t49 14.5z" />
    <glyph glyph-name="uni0123" unicode="&#x123;" horiz-adv-x="575" 
d="M528 -6q0 -92 -66 -135t-210 -43q-64 0 -116.5 12t-83.5 39.5t-31 74.5q0 46 29 74t86 30v4q-76 21 -76 76q0 20 10 42t33 39t60 22q-53 13 -83 53.5t-30 95.5q0 80 54 126t155 46q67 0 105 -11.5t67 -34.5l34 12l92 44h17v-103h-17l-70 8h-25q20 -31 20 -81
q0 -82 -51 -129.5t-147 -47.5q-10 0 -20 0.5t-20 1.5q-39 -5 -62.5 -17.5t-23.5 -35.5q0 -18 19 -24.5t69 -6.5h116q82 0 124 -32.5t42 -98.5zM288 33h-35q-67 0 -97 -21t-30 -55q0 -76 143 -76q77 0 117 22.5t40 65.5q0 35 -31 49.5t-107 14.5zM168 382q0 -56 24.5 -85.5
t68.5 -29.5q53 0 78 29.5t25 85.5q0 53 -25 80t-78 27q-45 0 -69 -27t-24 -80zM258 638q-33 0 -52.5 17.5t-19.5 47.5q0 39 23.5 71t76.5 60l30 -32q-26 -20 -38.5 -36t-13.5 -31l3 -2q3 5 17 5q19 0 29 -14t10 -31q0 -26 -16 -40.5t-49 -14.5z" />
    <glyph glyph-name="Hcircumflex" unicode="&#x124;" horiz-adv-x="819" 
d="M694 641v-562l84 -21v-58h-298v58l84 21v254h-309v-254l84 -21v-58h-298v58l84 21v562l-84 21v58h298v-58l-84 -21v-235h309v235l-84 21v58h298v-58zM594 769l-119 121h-125l-118 -121h83l98 61l98 -61h83z" />
    <glyph glyph-name="hcircumflex" unicode="&#x125;" horiz-adv-x="658" 
d="M442 75v193q0 65 -3.5 96.5t-12.5 50.5q-24 49 -88 49q-28 0 -54 -14t-41 -40q-8 -13 -14 -36.5t-6 -57.5v-241l67 -19v-56h-271v56l77 19v630l-77 19v56h204v-334q26 48 68.5 76t93.5 28q43 0 72.5 -10.5t51.5 -33.5q31 -32 45.5 -85.5t14.5 -139.5v-206l77 -19v-56
h-271v56zM522 639l-89 151h-125l-88 -151h83l68 76l68 -76h83z" />
    <glyph glyph-name="Hbar" unicode="&#x126;" horiz-adv-x="829" 
d="M62 488v80h706v-80h-706zM699 641v-562l84 -21v-58h-298v58l84 21v254h-309v-254l84 -21v-58h-298v58l84 21v562l-84 21v58h298v-58l-84 -21v-235h309v235l-84 21v58h298v-58z" />
    <glyph glyph-name="hbar" unicode="&#x127;" horiz-adv-x="658" 
d="M33 600v77h281v-77h-281zM442 75v193q0 65 -3.5 96.5t-12.5 50.5q-24 49 -88 49q-28 0 -54 -14t-41 -40q-8 -13 -14 -36.5t-6 -57.5v-241l67 -19v-56h-271v56l77 19v630l-77 19v56h204v-334q26 48 68.5 76t93.5 28q43 0 72.5 -10.5t51.5 -33.5q31 -32 45.5 -85.5
t14.5 -139.5v-206l77 -19v-56h-271v56z" />
    <glyph glyph-name="Itilde" unicode="&#x128;" horiz-adv-x="390" 
d="M260 641v-562l94 -21v-58h-318v58l94 21v562l-94 21v58h318v-58zM-4 766q2 73 37 109t90 36q26 0 44.5 -8.5t34.5 -19t32 -19t35 -8.5q30 0 45 13t20 37h60q-21 -151 -127 -151q-25 0 -44 8.5t-35 19.5t-31.5 19.5t-35.5 8.5q-30 0 -45 -12t-20 -33h-60z" />
    <glyph glyph-name="itilde" unicode="&#x129;" horiz-adv-x="331" 
d="M108 465l-77 19v56h204v-465l77 -19v-56h-281v56l77 19v390zM-28 624q2 73 37 109t90 36q26 0 44.5 -8.5t34.5 -19t32 -19t35 -8.5q30 0 45 13t20 37h60q-21 -151 -127 -151q-25 0 -44 8.5t-35 19.5t-31.5 19.5t-35.5 8.5q-30 0 -45 -12t-20 -33h-60z" />
    <glyph glyph-name="Imacron" unicode="&#x12a;" horiz-adv-x="390" 
d="M260 641v-562l94 -21v-58h-318v58l94 21v562l-94 21v58h318v-58zM51 766v95h279v-95h-279z" />
    <glyph glyph-name="imacron" unicode="&#x12b;" horiz-adv-x="331" 
d="M108 465l-77 19v56h204v-465l77 -19v-56h-281v56l77 19v390zM31 635v95h279v-95h-279z" />
    <glyph glyph-name="Ibreve" unicode="&#x12c;" horiz-adv-x="390" 
d="M260 641v-562l94 -21v-58h-318v58l94 21v562l-94 21v58h318v-58zM342 938h-63q-1 -43 -30.5 -62.5t-68.5 -19.5t-68 19.5t-31 62.5h-63q0 -81 43.5 -131t118.5 -50t118.5 50t43.5 131z" />
    <glyph glyph-name="ibreve" unicode="&#x12d;" horiz-adv-x="331" 
d="M108 465l-77 19v56h204v-465l77 -19v-56h-281v56l77 19v390zM339 780h-63q0 -43 -27.5 -62.5t-77.5 -19.5q-39 0 -65 19.5t-28 62.5h-63q0 -81 40.5 -131t115.5 -50q72 0 119 48t49 133z" />
    <glyph glyph-name="Iogonek" unicode="&#x12e;" horiz-adv-x="390" 
d="M260 641v-562l94 -21v-58h-318v58l94 21v562l-94 21v58h318v-58zM174 -210q-55 0 -83 23.5t-28 61.5q0 75 114 139h71q-15 -9 -34.5 -28t-34 -41.5t-14.5 -42.5q0 -18 13.5 -28.5t36.5 -10.5q16 0 31.5 4t27.5 14l24 -35q-17 -25 -45 -40.5t-79 -15.5z" />
    <glyph glyph-name="iogonek" unicode="&#x12f;" horiz-adv-x="331" 
d="M108 465l-77 19v56h204v-465l77 -19v-56h-281v56l77 19v390zM97 692q0 32 19.5 52t54.5 20t55 -20t20 -52q0 -31 -19.5 -51t-55.5 -20t-55 19.5t-19 51.5zM151 -210q-55 0 -83 23.5t-28 61.5q0 75 114 139h71q-15 -9 -34.5 -28t-34 -41.5t-14.5 -42.5q0 -18 13.5 -28.5
t36.5 -10.5q16 0 31.5 4t27.5 14l24 -35q-17 -25 -45 -40.5t-79 -15.5z" />
    <glyph glyph-name="Idotaccent" unicode="&#x130;" horiz-adv-x="390" 
d="M260 641v-562l94 -21v-58h-318v58l94 21v562l-94 21v58h318v-58zM118 837q0 36 21 57t56 21t56.5 -21.5t21.5 -56.5t-21 -56t-57 -21t-56.5 20.5t-20.5 56.5z" />
    <glyph glyph-name="dotlessi" unicode="&#x131;" horiz-adv-x="331" 
d="M108 465l-77 19v56h204v-465l77 -19v-56h-281v56l77 19v390z" />
    <glyph glyph-name="IJ" unicode="&#x132;" horiz-adv-x="987" 
d="M260 641v-562l94 -21v-58h-318v58l94 21v562l-94 21v58h318v-58zM745 207v434l-99 21v58h308v-58l-79 -21v-423q0 -69 -29.5 -120.5t-82.5 -80t-124 -28.5t-125.5 23t-85 63.5t-30.5 94.5q0 46 20 75t60 29q35 0 57 -20t22 -53q0 -23 -13 -46.5t-30 -31.5q5 -26 34 -43.5
t82 -17.5q55 0 85 36t30 109z" />
    <glyph glyph-name="ij" unicode="&#x133;" horiz-adv-x="631" 
d="M108 465l-77 19v56h204v-465l77 -19v-56h-281v56l77 19v390zM97 692q0 32 19.5 52t54.5 20t55 -20t20 -52q0 -31 -19.5 -51t-55.5 -20t-55 19.5t-19 51.5zM556 540v-455q0 -74 -4.5 -116.5t-17.5 -69.5q-22 -47 -58.5 -68t-90.5 -21q-64 0 -103.5 24.5t-39.5 70.5
q0 29 18 50.5t52 21.5q29 0 46.5 -18t17.5 -44q0 -10 -4.5 -21t-13.5 -17q2 -11 12.5 -13t14.5 -2q22 0 33 28t11 101v474l-77 19v56h204zM421 692q0 32 19.5 52t54.5 20t55 -20t20 -52q0 -31 -19.5 -51t-55.5 -20t-55 19.5t-19 51.5z" />
    <glyph glyph-name="Jcircumflex" unicode="&#x134;" horiz-adv-x="597" 
d="M355 207v434l-99 21v58h308v-58l-79 -21v-423q0 -69 -29.5 -120.5t-82.5 -80t-124 -28.5t-125.5 23t-85 63.5t-30.5 94.5q0 46 20 75t60 29q35 0 57 -20t22 -53q0 -23 -13 -46.5t-30 -31.5q5 -26 34 -43.5t82 -17.5q55 0 85 36t30 109zM603 769l-119 121h-125l-118 -121
h83l98 61l98 -61h83z" />
    <glyph glyph-name="jcircumflex" unicode="&#x135;" horiz-adv-x="300" 
d="M225 540v-455q0 -74 -5 -116.5t-17 -69.5q-19 -43 -55 -66t-89 -23q-34 0 -68 10.5t-57 32.5t-23 56q0 29 17.5 48.5t51.5 19.5q28 0 45.5 -14.5t17.5 -43.5q0 -12 -4 -23t-12 -19q2 -9 11 -12.5t16 -3.5q22 0 31 20.5t11 47.5t2 47v489l-77 19v56h204zM312 639l-89 151
h-125l-88 -151h83l68 76l68 -76h83z" />
    <glyph glyph-name="uni0136" unicode="&#x136;" horiz-adv-x="747" 
d="M260 641v-244l235 244l-91 21v58h293v-58l-88 -21l-219 -217l287 -347l84 -19v-58h-309v58l66 20l-212 262l-46 -44v-217l84 -21v-58h-308v58l94 21v562l-94 21v58h308v-58zM403 -44q33 0 52.5 -17.5t19.5 -47.5q0 -39 -23.5 -71t-76.5 -60l-30 32q26 20 38.5 36t13.5 31
l-3 2q-3 -5 -17 -5q-19 0 -29 14t-10 31q0 26 16 40.5t49 14.5z" />
    <glyph glyph-name="uni0137" unicode="&#x137;" horiz-adv-x="609" 
d="M352 56l59 19l-132 176l-56 -47v-129l77 -19v-56h-281v56l77 19v630l-77 19v56h204v-498l170 184l-52 18v56h245v-56l-88 -19l-137 -140l187 -252l53 -17v-56h-249v56zM334 -44q33 0 52.5 -17.5t19.5 -47.5q0 -39 -23.5 -71t-76.5 -60l-30 32q26 20 38.5 36t13.5 31l-3 2
q-3 -5 -17 -5q-19 0 -29 14t-10 31q0 26 16 40.5t49 14.5z" />
    <glyph glyph-name="kgreenlandic" unicode="&#x138;" horiz-adv-x="616" 
d="M365 56l59 19l-130 179l-59 -50v-129l77 -19v-56h-281v56l77 19v390l-77 19v56h204v-254l168 179l-66 19v56h245v-56l-73 -19l-136 -140l188 -252l53 -17v-56h-249v56z" />
    <glyph glyph-name="Lacute" unicode="&#x139;" horiz-adv-x="645" 
d="M260 641v-566h242l34 173h85v-248h-585v58l94 21v562l-94 21v58h328v-58zM152 760l60 76q22 28 37 41.5t28.5 18t32.5 4.5q24 0 35.5 -12t11.5 -27q0 -13 -6 -22.5t-22 -20.5t-47 -30l-47 -28h-83z" />
    <glyph glyph-name="lacute" unicode="&#x13a;" horiz-adv-x="290" 
d="M108 770l61 77q21 27 38.5 37.5t36.5 10.5q37 0 37 -30q0 -16 -17.5 -29.5t-55.5 -36.5l-47 -29h-53zM96 60v600l-77 19v41h174v-660l77 -19v-41h-251v41z" />
    <glyph glyph-name="uni013B" unicode="&#x13b;" horiz-adv-x="645" 
d="M260 641v-566h242l34 173h85v-248h-585v58l94 21v562l-94 21v58h328v-58zM352 -44q33 0 52.5 -17.5t19.5 -47.5q0 -39 -23.5 -71t-76.5 -60l-30 32q26 20 38.5 36t13.5 31l-3 2q-3 -5 -17 -5q-19 0 -29 14t-10 31q0 26 16 40.5t49 14.5z" />
    <glyph glyph-name="uni013C" unicode="&#x13c;" horiz-adv-x="326" 
d="M99 76v628l-77 19v57h204v-704l77 -19v-57h-281v57zM170 -44q33 0 52.5 -17.5t19.5 -47.5q0 -39 -23.5 -71t-76.5 -60l-30 32q26 20 38.5 36t13.5 31l-3 2q-3 -5 -17 -5q-19 0 -29 14t-10 31q0 26 16 40.5t49 14.5z" />
    <glyph glyph-name="Lcaron" unicode="&#x13d;" horiz-adv-x="645" 
d="M260 641v-566h242l34 173h85v-248h-585v58l94 21v562l-94 21v58h328v-58zM256 769l119 121h-83l-98 -61l-98 61h-83l118 -121h125z" />
    <glyph glyph-name="lcaron" unicode="&#x13e;" horiz-adv-x="326" 
d="M99 76v628l-77 19v57h204v-704l77 -19v-57h-281v57zM343 590h-70q0 33 -4.5 57t-9.5 44t-5 41q0 18 10.5 38t44.5 20q32 0 43 -19t11 -39q0 -21 -5 -41t-10 -44t-5 -57z" />
    <glyph glyph-name="Ldot" unicode="&#x13f;" horiz-adv-x="645" 
d="M260 641v-566h242l34 173h85v-248h-585v58l94 21v562l-94 21v58h328v-58zM324 360q0 37 21 58.5t57 21.5t57.5 -22t21.5 -58t-21.5 -57t-57.5 -21q-37 0 -57.5 20.5t-20.5 57.5z" />
    <glyph glyph-name="ldot" unicode="&#x140;" horiz-adv-x="364" 
d="M99 76v628l-77 19v57h204v-704l77 -19v-57h-281v57zM266 358q0 37 21 58.5t57 21.5t57.5 -22t21.5 -58t-21.5 -57t-57.5 -21q-37 0 -57.5 20.5t-20.5 57.5z" />
    <glyph glyph-name="Lslash" unicode="&#x141;" horiz-adv-x="646" 
d="M66 251v83l288 170v-84zM261 641v-566h242l34 173h85v-248h-585v58l94 21v562l-94 21v58h328v-58z" />
    <glyph glyph-name="lslash" unicode="&#x142;" horiz-adv-x="328" 
d="M31 281v83l268 170v-84zM100 76v628l-77 19v57h204v-704l77 -19v-57h-281v57z" />
    <glyph glyph-name="Nacute" unicode="&#x143;" horiz-adv-x="817" 
d="M125 79v562l-84 21v58h231l334 -528v449l-84 21v58h263v-58l-84 -21v-641h-111l-370 574v-495l84 -21v-58h-263v58zM366 760l60 76q22 28 37 41.5t28.5 18t32.5 4.5q24 0 35.5 -12t11.5 -27q0 -13 -6 -22.5t-22 -20.5t-47 -30l-47 -28h-83z" />
    <glyph glyph-name="nacute" unicode="&#x144;" horiz-adv-x="674" 
d="M108 75v390l-77 19v56h174l22 -100h4q30 51 81 80.5t109 29.5q83 0 123 -54q20 -28 28.5 -78.5t8.5 -136.5v-206l77 -19v-56h-271v56l67 19v193q0 60 -3.5 93.5t-12.5 53.5q-11 26 -30 36t-45 10q-49 0 -83 -32q-41 -38 -45 -117v-237l67 -19v-56h-271v56zM290 639l49 76
q31 47 51.5 64t48.5 17q32 0 44 -12.5t12 -29.5q0 -15 -18 -33.5t-66 -53.5l-38 -28h-83z" />
    <glyph glyph-name="uni0145" unicode="&#x145;" horiz-adv-x="817" 
d="M125 79v562l-84 21v58h231l334 -528v449l-84 21v58h263v-58l-84 -21v-641h-111l-370 574v-495l84 -21v-58h-263v58zM418 -44q33 0 52.5 -17.5t19.5 -47.5q0 -39 -23.5 -71t-76.5 -60l-30 32q26 20 38.5 36t13.5 31l-3 2q-3 -5 -17 -5q-19 0 -29 14t-10 31q0 26 16 40.5
t49 14.5z" />
    <glyph glyph-name="uni0146" unicode="&#x146;" horiz-adv-x="674" 
d="M108 75v390l-77 19v56h174l22 -100h4q30 51 81 80.5t109 29.5q83 0 123 -54q20 -28 28.5 -78.5t8.5 -136.5v-206l77 -19v-56h-271v56l67 19v193q0 60 -3.5 93.5t-12.5 53.5q-11 26 -30 36t-45 10q-49 0 -83 -32q-41 -38 -45 -117v-237l67 -19v-56h-271v56zM354 -44
q33 0 52.5 -17.5t19.5 -47.5q0 -39 -23.5 -71t-76.5 -60l-30 32q26 20 38.5 36t13.5 31l-3 2q-3 -5 -17 -5q-19 0 -29 14t-10 31q0 26 16 40.5t49 14.5z" />
    <glyph glyph-name="Ncaron" unicode="&#x147;" horiz-adv-x="817" 
d="M125 79v562l-84 21v58h231l334 -528v449l-84 21v58h263v-58l-84 -21v-641h-111l-370 574v-495l84 -21v-58h-263v58zM470 769l119 121h-83l-98 -61l-98 61h-83l118 -121h125z" />
    <glyph glyph-name="ncaron" unicode="&#x148;" horiz-adv-x="674" 
d="M108 75v390l-77 19v56h174l22 -100h4q30 51 81 80.5t109 29.5q83 0 123 -54q20 -28 28.5 -78.5t8.5 -136.5v-206l77 -19v-56h-271v56l67 19v193q0 60 -3.5 93.5t-12.5 53.5q-11 26 -30 36t-45 10q-49 0 -83 -32q-41 -38 -45 -117v-237l67 -19v-56h-271v56zM419 629
l89 151h-83l-68 -76l-68 76h-83l88 -151h125z" />
    <glyph glyph-name="napostrophe" unicode="&#x149;" horiz-adv-x="768" 
d="M202 75v390l-77 19v56h174l22 -100h4q30 51 81 80.5t109 29.5q83 0 123 -54q20 -28 28.5 -78.5t8.5 -136.5v-206l77 -19v-56h-271v56l67 19v193q0 60 -3.5 93.5t-12.5 53.5q-11 26 -30 36t-45 10q-49 0 -83 -32q-41 -38 -45 -117v-237l67 -19v-56h-271v56zM90 800
q32 0 49.5 -22t17.5 -53q0 -39 -30.5 -81.5t-76.5 -68.5l-38 41q40 26 55.5 47.5t16.5 28.5l-3 2q-4 -3 -8 -4.5t-14 -1.5q-19 0 -30.5 15.5t-11.5 36.5t18 40.5t55 19.5z" />
    <glyph glyph-name="Eng" unicode="&#x14a;" horiz-adv-x="817" 
d="M125 79v562l-84 21v58h231l334 -528v449l-84 21v58h263v-58l-84 -21v-556q0 -74 -5 -116.5t-17 -69.5q-19 -43 -56.5 -66t-84.5 -23q-35 0 -66.5 12.5t-50.5 35.5t-19 54q0 28 13.5 46.5t39.5 18.5q23 0 40.5 -13.5t17.5 -41.5q0 -16 -7.5 -25.5t-17.5 -13.5q2 -9 14 -15
t34 -6q34 0 46.5 32t12.5 82v17l-375 581v-495l84 -21v-58h-263v58z" />
    <glyph glyph-name="eng" unicode="&#x14b;" horiz-adv-x="645" 
d="M454 -24v292q0 65 -3.5 96.5t-12.5 50.5q-8 24 -29.5 35.5t-41.5 11.5q-28 0 -47.5 -9t-39.5 -26q-22 -19 -33.5 -46.5t-11.5 -68.5v-237l67 -19v-56h-271v56l77 19v390l-77 19v56h174l22 -100h4q30 51 81 80.5t109 29.5q83 0 123 -54q20 -28 28.5 -78.5t8.5 -136.5v-196
q0 -74 -5 -116.5t-17 -69.5q-19 -43 -60.5 -66t-91.5 -23q-66 0 -103 27t-37 68q0 26 15.5 45t52.5 19q30 0 47 -15t17 -33q0 -26 -16 -42q2 -7 11.5 -12t21.5 -5q13 0 21 8.5t12.5 33t4.5 72.5z" />
    <glyph glyph-name="Omacron" unicode="&#x14c;" horiz-adv-x="774" 
d="M731 368q0 -83 -24 -160t-76 -131q-43 -44 -103 -65.5t-144 -21.5t-144 21t-101 63q-43 45 -69.5 117.5t-26.5 160.5q0 87 26.5 163.5t73.5 127.5q42 45 101 66t143 21q80 0 141 -20t106 -64q52 -52 74.5 -125.5t22.5 -152.5zM188 371q0 -78 14.5 -138t39.5 -98
q24 -37 60 -56t88 -19q94 0 142 66q26 35 40 92t14 136t-14.5 137.5t-40.5 95.5q-26 38 -63.5 56t-84.5 18t-81.5 -17.5t-57.5 -48.5q-56 -74 -56 -224zM241 766v95h279v-95h-279z" />
    <glyph glyph-name="omacron" unicode="&#x14d;" horiz-adv-x="594" 
d="M557 270q0 -64 -18.5 -120.5t-53.5 -94.5q-33 -35 -79.5 -50t-108.5 -15t-108.5 15t-79.5 50q-35 38 -53.5 94.5t-18.5 120.5t18.5 121t53.5 94q33 35 79.5 50t108.5 15t108.5 -15t79.5 -50q35 -37 53.5 -94t18.5 -121zM206 97q14 -20 36.5 -30t54.5 -10t55 10t36 30
q32 49 32 173q0 63 -8 106t-24 67q-13 20 -36 30t-55 10t-54.5 -10t-36.5 -30q-32 -49 -32 -173t32 -173zM157 635v95h279v-95h-279z" />
    <glyph glyph-name="Obreve" unicode="&#x14e;" horiz-adv-x="774" 
d="M731 368q0 -83 -24 -160t-76 -131q-43 -44 -103 -65.5t-144 -21.5t-144 21t-101 63q-43 45 -69.5 117.5t-26.5 160.5q0 87 26.5 163.5t73.5 127.5q42 45 101 66t143 21q80 0 141 -20t106 -64q52 -52 74.5 -125.5t22.5 -152.5zM188 371q0 -78 14.5 -138t39.5 -98
q24 -37 60 -56t88 -19q94 0 142 66q26 35 40 92t14 136t-14.5 137.5t-40.5 95.5q-26 38 -63.5 56t-84.5 18t-81.5 -17.5t-57.5 -48.5q-56 -74 -56 -224zM549 938h-63q-1 -43 -30.5 -62.5t-68.5 -19.5t-68 19.5t-31 62.5h-63q0 -81 43.5 -131t118.5 -50t118.5 50t43.5 131z
" />
    <glyph glyph-name="obreve" unicode="&#x14f;" horiz-adv-x="594" 
d="M557 270q0 -64 -18.5 -120.5t-53.5 -94.5q-33 -35 -79.5 -50t-108.5 -15t-108.5 15t-79.5 50q-35 38 -53.5 94.5t-18.5 120.5t18.5 121t53.5 94q33 35 79.5 50t108.5 15t108.5 -15t79.5 -50q35 -37 53.5 -94t18.5 -121zM206 97q14 -20 36.5 -30t54.5 -10t55 10t36 30
q32 49 32 173q0 63 -8 106t-24 67q-13 20 -36 30t-55 10t-54.5 -10t-36.5 -30q-32 -49 -32 -173t32 -173zM465 780h-63q0 -43 -27.5 -62.5t-77.5 -19.5q-39 0 -65 19.5t-28 62.5h-63q0 -81 40.5 -131t115.5 -50q72 0 119 48t49 133z" />
    <glyph glyph-name="Ohungarumlaut" unicode="&#x150;" horiz-adv-x="774" 
d="M731 368q0 -83 -24 -160t-76 -131q-43 -44 -103 -65.5t-144 -21.5t-144 21t-101 63q-43 45 -69.5 117.5t-26.5 160.5q0 87 26.5 163.5t73.5 127.5q42 45 101 66t143 21q80 0 141 -20t106 -64q52 -52 74.5 -125.5t22.5 -152.5zM188 371q0 -78 14.5 -138t39.5 -98
q24 -37 60 -56t88 -19q94 0 142 66q26 35 40 92t14 136t-14.5 137.5t-40.5 95.5q-26 38 -63.5 56t-84.5 18t-81.5 -17.5t-57.5 -48.5q-56 -74 -56 -224zM253 760l60 76q22 28 37 41.5t28.5 18t32.5 4.5q24 0 35.5 -12t11.5 -27q0 -13 -6 -22.5t-22 -20.5t-47 -30l-47 -28
h-83zM433 760l60 76q22 28 37 41.5t28.5 18t32.5 4.5q24 0 35.5 -12t11.5 -27q0 -13 -6 -22.5t-22 -20.5t-47 -30l-47 -28h-83z" />
    <glyph glyph-name="ohungarumlaut" unicode="&#x151;" horiz-adv-x="594" 
d="M557 270q0 -64 -18.5 -120.5t-53.5 -94.5q-33 -35 -79.5 -50t-108.5 -15t-108.5 15t-79.5 50q-35 38 -53.5 94.5t-18.5 120.5t18.5 121t53.5 94q33 35 79.5 50t108.5 15t108.5 -15t79.5 -50q35 -37 53.5 -94t18.5 -121zM206 97q14 -20 36.5 -30t54.5 -10t55 10t36 30
q32 49 32 173q0 63 -8 106t-24 67q-13 20 -36 30t-55 10t-54.5 -10t-36.5 -30q-32 -49 -32 -173t32 -173zM153 639l49 76q31 47 51.5 64t48.5 17q32 0 44 -12.5t12 -29.5q0 -15 -18 -33.5t-66 -53.5l-38 -28h-83zM348 639l49 76q31 47 51.5 64t48.5 17q32 0 44 -12.5
t12 -29.5q0 -15 -18 -33.5t-66 -53.5l-38 -28h-83z" />
    <glyph glyph-name="OE" unicode="&#x152;" horiz-adv-x="1082" 
d="M879 238h-81l-17 94h-137v-257h274l29 148h88v-223h-654q-155 0 -238 87q-47 50 -73.5 123.5t-26.5 157.5q0 80 25.5 150t71.5 118q83 84 232 84h641v-212h-82l-29 139h-258v-240h137l17 95h81v-264zM514 75v570h-105q-58 0 -98.5 -18.5t-67.5 -55.5q-55 -75 -55 -217
q0 -73 14 -126t41 -87q26 -33 64 -49.5t92 -16.5h115z" />
    <glyph glyph-name="oe" unicode="&#x153;" horiz-adv-x="933" 
d="M295 550q39 0 76 -10.5t66.5 -32.5t45.5 -58h4q25 49 68.5 75t109.5 26q116 0 174 -63.5t58 -175.5q0 -10 -0.5 -22.5t-2.5 -32.5h-349q0 -37 5 -63.5t15 -49.5q15 -38 44 -54.5t63 -16.5q47 0 86 19.5t70 53.5l62 -39q-27 -32 -58 -58.5t-73.5 -42t-102.5 -15.5
q-36 0 -71 10.5t-61 32t-37 52.5h-4q-25 -46 -81 -70.5t-120 -24.5q-55 0 -99.5 15.5t-74.5 47.5q-34 37 -52.5 91.5t-18.5 118.5q0 65 19 124.5t55 97.5q32 34 80.5 49.5t103.5 15.5zM174 274q0 -55 10.5 -96t25.5 -68q14 -25 37 -39t50 -14q54 0 88 47q18 23 26.5 65.5
t8.5 97.5t-9.5 96t-26.5 67q-16 25 -37 39t-51 14q-25 0 -49.5 -12t-36.5 -34q-16 -26 -26 -66.5t-10 -96.5zM660 481q-46 0 -77.5 -39t-36.5 -122h220v26q0 65 -32 100t-74 35z" />
    <glyph glyph-name="Racute" unicode="&#x154;" horiz-adv-x="717" 
d="M566 382q-18 -14 -40.5 -27t-57.5 -21q5 -5 16 -17.5t21 -29.5l124 -210l89 -19v-58h-236v58l-131 257h-96v-236l95 -21v-58h-309v58l84 21v562l-84 21v58h374q48 0 84.5 -9t64.5 -29q36 -25 57 -66.5t21 -83.5t-20.5 -82.5t-55.5 -67.5zM255 388h113q55 0 91 31
q20 17 31.5 45.5t11.5 61.5q0 30 -12 54.5t-32 40.5q-17 14 -39.5 20t-54.5 6h-109v-259zM275 760l60 76q22 28 37 41.5t28.5 18t32.5 4.5q24 0 35.5 -12t11.5 -27q0 -13 -6 -22.5t-22 -20.5t-47 -30l-47 -28h-83z" />
    <glyph glyph-name="racute" unicode="&#x155;" horiz-adv-x="474" 
d="M330 467v0v0q-11 0 -25 -13.5t-25.5 -31.5t-16.5 -32q-12 -34 -21 -70t-9 -88v-157l108 -19v-56h-312v56l77 19v405l-77 19v41h174l22 -132h4q23 68 62 105t86 37q39 0 65 -24.5t26 -65.5q0 -30 -18 -54.5t-51 -24.5q-40 0 -57 18.5t-17 40.5q0 7 0.5 10.5t4.5 16.5z
M210 639l49 76q31 47 51.5 64t48.5 17q32 0 44 -12.5t12 -29.5q0 -15 -18 -33.5t-66 -53.5l-38 -28h-83z" />
    <glyph glyph-name="uni0156" unicode="&#x156;" horiz-adv-x="717" 
d="M566 382q-18 -14 -40.5 -27t-57.5 -21q5 -5 16 -17.5t21 -29.5l124 -210l89 -19v-58h-236v58l-131 257h-96v-236l95 -21v-58h-309v58l84 21v562l-84 21v58h374q48 0 84.5 -9t64.5 -29q36 -25 57 -66.5t21 -83.5t-20.5 -82.5t-55.5 -67.5zM255 388h113q55 0 91 31
q20 17 31.5 45.5t11.5 61.5q0 30 -12 54.5t-32 40.5q-17 14 -39.5 20t-54.5 6h-109v-259zM399 -44q33 0 52.5 -17.5t19.5 -47.5q0 -39 -23.5 -71t-76.5 -60l-30 32q26 20 38.5 36t13.5 31l-3 2q-3 -5 -17 -5q-19 0 -29 14t-10 31q0 26 16 40.5t49 14.5z" />
    <glyph glyph-name="uni0157" unicode="&#x157;" horiz-adv-x="474" 
d="M330 467v0v0q-11 0 -25 -13.5t-25.5 -31.5t-16.5 -32q-12 -34 -21 -70t-9 -88v-157l108 -19v-56h-312v56l77 19v405l-77 19v41h174l22 -132h4q23 68 62 105t86 37q39 0 65 -24.5t26 -65.5q0 -30 -18 -54.5t-51 -24.5q-40 0 -57 18.5t-17 40.5q0 7 0.5 10.5t4.5 16.5z
M179 -44q33 0 52.5 -17.5t19.5 -47.5q0 -39 -23.5 -71t-76.5 -60l-30 32q26 20 38.5 36t13.5 31l-3 2q-3 -5 -17 -5q-19 0 -29 14t-10 31q0 26 16 40.5t49 14.5z" />
    <glyph glyph-name="Rcaron" unicode="&#x158;" horiz-adv-x="717" 
d="M566 382q-18 -14 -40.5 -27t-57.5 -21q5 -5 16 -17.5t21 -29.5l124 -210l89 -19v-58h-236v58l-131 257h-96v-236l95 -21v-58h-309v58l84 21v562l-84 21v58h374q48 0 84.5 -9t64.5 -29q36 -25 57 -66.5t21 -83.5t-20.5 -82.5t-55.5 -67.5zM255 388h113q55 0 91 31
q20 17 31.5 45.5t11.5 61.5q0 30 -12 54.5t-32 40.5q-17 14 -39.5 20t-54.5 6h-109v-259zM415 769l119 121h-83l-98 -61l-98 61h-83l118 -121h125z" />
    <glyph glyph-name="rcaron" unicode="&#x159;" horiz-adv-x="474" 
d="M330 467v0v0q-11 0 -25 -13.5t-25.5 -31.5t-16.5 -32q-12 -34 -21 -70t-9 -88v-157l108 -19v-56h-312v56l77 19v405l-77 19v41h174l22 -132h4q23 68 62 105t86 37q39 0 65 -24.5t26 -65.5q0 -30 -18 -54.5t-51 -24.5q-40 0 -57 18.5t-17 40.5q0 7 0.5 10.5t4.5 16.5z
M314 629l89 151h-83l-68 -76l-68 76h-83l88 -151h125z" />
    <glyph glyph-name="Sacute" unicode="&#x15a;" horiz-adv-x="613" 
d="M322 -11q-57 0 -96.5 16.5t-70.5 52.5l-11 -58h-86v242h91q6 -100 49 -141.5t114 -41.5q57 0 91 24t34 74q0 41 -22.5 67.5t-63 47t-94.5 42.5q-62 26 -106 53t-67 65t-23 96q0 97 59.5 150t159.5 53q99 0 161 -56l8 45h86v-242h-87q0 94 -35 139t-108 45
q-113 0 -113 -107q0 -35 14 -56t46.5 -39t88.5 -43q84 -38 134 -71t71.5 -69.5t21.5 -85.5q0 -67 -33 -112t-88.5 -67.5t-124.5 -22.5zM253 760l60 76q22 28 37 41.5t28.5 18t32.5 4.5q24 0 35.5 -12t11.5 -27q0 -13 -6 -22.5t-22 -20.5t-47 -30l-47 -28h-83z" />
    <glyph glyph-name="sacute" unicode="&#x15b;" horiz-adv-x="516" 
d="M243 51q50 0 85.5 19t35.5 53q0 27 -21.5 45t-54 30t-66.5 22q-41 13 -79 33t-62 53.5t-24 84.5q0 72 52.5 115.5t148.5 43.5q92 0 146.5 -38.5t54.5 -99.5q0 -34 -18.5 -52.5t-50.5 -18.5t-50 15.5t-18 36.5q0 17 10 33t26 23q-13 19 -37 29.5t-59 10.5
q-46 0 -69.5 -19.5t-23.5 -54.5q0 -26 12 -43.5t33.5 -28.5t50.5 -20q40 -12 78.5 -25t69.5 -32t49.5 -46.5t18.5 -66.5q0 -52 -32 -88.5t-86.5 -55.5t-122.5 -19q-95 0 -149 35.5t-54 94.5q0 41 23 64t55 23q24 0 44.5 -13.5t20.5 -38.5q0 -18 -11 -35t-25 -25
q10 -16 33 -30t66 -14zM228 639l49 76q31 47 51.5 64t48.5 17q32 0 44 -12.5t12 -29.5q0 -15 -18 -33.5t-66 -53.5l-38 -28h-83z" />
    <glyph glyph-name="Scircumflex" unicode="&#x15c;" horiz-adv-x="613" 
d="M322 -11q-57 0 -96.5 16.5t-70.5 52.5l-11 -58h-86v242h91q6 -100 49 -141.5t114 -41.5q57 0 91 24t34 74q0 41 -22.5 67.5t-63 47t-94.5 42.5q-62 26 -106 53t-67 65t-23 96q0 97 59.5 150t159.5 53q99 0 161 -56l8 45h86v-242h-87q0 94 -35 139t-108 45
q-113 0 -113 -107q0 -35 14 -56t46.5 -39t88.5 -43q84 -38 134 -71t71.5 -69.5t21.5 -85.5q0 -67 -33 -112t-88.5 -67.5t-124.5 -22.5zM476 769l-119 121h-125l-118 -121h83l98 61l98 -61h83z" />
    <glyph glyph-name="scircumflex" unicode="&#x15d;" horiz-adv-x="516" 
d="M243 51q50 0 85.5 19t35.5 53q0 27 -21.5 45t-54 30t-66.5 22q-41 13 -79 33t-62 53.5t-24 84.5q0 72 52.5 115.5t148.5 43.5q92 0 146.5 -38.5t54.5 -99.5q0 -34 -18.5 -52.5t-50.5 -18.5t-50 15.5t-18 36.5q0 17 10 33t26 23q-13 19 -37 29.5t-59 10.5
q-46 0 -69.5 -19.5t-23.5 -54.5q0 -26 12 -43.5t33.5 -28.5t50.5 -20q40 -12 78.5 -25t69.5 -32t49.5 -46.5t18.5 -66.5q0 -52 -32 -88.5t-86.5 -55.5t-122.5 -19q-95 0 -149 35.5t-54 94.5q0 41 23 64t55 23q24 0 44.5 -13.5t20.5 -38.5q0 -18 -11 -35t-25 -25
q10 -16 33 -30t66 -14zM421 639l-89 151h-125l-88 -151h83l68 76l68 -76h83z" />
    <glyph glyph-name="uni015E" unicode="&#x15e;" horiz-adv-x="613" 
d="M322 -11q-57 0 -96.5 16.5t-70.5 52.5l-11 -58h-86v242h91q6 -100 49 -141.5t114 -41.5q57 0 91 24t34 74q0 41 -22.5 67.5t-63 47t-94.5 42.5q-62 26 -106 53t-67 65t-23 96q0 97 59.5 150t159.5 53q99 0 161 -56l8 45h86v-242h-87q0 94 -35 139t-108 45
q-113 0 -113 -107q0 -35 14 -56t46.5 -39t88.5 -43q84 -38 134 -71t71.5 -69.5t21.5 -85.5q0 -67 -33 -112t-88.5 -67.5t-124.5 -22.5zM290 -210q-53 0 -91 28l31 42q29 -20 59 -20q20 0 31 7t11 19q0 13 -12.5 20.5t-32.5 7.5q-11 0 -24 -1.5t-22 -4.5l-17 29l77 100h74
l-42 -70l1 -3q56 0 78 -19t22 -51q0 -40 -42 -62t-101 -22z" />
    <glyph glyph-name="uni015F" unicode="&#x15f;" horiz-adv-x="515" 
d="M242 51q50 0 85.5 19t35.5 53q0 27 -21.5 45t-54 30t-66.5 22q-41 13 -79 33t-62 53.5t-24 84.5q0 72 52.5 115.5t148.5 43.5q92 0 146.5 -38.5t54.5 -99.5q0 -34 -18.5 -52.5t-50.5 -18.5t-50 15.5t-18 36.5q0 17 10 33t26 23q-13 19 -37 29.5t-59 10.5
q-46 0 -69.5 -19.5t-23.5 -54.5q0 -26 12 -43.5t33.5 -28.5t50.5 -20q40 -12 78.5 -25t69.5 -32t49.5 -46.5t18.5 -66.5q0 -52 -32 -88.5t-86.5 -55.5t-122.5 -19q-95 0 -149 35.5t-54 94.5q0 41 23 64t55 23q24 0 44.5 -13.5t20.5 -38.5q0 -18 -11 -35t-25 -25
q10 -16 33 -30t66 -14zM222 -210q-53 0 -91 28l31 42q29 -20 59 -20q20 0 31 7t11 19q0 13 -12.5 20.5t-32.5 7.5q-11 0 -24 -1.5t-22 -4.5l-17 29l77 100h74l-42 -70l1 -3q56 0 78 -19t22 -51q0 -40 -42 -62t-101 -22z" />
    <glyph glyph-name="Scaron" unicode="&#x160;" horiz-adv-x="613" 
d="M322 -11q-57 0 -96.5 16.5t-70.5 52.5l-11 -58h-86v242h91q6 -100 49 -141.5t114 -41.5q57 0 91 24t34 74q0 41 -22.5 67.5t-63 47t-94.5 42.5q-62 26 -106 53t-67 65t-23 96q0 97 59.5 150t159.5 53q99 0 161 -56l8 45h86v-242h-87q0 94 -35 139t-108 45
q-113 0 -113 -107q0 -35 14 -56t46.5 -39t88.5 -43q84 -38 134 -71t71.5 -69.5t21.5 -85.5q0 -67 -33 -112t-88.5 -67.5t-124.5 -22.5zM375 769l119 121h-83l-98 -61l-98 61h-83l118 -121h125z" />
    <glyph glyph-name="scaron" unicode="&#x161;" horiz-adv-x="516" 
d="M243 51q50 0 85.5 19t35.5 53q0 27 -21.5 45t-54 30t-66.5 22q-41 13 -79 33t-62 53.5t-24 84.5q0 72 52.5 115.5t148.5 43.5q92 0 146.5 -38.5t54.5 -99.5q0 -34 -18.5 -52.5t-50.5 -18.5t-50 15.5t-18 36.5q0 17 10 33t26 23q-13 19 -37 29.5t-59 10.5
q-46 0 -69.5 -19.5t-23.5 -54.5q0 -26 12 -43.5t33.5 -28.5t50.5 -20q40 -12 78.5 -25t69.5 -32t49.5 -46.5t18.5 -66.5q0 -52 -32 -88.5t-86.5 -55.5t-122.5 -19q-95 0 -149 35.5t-54 94.5q0 41 23 64t55 23q24 0 44.5 -13.5t20.5 -38.5q0 -18 -11 -35t-25 -25
q10 -16 33 -30t66 -14zM332 629l89 151h-83l-68 -76l-68 76h-83l88 -151h125z" />
    <glyph glyph-name="uni0162" unicode="&#x162;" horiz-adv-x="674" 
d="M24 720h626v-225h-64l-32 150h-152v-563l106 -24v-58h-342v58l106 24v563h-153l-31 -150h-64v225zM297 -210q-53 0 -91 28l31 42q29 -20 59 -20q20 0 31 7t11 19q0 13 -12.5 20.5t-32.5 7.5q-11 0 -24 -1.5t-22 -4.5l-17 29l77 100h74l-42 -70l1 -3q56 0 78 -19t22 -51
q0 -40 -42 -62t-101 -22z" />
    <glyph glyph-name="uni0163" unicode="&#x163;" horiz-adv-x="365" 
d="M5 475v51l98 14l12 124l114 16v-140h128v-65h-128v-327q0 -34 1 -46.5t4 -20.5q3 -6 11 -9t26 -3h70v-44q-58 -18 -102.5 -26.5t-70.5 -8.5q-45 0 -58 37q-4 12 -6 31t-2 56v361h-97zM172 -210q-53 0 -91 28l31 42q29 -20 59 -20q20 0 31 7t11 19q0 13 -12.5 20.5
t-32.5 7.5q-11 0 -24 -1.5t-22 -4.5l-17 29l77 100h74l-42 -70l1 -3q56 0 78 -19t22 -51q0 -40 -42 -62t-101 -22z" />
    <glyph glyph-name="Tcaron" unicode="&#x164;" horiz-adv-x="674" 
d="M24 720h626v-225h-64l-32 150h-152v-563l106 -24v-58h-342v58l106 24v563h-153l-31 -150h-64v225zM401 769l119 121h-83l-98 -61l-98 61h-83l118 -121h125z" />
    <glyph glyph-name="tcaron" unicode="&#x165;" horiz-adv-x="365" 
d="M5 475v51l98 14l12 124l114 16v-140h128v-65h-128v-327q0 -34 1 -46.5t4 -20.5q3 -6 11 -9t26 -3h70v-44q-58 -18 -102.5 -26.5t-70.5 -8.5q-45 0 -58 37q-4 12 -6 31t-2 56v361h-97zM351 590h-70q0 33 -4.5 57t-9.5 44t-5 41q0 18 10.5 38t44.5 20q32 0 43 -19t11 -39
q0 -21 -5 -41t-10 -44t-5 -57z" />
    <glyph glyph-name="Tbar" unicode="&#x166;" horiz-adv-x="678" 
d="M111 341v80h456v-80h-456zM26 720h626v-225h-64l-32 150h-152v-563l106 -24v-58h-342v58l106 24v563h-153l-31 -150h-64v225z" />
    <glyph glyph-name="tbar" unicode="&#x167;" horiz-adv-x="368" 
d="M22 316v75h321v-75h-321zM7 475v51l98 14l12 124l114 16v-140h128v-65h-128v-327q0 -34 1 -46.5t4 -20.5q3 -6 11 -9t26 -3h70v-44q-58 -18 -102.5 -26.5t-70.5 -8.5q-45 0 -58 37q-4 12 -6 31t-2 56v361h-97z" />
    <glyph glyph-name="Utilde" unicode="&#x168;" horiz-adv-x="784" 
d="M584 274v367l-84 21v58h261v-58l-84 -21v-398q0 -124 -74.5 -189t-218.5 -65q-133 0 -204.5 66.5t-71.5 188.5v397l-84 21v58h298v-58l-84 -21v-365q0 -217 168 -217q94 0 136 51t42 164zM213 766q2 73 37 109t90 36q26 0 44.5 -8.5t34.5 -19t32 -19t35 -8.5q30 0 45 13
t20 37h60q-21 -151 -127 -151q-25 0 -44 8.5t-35 19.5t-31.5 19.5t-35.5 8.5q-30 0 -45 -12t-20 -33h-60z" />
    <glyph glyph-name="utilde" unicode="&#x169;" horiz-adv-x="652" 
d="M218 540v-268q0 -64 3 -96t9 -51q8 -24 26.5 -36.5t37.5 -12.5q27 0 49 10t41 27q41 37 45 115v237l-87 19v56h214v-465l77 -19v-56l-185 -10l-11 110h-4q-29 -51 -79 -80.5t-107 -29.5q-38 0 -69.5 14.5t-49.5 39.5q-19 28 -28 79t-9 136v206l-67 19v56h194zM122 624
q2 73 37 109t90 36q26 0 44.5 -8.5t34.5 -19t32 -19t35 -8.5q30 0 45 13t20 37h60q-21 -151 -127 -151q-25 0 -44 8.5t-35 19.5t-31.5 19.5t-35.5 8.5q-30 0 -45 -12t-20 -33h-60z" />
    <glyph glyph-name="Umacron" unicode="&#x16a;" horiz-adv-x="784" 
d="M584 274v367l-84 21v58h261v-58l-84 -21v-398q0 -124 -74.5 -189t-218.5 -65q-133 0 -204.5 66.5t-71.5 188.5v397l-84 21v58h298v-58l-84 -21v-365q0 -217 168 -217q94 0 136 51t42 164zM269 766v95h279v-95h-279z" />
    <glyph glyph-name="umacron" unicode="&#x16b;" horiz-adv-x="652" 
d="M218 540v-268q0 -64 3 -96t9 -51q8 -24 26.5 -36.5t37.5 -12.5q27 0 49 10t41 27q41 37 45 115v237l-87 19v56h214v-465l77 -19v-56l-185 -10l-11 110h-4q-29 -51 -79 -80.5t-107 -29.5q-38 0 -69.5 14.5t-49.5 39.5q-19 28 -28 79t-9 136v206l-67 19v56h194zM181 635v95
h279v-95h-279z" />
    <glyph glyph-name="Ubreve" unicode="&#x16c;" horiz-adv-x="784" 
d="M584 274v367l-84 21v58h261v-58l-84 -21v-398q0 -124 -74.5 -189t-218.5 -65q-133 0 -204.5 66.5t-71.5 188.5v397l-84 21v58h298v-58l-84 -21v-365q0 -217 168 -217q94 0 136 51t42 164zM574 938h-63q-1 -43 -30.5 -62.5t-68.5 -19.5t-68 19.5t-31 62.5h-63
q0 -81 43.5 -131t118.5 -50t118.5 50t43.5 131z" />
    <glyph glyph-name="ubreve" unicode="&#x16d;" horiz-adv-x="652" 
d="M218 540v-268q0 -64 3 -96t9 -51q8 -24 26.5 -36.5t37.5 -12.5q27 0 49 10t41 27q41 37 45 115v237l-87 19v56h214v-465l77 -19v-56l-185 -10l-11 110h-4q-29 -51 -79 -80.5t-107 -29.5q-38 0 -69.5 14.5t-49.5 39.5q-19 28 -28 79t-9 136v206l-67 19v56h194zM489 780
h-63q0 -43 -27.5 -62.5t-77.5 -19.5q-39 0 -65 19.5t-28 62.5h-63q0 -81 40.5 -131t115.5 -50q72 0 119 48t49 133z" />
    <glyph glyph-name="Uring" unicode="&#x16e;" horiz-adv-x="784" 
d="M584 274v367l-84 21v58h261v-58l-84 -21v-398q0 -124 -74.5 -189t-218.5 -65q-133 0 -204.5 66.5t-71.5 188.5v397l-84 21v58h298v-58l-84 -21v-365q0 -217 168 -217q94 0 136 51t42 164zM322 824q0 38 26.5 57t63.5 19q38 0 64.5 -19t26.5 -57q0 -37 -26.5 -55.5
t-64.5 -18.5q-37 0 -63.5 18.5t-26.5 55.5zM382 824q0 -15 7.5 -22.5t22.5 -7.5t23.5 7.5t8.5 22.5t-8.5 23.5t-23.5 8.5t-22.5 -8.5t-7.5 -23.5z" />
    <glyph glyph-name="uring" unicode="&#x16f;" horiz-adv-x="652" 
d="M218 540v-268q0 -64 3 -96t9 -51q8 -24 26.5 -36.5t37.5 -12.5q27 0 49 10t41 27q41 37 45 115v237l-87 19v56h214v-465l77 -19v-56l-185 -10l-11 110h-4q-29 -51 -79 -80.5t-107 -29.5q-38 0 -69.5 14.5t-49.5 39.5q-19 28 -28 79t-9 136v206l-67 19v56h194zM222 713
q0 43 28 72t71 29t72 -29t29 -72t-29 -71t-72 -28t-71 28t-28 71zM293 713q0 -12 8 -20t20 -8q13 0 21.5 8t8.5 20q0 13 -8.5 21.5t-21.5 8.5q-12 0 -20 -8.5t-8 -21.5z" />
    <glyph glyph-name="Uhungarumlaut" unicode="&#x170;" horiz-adv-x="784" 
d="M584 274v367l-84 21v58h261v-58l-84 -21v-398q0 -124 -74.5 -189t-218.5 -65q-133 0 -204.5 66.5t-71.5 188.5v397l-84 21v58h298v-58l-84 -21v-365q0 -217 168 -217q94 0 136 51t42 164zM280 760l60 76q22 28 37 41.5t28.5 18t32.5 4.5q24 0 35.5 -12t11.5 -27
q0 -13 -6 -22.5t-22 -20.5t-47 -30l-47 -28h-83zM460 760l60 76q22 28 37 41.5t28.5 18t32.5 4.5q24 0 35.5 -12t11.5 -27q0 -13 -6 -22.5t-22 -20.5t-47 -30l-47 -28h-83z" />
    <glyph glyph-name="uhungarumlaut" unicode="&#x171;" horiz-adv-x="652" 
d="M218 540v-268q0 -64 3 -96t9 -51q8 -24 26.5 -36.5t37.5 -12.5q27 0 49 10t41 27q41 37 45 115v237l-87 19v56h214v-465l77 -19v-56l-185 -10l-11 110h-4q-29 -51 -79 -80.5t-107 -29.5q-38 0 -69.5 14.5t-49.5 39.5q-19 28 -28 79t-9 136v206l-67 19v56h194zM177 639
l49 76q31 47 51.5 64t48.5 17q32 0 44 -12.5t12 -29.5q0 -15 -18 -33.5t-66 -53.5l-38 -28h-83zM372 639l49 76q31 47 51.5 64t48.5 17q32 0 44 -12.5t12 -29.5q0 -15 -18 -33.5t-66 -53.5l-38 -28h-83z" />
    <glyph glyph-name="Uogonek" unicode="&#x172;" horiz-adv-x="784" 
d="M584 274v367l-84 21v58h261v-58l-84 -21v-398q0 -124 -74.5 -189t-218.5 -65q-133 0 -204.5 66.5t-71.5 188.5v397l-84 21v58h298v-58l-84 -21v-365q0 -217 168 -217q94 0 136 51t42 164zM390 -210q-55 0 -83 23.5t-28 61.5q0 75 114 139h71q-15 -9 -34.5 -28t-34 -41.5
t-14.5 -42.5q0 -18 13.5 -28.5t36.5 -10.5q16 0 31.5 4t27.5 14l24 -35q-17 -25 -45 -40.5t-79 -15.5z" />
    <glyph glyph-name="uogonek" unicode="&#x173;" horiz-adv-x="652" 
d="M218 540v-268q0 -64 3 -96t9 -51q8 -24 26.5 -36.5t37.5 -12.5q27 0 49 10t41 27q41 37 45 115v237l-87 19v56h214v-465l77 -19v-56l-185 -10l-11 110h-4q-29 -51 -79 -80.5t-107 -29.5q-38 0 -69.5 14.5t-49.5 39.5q-19 28 -28 79t-9 136v206l-67 19v56h194zM484 -210
q-55 0 -83 23.5t-28 61.5q0 75 114 139h71q-15 -9 -34.5 -28t-34 -41.5t-14.5 -42.5q0 -18 13.5 -28.5t36.5 -10.5q16 0 31.5 4t27.5 14l24 -35q-17 -25 -45 -40.5t-79 -15.5z" />
    <glyph glyph-name="Wcircumflex" unicode="&#x174;" horiz-adv-x="1051" 
d="M737 127l141 515l-79 20v58h259v-58l-83 -21l-185 -641h-134l-131 431l-119 -431h-134l-205 641l-78 21v58h314v-58l-96 -21l142 -513h4l126 468l-9 45l-78 21v58h294v-58l-92 -21l139 -514h4zM710 769l-119 121h-125l-118 -121h83l98 61l98 -61h83z" />
    <glyph glyph-name="wcircumflex" unicode="&#x175;" horiz-adv-x="888" 
d="M193 464l85 -314l10 -59h5l11 59l104 400h102l107 -399l10 -59h4l12 59l81 313l-65 19v56h220v-56l-54 -19l-144 -474h-133l-104 361l-101 -361h-133l-149 474l-53 19v56h254v-56zM610 639l-89 151h-125l-88 -151h83l68 76l68 -76h83z" />
    <glyph glyph-name="Ycircumflex" unicode="&#x176;" horiz-adv-x="682" 
d="M360 363l152 278l-81 21v58h257v-58l-82 -21l-196 -359v-203l94 -21v-58h-318v58l94 21v187l-207 375l-83 21v58h306v-58l-84 -21zM542 770l-119 121h-125l-118 -121h83l98 61l98 -61h83z" />
    <glyph glyph-name="ycircumflex" unicode="&#x177;" horiz-adv-x="600" 
d="M529 465l-161 -441q-33 -77 -60 -124.5t-59.5 -68.5t-84.5 -21q-47 0 -80.5 25t-33.5 63q0 35 20.5 57.5t53.5 22.5q29 0 44.5 -13t15.5 -39q0 -10 -10.5 -27.5t-35.5 -17.5q2 -10 12 -13.5t17 -3.5q14 0 26 5.5t25.5 25.5t29.5 61l12 37l-201 472l-60 19v56h254l8 -56
l-71 -19l123 -347h4l111 347l-58 19v56h220v-56zM469 639l-89 151h-125l-88 -151h83l68 76l68 -76h83z" />
    <glyph glyph-name="Ydieresis" unicode="&#x178;" horiz-adv-x="682" 
d="M360 363l152 278l-81 21v58h257v-58l-82 -21l-196 -359v-203l94 -21v-58h-318v58l94 21v187l-207 375l-83 21v58h306v-58l-84 -21zM171 842q0 36 21 57t56 21t56.5 -21.5t21.5 -56.5t-21 -56t-57 -21t-56.5 20.5t-20.5 56.5zM401 842q0 36 21 57t56 21t56.5 -21.5
t21.5 -56.5t-21 -56t-57 -21t-56.5 20.5t-20.5 56.5z" />
    <glyph glyph-name="Zacute" unicode="&#x179;" horiz-adv-x="659" 
d="M502 75l32 163h87v-238h-593v61l415 584h-270l-32 -152h-82v227h539v-61l-415 -584h319zM293 760l60 76q22 28 37 41.5t28.5 18t32.5 4.5q24 0 35.5 -12t11.5 -27q0 -13 -6 -22.5t-22 -20.5t-47 -30l-47 -28h-83z" />
    <glyph glyph-name="zacute" unicode="&#x17a;" horiz-adv-x="558" 
d="M405 71l20 136h87v-207h-473v71l313 398h-189l-24 -131h-87v202h456v-71l-312 -398h209zM238 639l49 76q31 47 51.5 64t48.5 17q32 0 44 -12.5t12 -29.5q0 -15 -18 -33.5t-66 -53.5l-38 -28h-83z" />
    <glyph glyph-name="Zdotaccent" unicode="&#x17b;" horiz-adv-x="659" 
d="M502 75l32 163h87v-238h-593v61l415 584h-270l-32 -152h-82v227h539v-61l-415 -584h319zM258 837q0 36 21 57t56 21t56.5 -21.5t21.5 -56.5t-21 -56t-57 -21t-56.5 20.5t-20.5 56.5z" />
    <glyph glyph-name="zdotaccent" unicode="&#x17c;" horiz-adv-x="558" 
d="M405 71l20 136h87v-207h-473v71l313 398h-189l-24 -131h-87v202h456v-71l-312 -398h209zM203 686q0 36 21 57t56 21t56.5 -21.5t21.5 -56.5t-21 -56t-57 -21t-56.5 20.5t-20.5 56.5z" />
    <glyph glyph-name="Zcaron" unicode="&#x17d;" horiz-adv-x="659" 
d="M502 75l32 163h87v-238h-593v61l415 584h-270l-32 -152h-82v227h539v-61l-415 -584h319zM397 769l119 121h-83l-98 -61l-98 61h-83l118 -121h125z" />
    <glyph glyph-name="zcaron" unicode="&#x17e;" horiz-adv-x="558" 
d="M405 71l20 136h87v-207h-473v71l313 398h-189l-24 -131h-87v202h456v-71l-312 -398h209zM342 629l89 151h-83l-68 -76l-68 76h-83l88 -151h125z" />
    <glyph glyph-name="uni018F" unicode="&#x18f;" horiz-adv-x="709" 
d="M40 376h480q0 45 -8 92t-25 81q-26 57 -68 84.5t-107 27.5q-62 0 -112.5 -31.5t-83.5 -80.5l-53 47q49 71 108.5 102.5t148.5 31.5q213 0 298 -153q24 -43 35.5 -98t11.5 -117q0 -114 -36 -197.5t-108 -129t-181 -45.5q-153 0 -228.5 84t-75.5 232q0 16 1 30.5t3 39.5z
M349 59q81 0 121 63.5t49 173.5h-339v-36q0 -62 23 -107t61.5 -69.5t84.5 -24.5z" />
    <glyph glyph-name="uni01C4" unicode="&#x1c4;" horiz-adv-x="1438" 
d="M255 75h125q54 0 92 16.5t64 49.5q27 34 41 87t14 126q0 142 -55 217q-27 37 -67.5 55.5t-98.5 18.5h-115v-570zM41 720h366q149 0 232 -84q47 -48 72 -118t25 -150q0 -84 -26.5 -157.5t-73.5 -123.5q-83 -87 -238 -87h-357v58l84 21v562l-84 21v58zM1281 75l32 163h87
v-238h-593v61l415 584h-270l-32 -152h-82v227h539v-61l-415 -584h319zM1176 769l119 121h-83l-98 -61l-98 61h-83l118 -121h125z" />
    <glyph glyph-name="uni01C5" unicode="&#x1c5;" horiz-adv-x="1337" 
d="M255 75h125q54 0 92 16.5t64 49.5q27 34 41 87t14 126q0 142 -55 217q-27 37 -67.5 55.5t-98.5 18.5h-115v-570zM41 720h366q149 0 232 -84q47 -48 72 -118t25 -150q0 -84 -26.5 -157.5t-73.5 -123.5q-83 -87 -238 -87h-357v58l84 21v562l-84 21v58zM1184 71l20 136h87
v-207h-473v71l313 398h-189l-24 -131h-87v202h456v-71l-312 -398h209zM1121 629l89 151h-83l-68 -76l-68 76h-83l88 -151h125z" />
    <glyph glyph-name="uni01C6" unicode="&#x1c6;" horiz-adv-x="1194" 
d="M38 269q0 66 18.5 123.5t49.5 92.5q29 32 69 48.5t90 16.5q47 0 83 -17t65 -61v233l-77 19v56h204v-705l77 -19v-56l-185 -10l-8 82q-31 -46 -70 -64t-91 -18q-55 0 -92.5 16.5t-63.5 46.5q-31 35 -50 91.5t-19 124.5zM413 266q0 58 -10 101t-24 65q-15 24 -37.5 37
t-54.5 13q-24 0 -49 -10t-39 -36q-13 -24 -19.5 -66t-6.5 -92q0 -58 8 -101t20 -66q14 -25 38.5 -39.5t52.5 -14.5q23 0 47 10.5t40 35.5q16 26 25 68.5t9 94.5zM1041 71l20 136h87v-207h-473v71l313 398h-189l-24 -131h-87v202h456v-71l-312 -398h209zM978 629l89 151h-83
l-68 -76l-68 76h-83l88 -151h125z" />
    <glyph glyph-name="uni01C7" unicode="&#x1c7;" horiz-adv-x="1242" 
d="M260 641v-566h242l34 173h85v-248h-585v58l94 21v562l-94 21v58h328v-58zM1000 207v434l-99 21v58h308v-58l-79 -21v-423q0 -69 -29.5 -120.5t-82.5 -80t-124 -28.5t-125.5 23t-85 63.5t-30.5 94.5q0 46 20 75t60 29q35 0 57 -20t22 -53q0 -23 -13 -46.5t-30 -31.5
q5 -26 34 -43.5t82 -17.5q55 0 85 36t30 109z" />
    <glyph glyph-name="uni01C8" unicode="&#x1c8;" horiz-adv-x="938" 
d="M260 641v-566h242l34 173h85v-248h-585v58l94 21v562l-94 21v58h328v-58zM863 540v-455q0 -74 -4.5 -116.5t-17.5 -69.5q-22 -47 -58.5 -68t-90.5 -21q-64 0 -103.5 24.5t-39.5 70.5q0 29 18 50.5t52 21.5q29 0 46.5 -18t17.5 -44q0 -10 -4.5 -21t-13.5 -17
q2 -11 12.5 -13t14.5 -2q22 0 33 28t11 101v474l-77 19v56h204zM728 692q0 32 19.5 52t54.5 20t55 -20t20 -52q0 -31 -19.5 -51t-55.5 -20t-55 19.5t-19 51.5z" />
    <glyph glyph-name="uni01C9" unicode="&#x1c9;" horiz-adv-x="626" 
d="M99 76v628l-77 19v57h204v-704l77 -19v-57h-281v57zM551 540v-455q0 -74 -4.5 -116.5t-17.5 -69.5q-22 -47 -58.5 -68t-90.5 -21q-64 0 -103.5 24.5t-39.5 70.5q0 29 18 50.5t52 21.5q29 0 46.5 -18t17.5 -44q0 -10 -4.5 -21t-13.5 -17q2 -11 12.5 -13t14.5 -2
q22 0 33 28t11 101v474l-77 19v56h204zM416 692q0 32 19.5 52t54.5 20t55 -20t20 -52q0 -31 -19.5 -51t-55.5 -20t-55 19.5t-19 51.5z" />
    <glyph glyph-name="uni01CA" unicode="&#x1ca;" horiz-adv-x="1405" 
d="M125 79v562l-84 21v58h231l334 -528v449l-84 21v58h263v-58l-84 -21v-641h-111l-370 574v-495l84 -21v-58h-263v58zM1163 207v434l-99 21v58h308v-58l-79 -21v-423q0 -69 -29.5 -120.5t-82.5 -80t-124 -28.5t-125.5 23t-85 63.5t-30.5 94.5q0 46 20 75t60 29q35 0 57 -20
t22 -53q0 -23 -13 -46.5t-30 -31.5q5 -26 34 -43.5t82 -17.5q55 0 85 36t30 109z" />
    <glyph glyph-name="uni01CB" unicode="&#x1cb;" horiz-adv-x="1104" 
d="M125 79v562l-84 21v58h231l334 -528v449l-84 21v58h263v-58l-84 -21v-641h-111l-370 574v-495l84 -21v-58h-263v58zM1029 540v-455q0 -74 -4.5 -116.5t-17.5 -69.5q-22 -47 -58.5 -68t-90.5 -21q-64 0 -103.5 24.5t-39.5 70.5q0 29 18 50.5t52 21.5q29 0 46.5 -18
t17.5 -44q0 -10 -4.5 -21t-13.5 -17q2 -11 12.5 -13t14.5 -2q22 0 33 28t11 101v474l-77 19v56h204zM894 692q0 32 19.5 52t54.5 20t55 -20t20 -52q0 -31 -19.5 -51t-55.5 -20t-55 19.5t-19 51.5z" />
    <glyph glyph-name="uni01CC" unicode="&#x1cc;" horiz-adv-x="974" 
d="M108 75v390l-77 19v56h174l22 -100h4q30 51 81 80.5t109 29.5q83 0 123 -54q20 -28 28.5 -78.5t8.5 -136.5v-206l77 -19v-56h-271v56l67 19v193q0 60 -3.5 93.5t-12.5 53.5q-11 26 -30 36t-45 10q-49 0 -83 -32q-41 -38 -45 -117v-237l67 -19v-56h-271v56zM899 540v-455
q0 -74 -4.5 -116.5t-17.5 -69.5q-22 -47 -58.5 -68t-90.5 -21q-64 0 -103.5 24.5t-39.5 70.5q0 29 18 50.5t52 21.5q29 0 46.5 -18t17.5 -44q0 -10 -4.5 -21t-13.5 -17q2 -11 12.5 -13t14.5 -2q22 0 33 28t11 101v474l-77 19v56h204zM764 692q0 32 19.5 52t54.5 20t55 -20
t20 -52q0 -31 -19.5 -51t-55.5 -20t-55 19.5t-19 51.5z" />
    <glyph glyph-name="uni01EA" unicode="&#x1ea;" horiz-adv-x="774" 
d="M731 368q0 -83 -24 -160t-76 -131q-43 -44 -103 -65.5t-144 -21.5t-144 21t-101 63q-43 45 -69.5 117.5t-26.5 160.5q0 87 26.5 163.5t73.5 127.5q42 45 101 66t143 21q80 0 141 -20t106 -64q52 -52 74.5 -125.5t22.5 -152.5zM188 371q0 -78 14.5 -138t39.5 -98
q24 -37 60 -56t88 -19q94 0 142 66q26 35 40 92t14 136t-14.5 137.5t-40.5 95.5q-26 38 -63.5 56t-84.5 18t-81.5 -17.5t-57.5 -48.5q-56 -74 -56 -224zM363 -210q-55 0 -83 23.5t-28 61.5q0 75 114 139h71q-15 -9 -34.5 -28t-34 -41.5t-14.5 -42.5q0 -18 13.5 -28.5
t36.5 -10.5q16 0 31.5 4t27.5 14l24 -35q-17 -25 -45 -40.5t-79 -15.5z" />
    <glyph glyph-name="uni01EB" unicode="&#x1eb;" horiz-adv-x="594" 
d="M557 270q0 -64 -18.5 -120.5t-53.5 -94.5q-33 -35 -79.5 -50t-108.5 -15t-108.5 15t-79.5 50q-35 38 -53.5 94.5t-18.5 120.5t18.5 121t53.5 94q33 35 79.5 50t108.5 15t108.5 -15t79.5 -50q35 -37 53.5 -94t18.5 -121zM206 97q14 -20 36.5 -30t54.5 -10t55 10t36 30
q32 49 32 173q0 63 -8 106t-24 67q-13 20 -36 30t-55 10t-54.5 -10t-36.5 -30q-32 -49 -32 -173t32 -173zM273 -210q-55 0 -83 23.5t-28 61.5q0 75 114 139h71q-15 -9 -34.5 -28t-34 -41.5t-14.5 -42.5q0 -18 13.5 -28.5t36.5 -10.5q16 0 31.5 4t27.5 14l24 -35
q-17 -25 -45 -40.5t-79 -15.5z" />
    <glyph glyph-name="uni01F1" unicode="&#x1f1;" horiz-adv-x="1433" 
d="M255 75h125q54 0 92 16.5t64 49.5q27 34 41 87t14 126q0 142 -55 217q-27 37 -67.5 55.5t-98.5 18.5h-115v-570zM41 720h366q149 0 232 -84q47 -48 72 -118t25 -150q0 -84 -26.5 -157.5t-73.5 -123.5q-83 -87 -238 -87h-357v58l84 21v562l-84 21v58zM1276 75l32 163h87
v-238h-593v61l415 584h-270l-32 -152h-82v227h539v-61l-415 -584h319z" />
    <glyph glyph-name="uni01F2" unicode="&#x1f2;" horiz-adv-x="1337" 
d="M255 75h125q54 0 92 16.5t64 49.5q27 34 41 87t14 126q0 142 -55 217q-27 37 -67.5 55.5t-98.5 18.5h-115v-570zM41 720h366q149 0 232 -84q47 -48 72 -118t25 -150q0 -84 -26.5 -157.5t-73.5 -123.5q-83 -87 -238 -87h-357v58l84 21v562l-84 21v58zM1184 71l20 136h87
v-207h-473v71l313 398h-189l-24 -131h-87v202h456v-71l-312 -398h209z" />
    <glyph glyph-name="uni01F3" unicode="&#x1f3;" horiz-adv-x="1194" 
d="M38 269q0 66 18.5 123.5t49.5 92.5q29 32 69 48.5t90 16.5q47 0 83 -17t65 -61v233l-77 19v56h204v-705l77 -19v-56l-185 -10l-8 82q-31 -46 -70 -64t-91 -18q-55 0 -92.5 16.5t-63.5 46.5q-31 35 -50 91.5t-19 124.5zM413 266q0 58 -10 101t-24 65q-15 24 -37.5 37
t-54.5 13q-24 0 -49 -10t-39 -36q-13 -24 -19.5 -66t-6.5 -92q0 -58 8 -101t20 -66q14 -25 38.5 -39.5t52.5 -14.5q23 0 47 10.5t40 35.5q16 26 25 68.5t9 94.5zM1041 71l20 136h87v-207h-473v71l313 398h-189l-24 -131h-87v202h456v-71l-312 -398h209z" />
    <glyph glyph-name="Aringacute" unicode="&#x1fa;" horiz-adv-x="728" 
d="M271 759q0 37 26 56t66 20h1.5h1.5q22 28 36 42t25.5 18.5t25.5 4.5q19 0 28 -11.5t9 -24.5t-11.5 -23.5t-45.5 -32.5q19 -19 19 -49q0 -35 -26 -55l232 -625l80 -21v-58h-305v58l82 21l-51 155h-244l-52 -155l83 -21v-58h-264v58l82 21l232 622q-13 9 -21.5 23.5
t-8.5 34.5zM343 573l-98 -266h195l-93 266h-4zM331 759q0 -15 7.5 -22.5t22.5 -7.5t23.5 7.5t8.5 22.5t-8.5 23.5t-23.5 8.5t-22.5 -8.5t-7.5 -23.5z" />
    <glyph glyph-name="aringacute" unicode="&#x1fb;" horiz-adv-x="549" 
d="M207 652l38 -33l-31 -29h-53zM325 698l-50 46q24 32 36.5 41.5t28.5 9.5q34 0 34 -31q0 -14 -9.5 -27t-39.5 -39zM30 118q0 83 76 128.5t239 70.5q-4 50 -11 77t-18 46q-13 23 -32 37t-48 14q-21 0 -38.5 -8t-23.5 -22q14 -7 19.5 -22t5.5 -26q0 -25 -22 -44.5t-53 -19.5
t-49 20.5t-18 51.5q0 41 29 70t74 44t91 15q47 0 84.5 -13.5t60.5 -33.5q79 -70 79 -222v-130q0 -49 6.5 -68t28.5 -19h45v-45q-92 -29 -139 -29q-33 0 -44 22t-11 87h-4q-31 -51 -82 -80t-110 -29q-63 0 -99 34t-36 94zM226 63q21 0 46.5 14t44.5 39q11 14 21 40t10 62
q0 12 -1 27t-3 28q-69 -15 -108.5 -32t-56 -40.5t-16.5 -57.5q0 -43 20 -61.5t43 -18.5zM167 681q0 43 28 72t71 29t72 -29t29 -72t-29 -71t-72 -28t-71 28t-28 71zM238 681q0 -12 8 -20t20 -8q13 0 21.5 8t8.5 20q0 13 -8.5 21.5t-21.5 8.5q-12 0 -20 -8.5t-8 -21.5z" />
    <glyph glyph-name="AEacute" unicode="&#x1fc;" horiz-adv-x="1072" 
d="M869 238h-81l-16 94h-138v-257h275l28 148h88v-223h-615v58l94 21v155h-227l-85 -155l71 -21v-58h-277v58l102 21l320 572l-75 11v58h670v-212h-82l-29 139h-258v-240h138l16 95h81v-264zM504 641l-7 1l-179 -335h186v334zM584 760l60 76q22 28 37 41.5t28.5 18t32.5 4.5
q24 0 35.5 -12t11.5 -27q0 -13 -6 -22.5t-22 -20.5t-47 -30l-47 -28h-83z" />
    <glyph glyph-name="aeacute" unicode="&#x1fd;" horiz-adv-x="850" 
d="M31 117q0 78 73 126.5t242 73.5q-4 53 -11 79t-18 44q-15 26 -36.5 38.5t-50.5 12.5q-17 0 -34.5 -10t-22.5 -27q13 -10 20 -24.5t7 -28.5q0 -24 -18.5 -40.5t-51.5 -16.5t-52.5 19.5t-19.5 56.5q0 42 29.5 71t74 44t89.5 15q59 0 103.5 -25.5t58.5 -77.5h5
q20 51 63.5 77t100.5 26q116 0 174.5 -63.5t58.5 -175.5q0 -10 -0.5 -22.5t-2.5 -32.5h-349q0 -37 5 -63.5t15 -49.5q15 -38 44 -54.5t63 -16.5q47 0 86 19.5t70 53.5l60 -43q-27 -32 -59 -57.5t-74.5 -40t-102.5 -14.5q-67 0 -114 27.5t-76 81.5h-7q-31 -51 -80 -80
t-127 -29q-63 0 -99 34t-36 93zM566 481q-46 0 -71.5 -39t-30.5 -122h220v26q0 65 -30.5 100t-87.5 35zM238 63q20 0 42 15t40 40q13 18 21 41.5t8 55.5q0 17 -1 29.5t-3 27.5q-69 -16 -108.5 -32.5t-56 -40t-16.5 -61.5q0 -36 19.5 -55.5t54.5 -19.5zM374 639l49 76
q31 47 51.5 64t48.5 17q32 0 44 -12.5t12 -29.5q0 -15 -18 -33.5t-66 -53.5l-38 -28h-83z" />
    <glyph glyph-name="Oslashacute" unicode="&#x1fe;" horiz-adv-x="771" 
d="M61 -10l526 740h101l-526 -740h-101zM729 368q0 -83 -24 -160t-76 -131q-43 -44 -103 -65.5t-144 -21.5t-144 21t-101 63q-43 45 -69.5 117.5t-26.5 160.5q0 87 26.5 163.5t73.5 127.5q42 45 101 66t143 21q80 0 141 -20t106 -64q52 -52 74.5 -125.5t22.5 -152.5z
M186 371q0 -78 14.5 -138t39.5 -98q24 -37 60 -56t88 -19q94 0 142 66q26 35 40 92t14 136t-14.5 137.5t-40.5 95.5q-26 38 -63.5 56t-84.5 18t-81.5 -17.5t-57.5 -48.5q-56 -74 -56 -224zM341 760l60 76q22 28 37 41.5t28.5 18t32.5 4.5q24 0 35.5 -12t11.5 -27
q0 -13 -6 -22.5t-22 -20.5t-47 -30l-47 -28h-83z" />
    <glyph glyph-name="oslashacute" unicode="&#x1ff;" horiz-adv-x="594" 
d="M87 -60l334 642h94l-334 -642h-94zM557 270q0 -64 -18.5 -120.5t-53.5 -94.5q-33 -35 -79.5 -50t-108.5 -15t-108.5 15t-79.5 50q-35 38 -53.5 94.5t-18.5 120.5t18.5 121t53.5 94q33 35 79.5 50t108.5 15t108.5 -15t79.5 -50q35 -37 53.5 -94t18.5 -121zM206 97
q14 -20 36.5 -30t54.5 -10t55 10t36 30q32 49 32 173q0 63 -8 106t-24 67q-13 20 -36 30t-55 10t-54.5 -10t-36.5 -30q-32 -49 -32 -173t32 -173zM252 639l49 76q31 47 51.5 64t48.5 17q32 0 44 -12.5t12 -29.5q0 -15 -18 -33.5t-66 -53.5l-38 -28h-83z" />
    <glyph glyph-name="uni0218" unicode="&#x218;" horiz-adv-x="613" 
d="M322 -11q-57 0 -96.5 16.5t-70.5 52.5l-11 -58h-86v242h91q6 -100 49 -141.5t114 -41.5q57 0 91 24t34 74q0 41 -22.5 67.5t-63 47t-94.5 42.5q-62 26 -106 53t-67 65t-23 96q0 97 59.5 150t159.5 53q99 0 161 -56l8 45h86v-242h-87q0 94 -35 139t-108 45
q-113 0 -113 -107q0 -35 14 -56t46.5 -39t88.5 -43q84 -38 134 -71t71.5 -69.5t21.5 -85.5q0 -67 -33 -112t-88.5 -67.5t-124.5 -22.5zM338 -44q33 0 52.5 -17.5t19.5 -47.5q0 -39 -23.5 -71t-76.5 -60l-30 32q26 20 38.5 36t13.5 31l-3 2q-3 -5 -17 -5q-19 0 -29 14t-10 31
q0 26 16 40.5t49 14.5z" />
    <glyph glyph-name="uni0219" unicode="&#x219;" horiz-adv-x="516" 
d="M243 51q50 0 85.5 19t35.5 53q0 27 -21.5 45t-54 30t-66.5 22q-41 13 -79 33t-62 53.5t-24 84.5q0 72 52.5 115.5t148.5 43.5q92 0 146.5 -38.5t54.5 -99.5q0 -34 -18.5 -52.5t-50.5 -18.5t-50 15.5t-18 36.5q0 17 10 33t26 23q-13 19 -37 29.5t-59 10.5
q-46 0 -69.5 -19.5t-23.5 -54.5q0 -26 12 -43.5t33.5 -28.5t50.5 -20q40 -12 78.5 -25t69.5 -32t49.5 -46.5t18.5 -66.5q0 -52 -32 -88.5t-86.5 -55.5t-122.5 -19q-95 0 -149 35.5t-54 94.5q0 41 23 64t55 23q24 0 44.5 -13.5t20.5 -38.5q0 -18 -11 -35t-25 -25
q10 -16 33 -30t66 -14zM266 -44q33 0 52.5 -17.5t19.5 -47.5q0 -39 -23.5 -71t-76.5 -60l-30 32q26 20 38.5 36t13.5 31l-3 2q-3 -5 -17 -5q-19 0 -29 14t-10 31q0 26 16 40.5t49 14.5z" />
    <glyph glyph-name="uni021A" unicode="&#x21a;" horiz-adv-x="674" 
d="M24 720h626v-225h-64l-32 150h-152v-563l106 -24v-58h-342v58l106 24v563h-153l-31 -150h-64v225zM345 -44q33 0 52.5 -17.5t19.5 -47.5q0 -39 -23.5 -71t-76.5 -60l-30 32q26 20 38.5 36t13.5 31l-3 2q-3 -5 -17 -5q-19 0 -29 14t-10 31q0 26 16 40.5t49 14.5z" />
    <glyph glyph-name="uni021B" unicode="&#x21b;" horiz-adv-x="365" 
d="M5 475v51l98 14l12 124l114 16v-140h128v-65h-128v-327q0 -34 1 -46.5t4 -20.5q3 -6 11 -9t26 -3h70v-44q-58 -18 -102.5 -26.5t-70.5 -8.5q-45 0 -58 37q-4 12 -6 31t-2 56v361h-97zM194 -44q33 0 52.5 -17.5t19.5 -47.5q0 -39 -23.5 -71t-76.5 -60l-30 32
q26 20 38.5 36t13.5 31l-3 2q-3 -5 -17 -5q-19 0 -29 14t-10 31q0 26 16 40.5t49 14.5z" />
    <glyph glyph-name="uni0237" unicode="&#x237;" horiz-adv-x="300" 
d="M225 540v-455q0 -74 -5 -116.5t-17 -69.5q-19 -43 -55 -66t-89 -23q-34 0 -68 10.5t-57 32.5t-23 56q0 29 17.5 48.5t51.5 19.5q28 0 45.5 -14.5t17.5 -43.5q0 -12 -4 -23t-12 -19q2 -9 11 -12.5t16 -3.5q22 0 31 20.5t11 47.5t2 47v489l-77 19v56h204z" />
    <glyph glyph-name="uni0259" unicode="&#x259;" horiz-adv-x="558" 
d="M39 284h349q0 31 -5.5 55t-14.5 43q-21 46 -57 66t-80 20q-38 0 -77 -19t-65 -52l-46 37q24 32 53 58.5t71 42t103 15.5q80 0 135 -29t85 -87q16 -30 22.5 -68t6.5 -82q0 -140 -63.5 -217t-188.5 -77q-116 0 -173.5 63.5t-57.5 175.5q0 11 0.5 22t2.5 33zM270 59
q59 0 85 41t32 120h-220v-26q0 -64 30 -99.5t73 -35.5z" />
    <glyph glyph-name="apostrophe" unicode="&#x2bc;" horiz-adv-x="175" 
d="M93 800q32 0 49.5 -22t17.5 -53q0 -39 -30.5 -81.5t-76.5 -68.5l-38 41q40 26 55.5 47.5t16.5 28.5l-3 2q-4 -3 -8 -4.5t-14 -1.5q-19 0 -30.5 15.5t-11.5 36.5t18 40.5t55 19.5z" />
    <glyph glyph-name="circumflex" unicode="&#x2c6;" horiz-adv-x="352" 
d="M327 639l-89 151h-125l-88 -151h83l68 76l68 -76h83z" />
    <glyph glyph-name="caron" unicode="&#x2c7;" horiz-adv-x="352" 
d="M238 629l89 151h-83l-68 -76l-68 76h-83l88 -151h125z" />
    <glyph glyph-name="breve" unicode="&#x2d8;" horiz-adv-x="364" 
d="M344 780h-63q0 -43 -27.5 -62.5t-77.5 -19.5q-39 0 -65 19.5t-28 62.5h-63q0 -81 40.5 -131t115.5 -50q72 0 119 48t49 133z" />
    <glyph glyph-name="dotaccent" unicode="&#x2d9;" horiz-adv-x="185" 
d="M15 686q0 36 21 57t56 21t56.5 -21.5t21.5 -56.5t-21 -56t-57 -21t-56.5 20.5t-20.5 56.5z" />
    <glyph glyph-name="ring" unicode="&#x2da;" horiz-adv-x="240" 
d="M20 713q0 43 28 72t71 29t72 -29t29 -72t-29 -71t-72 -28t-71 28t-28 71zM91 713q0 -12 8 -20t20 -8q13 0 21.5 8t8.5 20q0 13 -8.5 21.5t-21.5 8.5q-12 0 -20 -8.5t-8 -21.5z" />
    <glyph glyph-name="ogonek" unicode="&#x2db;" horiz-adv-x="275" 
d="M131 -210q-55 0 -83 23.5t-28 61.5q0 75 114 139h71q-15 -9 -34.5 -28t-34 -41.5t-14.5 -42.5q0 -18 13.5 -28.5t36.5 -10.5q16 0 31.5 4t27.5 14l24 -35q-17 -25 -45 -40.5t-79 -15.5z" />
    <glyph glyph-name="tilde" unicode="&#x2dc;" horiz-adv-x="398" 
d="M0 624q2 73 37 109t90 36q26 0 44.5 -8.5t34.5 -19t32 -19t35 -8.5q30 0 45 13t20 37h60q-21 -151 -127 -151q-25 0 -44 8.5t-35 19.5t-31.5 19.5t-35.5 8.5q-30 0 -45 -12t-20 -33h-60z" />
    <glyph glyph-name="hungarumlaut" unicode="&#x2dd;" horiz-adv-x="425" 
d="M10 639l49 76q31 47 51.5 64t48.5 17q32 0 44 -12.5t12 -29.5q0 -15 -18 -33.5t-66 -53.5l-38 -28h-83zM205 639l49 76q31 47 51.5 64t48.5 17q32 0 44 -12.5t12 -29.5q0 -15 -18 -33.5t-66 -53.5l-38 -28h-83z" />
    <glyph glyph-name="gravecomb" unicode="&#x300;" 
d="M185 715l49 -76h-83l-38 28q-48 35 -66 53.5t-18 33.5q0 17 12 29.5t44 12.5q29 0 49 -17t51 -64z" />
    <glyph glyph-name="acutecomb" unicode="&#x301;" 
d="M25 639l49 76q31 47 51.5 64t48.5 17q32 0 44 -12.5t12 -29.5q0 -15 -18 -33.5t-66 -53.5l-38 -28h-83z" />
    <glyph glyph-name="uni0302" unicode="&#x302;" 
d="M327 639l-89 151h-125l-88 -151h83l68 76l68 -76h83z" />
    <glyph glyph-name="tildecomb" unicode="&#x303;" 
d="M0 624q2 73 37 109t90 36q26 0 44.5 -8.5t34.5 -19t32 -19t35 -8.5q30 0 45 13t20 37h60q-21 -151 -127 -151q-25 0 -44 8.5t-35 19.5t-31.5 19.5t-35.5 8.5q-30 0 -45 -12t-20 -33h-60z" />
    <glyph glyph-name="uni0304" unicode="&#x304;" 
d="M25 635v95h279v-95h-279z" />
    <glyph glyph-name="uni0306" unicode="&#x306;" 
d="M344 780h-63q0 -43 -27.5 -62.5t-77.5 -19.5q-39 0 -65 19.5t-28 62.5h-63q0 -81 40.5 -131t115.5 -50q72 0 119 48t49 133z" />
    <glyph glyph-name="uni0307" unicode="&#x307;" 
d="M15 686q0 36 21 57t56 21t56.5 -21.5t21.5 -56.5t-21 -56t-57 -21t-56.5 20.5t-20.5 56.5z" />
    <glyph glyph-name="uni0308" unicode="&#x308;" 
d="M15 690q0 35 19.5 54.5t53.5 19.5t54 -20t20 -54t-19.5 -53.5t-54.5 -19.5q-34 0 -53.5 19.5t-19.5 53.5zM245 690q0 35 19.5 54.5t53.5 19.5t54 -20t20 -54t-19.5 -53.5t-54.5 -19.5q-34 0 -53.5 19.5t-19.5 53.5z" />
    <glyph glyph-name="uni030A" unicode="&#x30a;" 
d="M20 713q0 43 28 72t71 29t72 -29t29 -72t-29 -71t-72 -28t-71 28t-28 71zM91 713q0 -12 8 -20t20 -8q13 0 21.5 8t8.5 20q0 13 -8.5 21.5t-21.5 8.5q-12 0 -20 -8.5t-8 -21.5z" />
    <glyph glyph-name="uni030B" unicode="&#x30b;" 
d="M10 639l49 76q31 47 51.5 64t48.5 17q32 0 44 -12.5t12 -29.5q0 -15 -18 -33.5t-66 -53.5l-38 -28h-83zM205 639l49 76q31 47 51.5 64t48.5 17q32 0 44 -12.5t12 -29.5q0 -15 -18 -33.5t-66 -53.5l-38 -28h-83z" />
    <glyph glyph-name="uni030C" unicode="&#x30c;" 
d="M238 629l89 151h-83l-68 -76l-68 76h-83l88 -151h125z" />
    <glyph glyph-name="dotbelowcomb" unicode="&#x323;" 
d="M15 -129q0 38 21 59.5t57 21.5t57.5 -22t21.5 -58t-21 -57t-59 -21q-36 0 -56.5 20t-20.5 57z" />
    <glyph glyph-name="commaaccentcomb" unicode="&#x326;" 
d="M100 -44q33 0 52.5 -17.5t19.5 -47.5q0 -39 -23.5 -71t-76.5 -60l-30 32q26 20 38.5 36t13.5 31l-3 2q-3 -5 -17 -5q-19 0 -29 14t-10 31q0 26 16 40.5t49 14.5z" />
    <glyph glyph-name="uni0327" unicode="&#x327;" 
d="M101 -210q-53 0 -91 28l31 42q29 -20 59 -20q20 0 31 7t11 19q0 13 -12.5 20.5t-32.5 7.5q-11 0 -24 -1.5t-22 -4.5l-17 29l77 100h74l-42 -70l1 -3q56 0 78 -19t22 -51q0 -40 -42 -62t-101 -22z" />
    <glyph glyph-name="uni0328" unicode="&#x328;" 
d="M131 -210q-55 0 -83 23.5t-28 61.5q0 75 114 139h71q-15 -9 -34.5 -28t-34 -41.5t-14.5 -42.5q0 -18 13.5 -28.5t36.5 -10.5q16 0 31.5 4t27.5 14l24 -35q-17 -25 -45 -40.5t-79 -15.5z" />
    <glyph glyph-name="uni03BC.1" unicode="&#x3bc;" horiz-adv-x="658" 
d="M94 -179v644l-67 19v56h194v-268q0 -64 3.5 -96.5t12.5 -50.5q23 -49 84 -49q18 0 35 10t32 26q20 21 30.5 47.5t13.5 68.5v237l-87 19v56h214v-465l77 -19v-56l-185 -10l-11 110h-4q-26 -52 -59 -81t-71 -29q-35 0 -59 17.5t-32 51.5h-4l10 -238h-127z" />
    <glyph glyph-name="uni1E0C" unicode="&#x1e0c;" horiz-adv-x="779" 
d="M255 75h125q54 0 92 16.5t64 49.5q27 34 41 87t14 126q0 142 -55 217q-27 37 -67.5 55.5t-98.5 18.5h-115v-570zM41 720h366q149 0 232 -84q47 -48 72 -118t25 -150q0 -84 -26.5 -157.5t-73.5 -123.5q-83 -87 -238 -87h-357v58l84 21v562l-84 21v58zM285 -129
q0 38 21 59.5t57 21.5t57.5 -22t21.5 -58t-21 -57t-59 -21q-36 0 -56.5 20t-20.5 57z" />
    <glyph glyph-name="uni1E0D" unicode="&#x1e0d;" horiz-adv-x="636" 
d="M38 269q0 66 18.5 123.5t49.5 92.5q29 32 69 48.5t90 16.5q47 0 83 -17t65 -61v233l-77 19v56h204v-705l77 -19v-56l-185 -10l-8 82q-31 -46 -70 -64t-91 -18q-55 0 -92.5 16.5t-63.5 46.5q-31 35 -50 91.5t-19 124.5zM413 266q0 58 -10 101t-24 65q-15 24 -37.5 37
t-54.5 13q-24 0 -49 -10t-39 -36q-13 -24 -19.5 -66t-6.5 -92q0 -58 8 -101t20 -66q14 -25 38.5 -39.5t52.5 -14.5q23 0 47 10.5t40 35.5q16 26 25 68.5t9 94.5zM254 -129q0 38 21 59.5t57 21.5t57.5 -22t21.5 -58t-21 -57t-59 -21q-36 0 -56.5 20t-20.5 57z" />
    <glyph glyph-name="uni1E24" unicode="&#x1e24;" horiz-adv-x="819" 
d="M694 641v-562l84 -21v-58h-298v58l84 21v254h-309v-254l84 -21v-58h-298v58l84 21v562l-84 21v58h298v-58l-84 -21v-235h309v235l-84 21v58h298v-58zM335 -129q0 38 21 59.5t57 21.5t57.5 -22t21.5 -58t-21 -57t-59 -21q-36 0 -56.5 20t-20.5 57z" />
    <glyph glyph-name="uni1E25" unicode="&#x1e25;" horiz-adv-x="658" 
d="M442 75v193q0 65 -3.5 96.5t-12.5 50.5q-24 49 -88 49q-28 0 -54 -14t-41 -40q-8 -13 -14 -36.5t-6 -57.5v-241l67 -19v-56h-271v56l77 19v630l-77 19v56h204v-334q26 48 68.5 76t93.5 28q43 0 72.5 -10.5t51.5 -33.5q31 -32 45.5 -85.5t14.5 -139.5v-206l77 -19v-56
h-271v56zM256 -129q0 38 21 59.5t57 21.5t57.5 -22t21.5 -58t-21 -57t-59 -21q-36 0 -56.5 20t-20.5 57z" />
    <glyph glyph-name="uni1E44" unicode="&#x1e44;" horiz-adv-x="817" 
d="M125 79v562l-84 21v58h231l334 -528v449l-84 21v58h263v-58l-84 -21v-641h-111l-370 574v-495l84 -21v-58h-263v58zM331 837q0 36 21 57t56 21t56.5 -21.5t21.5 -56.5t-21 -56t-57 -21t-56.5 20.5t-20.5 56.5z" />
    <glyph glyph-name="uni1E45" unicode="&#x1e45;" horiz-adv-x="674" 
d="M108 75v390l-77 19v56h174l22 -100h4q30 51 81 80.5t109 29.5q83 0 123 -54q20 -28 28.5 -78.5t8.5 -136.5v-206l77 -19v-56h-271v56l67 19v193q0 60 -3.5 93.5t-12.5 53.5q-11 26 -30 36t-45 10q-49 0 -83 -32q-41 -38 -45 -117v-237l67 -19v-56h-271v56zM262 686
q0 36 21 57t56 21t56.5 -21.5t21.5 -56.5t-21 -56t-57 -21t-56.5 20.5t-20.5 56.5z" />
    <glyph glyph-name="uni1E5A" unicode="&#x1e5a;" horiz-adv-x="717" 
d="M566 382q-18 -14 -40.5 -27t-57.5 -21q5 -5 16 -17.5t21 -29.5l124 -210l89 -19v-58h-236v58l-131 257h-96v-236l95 -21v-58h-309v58l84 21v562l-84 21v58h374q48 0 84.5 -9t64.5 -29q36 -25 57 -66.5t21 -83.5t-20.5 -82.5t-55.5 -67.5zM255 388h113q55 0 91 31
q20 17 31.5 45.5t11.5 61.5q0 30 -12 54.5t-32 40.5q-17 14 -39.5 20t-54.5 6h-109v-259zM302 -129q0 38 21 59.5t57 21.5t57.5 -22t21.5 -58t-21 -57t-59 -21q-36 0 -56.5 20t-20.5 57z" />
    <glyph glyph-name="uni1E5B" unicode="&#x1e5b;" horiz-adv-x="474" 
d="M330 467v0v0q-11 0 -25 -13.5t-25.5 -31.5t-16.5 -32q-12 -34 -21 -70t-9 -88v-157l108 -19v-56h-312v56l77 19v405l-77 19v41h174l22 -132h4q23 68 62 105t86 37q39 0 65 -24.5t26 -65.5q0 -30 -18 -54.5t-51 -24.5q-40 0 -57 18.5t-17 40.5q0 7 0.5 10.5t4.5 16.5z
M94 -129q0 38 21 59.5t57 21.5t57.5 -22t21.5 -58t-21 -57t-59 -21q-36 0 -56.5 20t-20.5 57z" />
    <glyph glyph-name="uni1E62" unicode="&#x1e62;" horiz-adv-x="613" 
d="M322 -11q-57 0 -96.5 16.5t-70.5 52.5l-11 -58h-86v242h91q6 -100 49 -141.5t114 -41.5q57 0 91 24t34 74q0 41 -22.5 67.5t-63 47t-94.5 42.5q-62 26 -106 53t-67 65t-23 96q0 97 59.5 150t159.5 53q99 0 161 -56l8 45h86v-242h-87q0 94 -35 139t-108 45
q-113 0 -113 -107q0 -35 14 -56t46.5 -39t88.5 -43q84 -38 134 -71t71.5 -69.5t21.5 -85.5q0 -67 -33 -112t-88.5 -67.5t-124.5 -22.5zM242 -129q0 38 21 59.5t57 21.5t57.5 -22t21.5 -58t-21 -57t-59 -21q-36 0 -56.5 20t-20.5 57z" />
    <glyph glyph-name="uni1E63" unicode="&#x1e63;" horiz-adv-x="516" 
d="M243 51q50 0 85.5 19t35.5 53q0 27 -21.5 45t-54 30t-66.5 22q-41 13 -79 33t-62 53.5t-24 84.5q0 72 52.5 115.5t148.5 43.5q92 0 146.5 -38.5t54.5 -99.5q0 -34 -18.5 -52.5t-50.5 -18.5t-50 15.5t-18 36.5q0 17 10 33t26 23q-13 19 -37 29.5t-59 10.5
q-46 0 -69.5 -19.5t-23.5 -54.5q0 -26 12 -43.5t33.5 -28.5t50.5 -20q40 -12 78.5 -25t69.5 -32t49.5 -46.5t18.5 -66.5q0 -52 -32 -88.5t-86.5 -55.5t-122.5 -19q-95 0 -149 35.5t-54 94.5q0 41 23 64t55 23q24 0 44.5 -13.5t20.5 -38.5q0 -18 -11 -35t-25 -25
q10 -16 33 -30t66 -14zM180 -129q0 38 21 59.5t57 21.5t57.5 -22t21.5 -58t-21 -57t-59 -21q-36 0 -56.5 20t-20.5 57z" />
    <glyph glyph-name="uni1E6C" unicode="&#x1e6c;" horiz-adv-x="674" 
d="M24 720h626v-225h-64l-32 150h-152v-563l106 -24v-58h-342v58l106 24v563h-153l-31 -150h-64v225zM259 -129q0 38 21 59.5t57 21.5t57.5 -22t21.5 -58t-21 -57t-59 -21q-36 0 -56.5 20t-20.5 57z" />
    <glyph glyph-name="uni1E6D" unicode="&#x1e6d;" horiz-adv-x="365" 
d="M5 475v51l98 14l12 124l114 16v-140h128v-65h-128v-327q0 -34 1 -46.5t4 -20.5q3 -6 11 -9t26 -3h70v-44q-58 -18 -102.5 -26.5t-70.5 -8.5q-45 0 -58 37q-4 12 -6 31t-2 56v361h-97zM141 -129q0 38 21 59.5t57 21.5t57.5 -22t21.5 -58t-21 -57t-59 -21q-36 0 -56.5 20
t-20.5 57z" />
    <glyph glyph-name="Wgrave" unicode="&#x1e80;" horiz-adv-x="1051" 
d="M737 127l141 515l-79 20v58h259v-58l-83 -21l-185 -641h-134l-131 431l-119 -431h-134l-205 641l-78 21v58h314v-58l-96 -21l142 -513h4l126 468l-9 45l-78 21v58h294v-58l-92 -21l139 -514h4zM540 836l60 -76h-83l-47 28q-31 19 -47 30t-22 20.5t-6 22.5q0 15 11.5 27
t35.5 12q19 0 33 -4.5t28.5 -18t36.5 -41.5z" />
    <glyph glyph-name="wgrave" unicode="&#x1e81;" horiz-adv-x="888" 
d="M193 464l85 -314l10 -59h5l11 59l104 400h102l107 -399l10 -59h4l12 59l81 313l-65 19v56h220v-56l-54 -19l-144 -474h-133l-104 361l-101 -361h-133l-149 474l-53 19v56h254v-56zM469 715l49 -76h-83l-38 28q-48 35 -66 53.5t-18 33.5q0 17 12 29.5t44 12.5q29 0 49 -17
t51 -64z" />
    <glyph glyph-name="Wacute" unicode="&#x1e82;" horiz-adv-x="1051" 
d="M737 127l141 515l-79 20v58h259v-58l-83 -21l-185 -641h-134l-131 431l-119 -431h-134l-205 641l-78 21v58h314v-58l-96 -21l142 -513h4l126 468l-9 45l-78 21v58h294v-58l-92 -21l139 -514h4zM487 760l60 76q22 28 37 41.5t28.5 18t32.5 4.5q24 0 35.5 -12t11.5 -27
q0 -13 -6 -22.5t-22 -20.5t-47 -30l-47 -28h-83z" />
    <glyph glyph-name="wacute" unicode="&#x1e83;" horiz-adv-x="888" 
d="M193 464l85 -314l10 -59h5l11 59l104 400h102l107 -399l10 -59h4l12 59l81 313l-65 19v56h220v-56l-54 -19l-144 -474h-133l-104 361l-101 -361h-133l-149 474l-53 19v56h254v-56zM417 639l49 76q31 47 51.5 64t48.5 17q32 0 44 -12.5t12 -29.5q0 -15 -18 -33.5
t-66 -53.5l-38 -28h-83z" />
    <glyph glyph-name="Wdieresis" unicode="&#x1e84;" horiz-adv-x="1051" 
d="M737 127l141 515l-79 20v58h259v-58l-83 -21l-185 -641h-134l-131 431l-119 -431h-134l-205 641l-78 21v58h314v-58l-96 -21l142 -513h4l126 468l-9 45l-78 21v58h294v-58l-92 -21l139 -514h4zM339 842q0 36 21 57t56 21t56.5 -21.5t21.5 -56.5t-21 -56t-57 -21
t-56.5 20.5t-20.5 56.5zM569 842q0 36 21 57t56 21t56.5 -21.5t21.5 -56.5t-21 -56t-57 -21t-56.5 20.5t-20.5 56.5z" />
    <glyph glyph-name="wdieresis" unicode="&#x1e85;" horiz-adv-x="888" 
d="M193 464l85 -314l10 -59h5l11 59l104 400h102l107 -399l10 -59h4l12 59l81 313l-65 19v56h220v-56l-54 -19l-144 -474h-133l-104 361l-101 -361h-133l-149 474l-53 19v56h254v-56zM271 690q0 35 19.5 54.5t53.5 19.5t54 -20t20 -54t-19.5 -53.5t-54.5 -19.5
q-34 0 -53.5 19.5t-19.5 53.5zM501 690q0 35 19.5 54.5t53.5 19.5t54 -20t20 -54t-19.5 -53.5t-54.5 -19.5q-34 0 -53.5 19.5t-19.5 53.5z" />
    <glyph glyph-name="uni1E92" unicode="&#x1e92;" horiz-adv-x="659" 
d="M502 75l32 163h87v-238h-593v61l415 584h-270l-32 -152h-82v227h539v-61l-415 -584h319zM250 -129q0 38 21 59.5t57 21.5t57.5 -22t21.5 -58t-21 -57t-59 -21q-36 0 -56.5 20t-20.5 57z" />
    <glyph glyph-name="uni1E93" unicode="&#x1e93;" horiz-adv-x="558" 
d="M405 71l20 136h87v-207h-473v71l313 398h-189l-24 -131h-87v202h456v-71l-312 -398h209zM198 -129q0 38 21 59.5t57 21.5t57.5 -22t21.5 -58t-21 -57t-59 -21q-36 0 -56.5 20t-20.5 57z" />
    <glyph glyph-name="uni1EB8" unicode="&#x1eb8;" horiz-adv-x="698" 
d="M495 238h-81l-17 94h-137v-257h275l28 148h88v-223h-615v58l94 21v562l-94 21v58h593v-212h-82l-29 139h-258v-240h137l17 95h81v-264zM285 -129q0 38 21 59.5t57 21.5t57.5 -22t21.5 -58t-21 -57t-59 -21q-36 0 -56.5 20t-20.5 57z" />
    <glyph glyph-name="uni1EB9" unicode="&#x1eb9;" horiz-adv-x="556" 
d="M518 256h-349q0 -68 20 -113q16 -34 43 -52.5t67 -18.5q44 0 87.5 20t74.5 60l54 -42q-35 -50 -94.5 -85t-146.5 -35q-73 0 -126 29.5t-81 86.5q-15 31 -22 69t-7 82q0 140 64.5 216.5t182.5 76.5q109 0 172.5 -63.5t63.5 -175.5q0 -11 -0.5 -21.5t-2.5 -33.5zM283 481
q-103 0 -113 -161h220v26q0 65 -28.5 100t-78.5 35zM204 -129q0 38 21 59.5t57 21.5t57.5 -22t21.5 -58t-21 -57t-59 -21q-36 0 -56.5 20t-20.5 57z" />
    <glyph glyph-name="uni1EBC" unicode="&#x1ebc;" horiz-adv-x="698" 
d="M495 238h-81l-17 94h-137v-257h275l28 148h88v-223h-615v58l94 21v562l-94 21v58h593v-212h-82l-29 139h-258v-240h137l17 95h81v-264zM155 766q2 73 37 109t90 36q26 0 44.5 -8.5t34.5 -19t32 -19t35 -8.5q30 0 45 13t20 37h60q-21 -151 -127 -151q-25 0 -44 8.5
t-35 19.5t-31.5 19.5t-35.5 8.5q-30 0 -45 -12t-20 -33h-60z" />
    <glyph glyph-name="uni1EBD" unicode="&#x1ebd;" horiz-adv-x="556" 
d="M518 256h-349q0 -68 20 -113q16 -34 43 -52.5t67 -18.5q44 0 87.5 20t74.5 60l54 -42q-35 -50 -94.5 -85t-146.5 -35q-73 0 -126 29.5t-81 86.5q-15 31 -22 69t-7 82q0 140 64.5 216.5t182.5 76.5q109 0 172.5 -63.5t63.5 -175.5q0 -11 -0.5 -21.5t-2.5 -33.5zM283 481
q-103 0 -113 -161h220v26q0 65 -28.5 100t-78.5 35zM77 624q2 73 37 109t90 36q26 0 44.5 -8.5t34.5 -19t32 -19t35 -8.5q30 0 45 13t20 37h60q-21 -151 -127 -151q-25 0 -44 8.5t-35 19.5t-31.5 19.5t-35.5 8.5q-30 0 -45 -12t-20 -33h-60z" />
    <glyph glyph-name="uni1ECA" unicode="&#x1eca;" horiz-adv-x="390" 
d="M260 641v-562l94 -21v-58h-318v58l94 21v562l-94 21v58h318v-58zM120 -129q0 38 21 59.5t57 21.5t57.5 -22t21.5 -58t-21 -57t-59 -21q-36 0 -56.5 20t-20.5 57z" />
    <glyph glyph-name="uni1ECB" unicode="&#x1ecb;" horiz-adv-x="331" 
d="M108 465l-77 19v56h204v-465l77 -19v-56h-281v56l77 19v390zM97 692q0 32 19.5 52t54.5 20t55 -20t20 -52q0 -31 -19.5 -51t-55.5 -20t-55 19.5t-19 51.5zM94 -129q0 38 21 59.5t57 21.5t57.5 -22t21.5 -58t-21 -57t-59 -21q-36 0 -56.5 20t-20.5 57z" />
    <glyph glyph-name="uni1ECC" unicode="&#x1ecc;" horiz-adv-x="774" 
d="M731 368q0 -83 -24 -160t-76 -131q-43 -44 -103 -65.5t-144 -21.5t-144 21t-101 63q-43 45 -69.5 117.5t-26.5 160.5q0 87 26.5 163.5t73.5 127.5q42 45 101 66t143 21q80 0 141 -20t106 -64q52 -52 74.5 -125.5t22.5 -152.5zM188 371q0 -78 14.5 -138t39.5 -98
q24 -37 60 -56t88 -19q94 0 142 66q26 35 40 92t14 136t-14.5 137.5t-40.5 95.5q-26 38 -63.5 56t-84.5 18t-81.5 -17.5t-57.5 -48.5q-56 -74 -56 -224zM304 -129q0 38 21 59.5t57 21.5t57.5 -22t21.5 -58t-21 -57t-59 -21q-36 0 -56.5 20t-20.5 57z" />
    <glyph glyph-name="uni1ECD" unicode="&#x1ecd;" horiz-adv-x="594" 
d="M557 270q0 -64 -18.5 -120.5t-53.5 -94.5q-33 -35 -79.5 -50t-108.5 -15t-108.5 15t-79.5 50q-35 38 -53.5 94.5t-18.5 120.5t18.5 121t53.5 94q33 35 79.5 50t108.5 15t108.5 -15t79.5 -50q35 -37 53.5 -94t18.5 -121zM206 97q14 -20 36.5 -30t54.5 -10t55 10t36 30
q32 49 32 173q0 63 -8 106t-24 67q-13 20 -36 30t-55 10t-54.5 -10t-36.5 -30q-32 -49 -32 -173t32 -173zM219 -129q0 38 21 59.5t57 21.5t57.5 -22t21.5 -58t-21 -57t-59 -21q-36 0 -56.5 20t-20.5 57z" />
    <glyph glyph-name="uni1EE4" unicode="&#x1ee4;" horiz-adv-x="784" 
d="M584 274v367l-84 21v58h261v-58l-84 -21v-398q0 -124 -74.5 -189t-218.5 -65q-133 0 -204.5 66.5t-71.5 188.5v397l-84 21v58h298v-58l-84 -21v-365q0 -217 168 -217q94 0 136 51t42 164zM318 -129q0 38 21 59.5t57 21.5t57.5 -22t21.5 -58t-21 -57t-59 -21
q-36 0 -56.5 20t-20.5 57z" />
    <glyph glyph-name="uni1EE5" unicode="&#x1ee5;" horiz-adv-x="652" 
d="M218 540v-268q0 -64 3 -96t9 -51q8 -24 26.5 -36.5t37.5 -12.5q27 0 49 10t41 27q41 37 45 115v237l-87 19v56h214v-465l77 -19v-56l-185 -10l-11 110h-4q-29 -51 -79 -80.5t-107 -29.5q-38 0 -69.5 14.5t-49.5 39.5q-19 28 -28 79t-9 136v206l-67 19v56h194zM260 -129
q0 38 21 59.5t57 21.5t57.5 -22t21.5 -58t-21 -57t-59 -21q-36 0 -56.5 20t-20.5 57z" />
    <glyph glyph-name="Ygrave" unicode="&#x1ef2;" horiz-adv-x="682" 
d="M360 363l152 278l-81 21v58h257v-58l-82 -21l-196 -359v-203l94 -21v-58h-318v58l94 21v187l-207 375l-83 21v58h306v-58l-84 -21zM376 836l60 -76h-83l-47 28q-31 19 -47 30t-22 20.5t-6 22.5q0 15 11.5 27t35.5 12q19 0 33 -4.5t28.5 -18t36.5 -41.5z" />
    <glyph glyph-name="ygrave" unicode="&#x1ef3;" horiz-adv-x="600" 
d="M529 465l-161 -441q-33 -77 -60 -124.5t-59.5 -68.5t-84.5 -21q-47 0 -80.5 25t-33.5 63q0 35 20.5 57.5t53.5 22.5q29 0 44.5 -13t15.5 -39q0 -10 -10.5 -27.5t-35.5 -17.5q2 -10 12 -13.5t17 -3.5q14 0 26 5.5t25.5 25.5t29.5 61l12 37l-201 472l-60 19v56h254l8 -56
l-71 -19l123 -347h4l111 347l-58 19v56h220v-56zM334 715l49 -76h-83l-38 28q-48 35 -66 53.5t-18 33.5q0 17 12 29.5t44 12.5q29 0 49 -17t51 -64z" />
    <glyph glyph-name="uni1EF8" unicode="&#x1ef8;" horiz-adv-x="682" 
d="M360 363l152 278l-81 21v58h257v-58l-82 -21l-196 -359v-203l94 -21v-58h-318v58l94 21v187l-207 375l-83 21v58h306v-58l-84 -21zM162 766q2 73 37 109t90 36q26 0 44.5 -8.5t34.5 -19t32 -19t35 -8.5q30 0 45 13t20 37h60q-21 -151 -127 -151q-25 0 -44 8.5t-35 19.5
t-31.5 19.5t-35.5 8.5q-30 0 -45 -12t-20 -33h-60z" />
    <glyph glyph-name="uni1EF9" unicode="&#x1ef9;" horiz-adv-x="600" 
d="M529 465l-161 -441q-33 -77 -60 -124.5t-59.5 -68.5t-84.5 -21q-47 0 -80.5 25t-33.5 63q0 35 20.5 57.5t53.5 22.5q29 0 44.5 -13t15.5 -39q0 -10 -10.5 -27.5t-35.5 -17.5q2 -10 12 -13.5t17 -3.5q14 0 26 5.5t25.5 25.5t29.5 61l12 37l-201 472l-60 19v56h254l8 -56
l-71 -19l123 -347h4l111 347l-58 19v56h220v-56zM119 624q2 73 37 109t90 36q26 0 44.5 -8.5t34.5 -19t32 -19t35 -8.5q30 0 45 13t20 37h60q-21 -151 -127 -151q-25 0 -44 8.5t-35 19.5t-31.5 19.5t-35.5 8.5q-30 0 -45 -12t-20 -33h-60z" />
    <glyph glyph-name="endash" unicode="&#x2013;" horiz-adv-x="616" 
d="M61 234v88h494v-88h-494z" />
    <glyph glyph-name="emdash" unicode="&#x2014;" horiz-adv-x="924" 
d="M61 234v88h801v-88h-801z" />
    <glyph glyph-name="quoteleft" unicode="&#x2018;" horiz-adv-x="249" 
d="M121 469q-38 0 -61 26.5t-23 71.5q0 54 35 103t106 90l31 -36q-36 -30 -61.5 -56.5t-27.5 -47.5l4 -3q7 6 22 6q23 0 39 -20t16 -54q0 -35 -22 -57.5t-58 -22.5z" />
    <glyph glyph-name="quoteright" unicode="&#x2019;" horiz-adv-x="250" 
d="M133 760q38 0 61 -26.5t23 -71.5q0 -54 -35 -103t-106 -90l-31 36q36 30 61.5 56.5t27.5 47.5l-4 3q-7 -6 -22 -6q-23 0 -39 20t-16 54q0 35 22 57.5t58 22.5z" />
    <glyph glyph-name="quotesinglbase" unicode="&#x201a;" horiz-adv-x="254" 
d="M125 133q38 0 61 -26.5t23 -71.5q0 -54 -35 -103t-106 -90l-31 36q36 30 61.5 56.5t27.5 47.5l-4 3q-7 -6 -22 -6q-23 0 -39 20t-16 54q0 35 22 57.5t58 22.5z" />
    <glyph glyph-name="quotedblleft" unicode="&#x201c;" horiz-adv-x="449" 
d="M121 469q-38 0 -61 26.5t-23 71.5q0 54 35 103t106 90l31 -36q-36 -30 -61.5 -56.5t-27.5 -47.5l4 -3q7 6 22 6q23 0 39 -20t16 -54q0 -35 -22 -57.5t-58 -22.5zM321 469q-38 0 -61 26.5t-23 71.5q0 54 35 103t106 90l31 -36q-36 -30 -61.5 -56.5t-27.5 -47.5l4 -3
q7 6 22 6q23 0 39 -20t16 -54q0 -35 -22 -57.5t-58 -22.5z" />
    <glyph glyph-name="quotedblright" unicode="&#x201d;" horiz-adv-x="449" 
d="M133 760q38 0 61 -26.5t23 -71.5q0 -54 -35 -103t-106 -90l-31 36q36 30 61.5 56.5t27.5 47.5l-4 3q-7 -6 -22 -6q-23 0 -39 20t-16 54q0 35 22 57.5t58 22.5zM333 760q38 0 61 -26.5t23 -71.5q0 -54 -35 -103t-106 -90l-31 36q36 30 61.5 56.5t27.5 47.5l-4 3
q-7 -6 -22 -6q-23 0 -39 20t-16 54q0 35 22 57.5t58 22.5z" />
    <glyph glyph-name="quotedblbase" unicode="&#x201e;" horiz-adv-x="454" 
d="M125 120q38 0 61 -26.5t23 -71.5q0 -54 -35 -103t-106 -90l-31 36q36 30 61.5 56.5t27.5 47.5l-4 3q-7 -6 -22 -6q-23 0 -39 20t-16 54q0 35 22 57.5t58 22.5zM325 120q38 0 61 -26.5t23 -71.5q0 -54 -35 -103t-106 -90l-31 36q36 30 61.5 56.5t27.5 47.5l-4 3
q-7 -6 -22 -6q-23 0 -39 20t-16 54q0 35 22 57.5t58 22.5z" />
    <glyph glyph-name="dagger" unicode="&#x2020;" horiz-adv-x="460" 
d="M197 505l-5 5q-14 0 -36 -4t-43.5 -8.5t-37.5 -4.5q-22 0 -34.5 12.5t-12.5 37.5q0 26 13 38t34 12q16 0 37.5 -4t43.5 -8.5t36 -4.5l5 5q0 14 -3.5 37t-7.5 47.5t-7.5 45.5t-3.5 32q0 21 14 34t41 13q28 0 41.5 -12.5t13.5 -34.5q0 -11 -3.5 -32t-7.5 -45.5t-7.5 -47.5
t-3.5 -37l5 -5q14 0 35.5 4.5t44 8.5t37.5 4q21 0 34 -12t13 -38q0 -25 -12.5 -37.5t-34.5 -12.5q-15 0 -37.5 4.5t-44 8.5t-35.5 4l-5 -5v-222q0 -128 11 -201t11 -105q0 -22 -13.5 -34.5t-41.5 -12.5q-27 0 -41 13t-14 34q0 32 11 105t11 201v222z" />
    <glyph glyph-name="daggerdbl" unicode="&#x2021;" horiz-adv-x="474" 
d="M270 371q0 -39 1 -78t4 -78l5 -5q14 0 34 4.5t41.5 8.5t36.5 4q22 0 34.5 -12.5t12.5 -37.5t-13 -37.5t-34 -12.5q-15 0 -37.5 4.5t-44 8.5t-35.5 4l-5 -5q0 -14 3.5 -37t7.5 -47.5t7.5 -45.5t3.5 -32q0 -22 -13.5 -34.5t-41.5 -12.5q-27 0 -41 13t-14 34q0 11 3.5 32
t7.5 45.5t7.5 47.5t3.5 37l-5 5q-14 0 -36 -4t-43.5 -8.5t-37.5 -4.5q-21 0 -34 12.5t-13 37.5t12.5 37.5t34.5 12.5q16 0 36.5 -4t41 -8.5t34.5 -4.5l5 5q3 39 4 78t1 78q0 34 -1 67t-4 67l-5 5q-14 0 -34.5 -4t-41 -8.5t-36.5 -4.5q-22 0 -34.5 12.5t-12.5 37.5
q0 26 13 38t34 12q16 0 37.5 -4t43.5 -8.5t36 -4.5l5 5q0 14 -3.5 37t-7.5 47.5t-7.5 45.5t-3.5 32q0 21 14 34t41 13q28 0 41.5 -12.5t13.5 -34.5q0 -11 -3.5 -32t-7.5 -45.5t-7.5 -47.5t-3.5 -37l5 -5q14 0 35.5 4.5t44 8.5t37.5 4q21 0 34 -12t13 -38q0 -25 -12.5 -37.5
t-34.5 -12.5q-15 0 -36.5 4.5t-41.5 8.5t-34 4l-5 -5q-3 -34 -4 -67t-1 -67z" />
    <glyph glyph-name="bullet" unicode="&#x2022;" horiz-adv-x="406" 
d="M70 343q0 63 36 99.5t97 36.5q62 0 98 -37t36 -99q0 -61 -36 -96.5t-98 -35.5q-64 0 -98.5 34t-34.5 98z" />
    <glyph glyph-name="ellipsis" unicode="&#x2026;" horiz-adv-x="724" 
d="M45 52q0 38 21 59.5t57 21.5t57.5 -22t21.5 -58t-21 -57t-59 -21q-36 0 -56.5 20t-20.5 57zM288 52q0 38 21 59.5t57 21.5t57.5 -22t21.5 -58t-21 -57t-59 -21q-36 0 -56.5 20t-20.5 57zM522 52q0 38 21 59.5t57 21.5t57.5 -22t21.5 -58t-21 -57t-59 -21q-36 0 -56.5 20
t-20.5 57z" />
    <glyph glyph-name="perthousand" unicode="&#x2030;" horiz-adv-x="1012" 
d="M116 -10l386 740h84l-386 -740h-84zM32 560q0 90 36 131q17 20 43.5 29t62.5 9q69 0 104 -38q36 -39 36 -128q0 -42 -7.5 -75t-27.5 -54q-35 -38 -109 -38q-27 0 -55 7.5t-48 30.5q-35 40 -35 126zM226 562q0 61 -13 92q-4 11 -14 19.5t-25 8.5q-11 0 -21.5 -6t-18.5 -21
q-9 -19 -11.5 -45.5t-2.5 -46.5q0 -25 3 -49.5t11 -42.5q6 -13 15 -20t24 -7q13 0 22.5 6t16.5 21q6 14 10 37t4 54zM386 154q0 90 36 131q17 20 43.5 29t62.5 9q69 0 104 -38q36 -39 36 -128q0 -42 -7.5 -75t-27.5 -54q-35 -38 -109 -38q-27 0 -55 7.5t-48 30.5
q-35 40 -35 126zM580 156q0 61 -13 92q-4 11 -14 19.5t-25 8.5q-11 0 -21.5 -6t-18.5 -21q-9 -19 -11.5 -45.5t-2.5 -46.5q0 -25 3 -49.5t11 -42.5q6 -13 15 -20t24 -7q13 0 22.5 6t16.5 21q6 14 10 37t4 54zM699 154q0 90 36 131q17 20 43.5 29t62.5 9q69 0 104 -38
q36 -39 36 -128q0 -42 -7.5 -75t-27.5 -54q-35 -38 -109 -38q-27 0 -55 7.5t-48 30.5q-35 40 -35 126zM893 156q0 61 -13 92q-4 11 -14 19.5t-25 8.5q-11 0 -21.5 -6t-18.5 -21q-9 -19 -11.5 -45.5t-2.5 -46.5q0 -25 3 -49.5t11 -42.5q6 -13 15 -20t24 -7q13 0 22.5 6
t16.5 21q6 14 10 37t4 54z" />
    <glyph glyph-name="guilsinglleft" unicode="&#x2039;" horiz-adv-x="338" 
d="M162 255l133 -201l-47 -47l-216 223v47l214 217l48 -36z" />
    <glyph glyph-name="guilsinglright" unicode="&#x203a;" horiz-adv-x="338" 
d="M43 54l133 201l-132 203l48 36l214 -217v-47l-216 -223z" />
    <glyph glyph-name="fraction" unicode="&#x2044;" horiz-adv-x="40" 
d="M-215 -10l386 740h84l-386 -740h-84z" />
    <glyph glyph-name="uni2070" unicode="&#x2070;" horiz-adv-x="390" 
d="M54 560q0 90 36 131q17 20 43.5 29t62.5 9q69 0 104 -38q36 -39 36 -128q0 -42 -7.5 -75t-27.5 -54q-35 -38 -109 -38q-27 0 -55 7.5t-48 30.5q-35 40 -35 126zM248 562q0 61 -13 92q-4 11 -14 19.5t-25 8.5q-11 0 -21.5 -6t-18.5 -21q-9 -19 -11.5 -45.5t-2.5 -46.5
q0 -25 3 -49.5t11 -42.5q6 -13 15 -20t24 -7q13 0 22.5 6t16.5 21q6 14 10 37t4 54z" />
    <glyph glyph-name="uni2074" unicode="&#x2074;" horiz-adv-x="341" 
d="M169 441v28h-129l-7 46l136 205h82v-203h49l-8 -48h-41v-28l35 -9v-40h-160v40zM169 629l-68 -112h68v112z" />
    <glyph glyph-name="uni2075" unicode="&#x2075;" horiz-adv-x="341" 
d="M254 656l25 78h-52l-8 -14h-130l-24 -158l50 -18q8 11 23 14t23 3q26 0 36 -21t10 -44q0 -40 -16 -52.5t-33 -12.5q-16 0 -27 7.5t-14 14.5q11 0 18.5 8t7.5 20q0 11 -9 22t-29 11q-28 0 -39.5 -15t-11.5 -33q0 -40 35 -57t79 -17q62 0 93.5 29.5t31.5 77.5
q0 47 -28 74.5t-75 27.5q-37 0 -63 -22l11 77h116z" />
    <glyph glyph-name="uni2076" unicode="&#x2076;" horiz-adv-x="365" 
d="M133 559h4q25 36 75 36q44 0 71.5 -27.5t27.5 -71.5q0 -46 -30 -72.5t-86 -26.5q-71 0 -107 38.5t-36 118.5q0 86 35.5 131t108.5 45q50 0 74 -22t24 -49q0 -23 -10 -35t-36 -12q-16 0 -27.5 9t-11.5 22q0 11 6 19.5t16 9.5q-2 9 -12.5 13t-20.5 4q-30 0 -48 -23t-18 -86
q0 -15 1 -21zM224 496q0 34 -11.5 46.5t-28.5 12.5q-18 0 -29.5 -12.5t-11.5 -46.5t12.5 -46.5t26.5 -12.5q17 0 29.5 12.5t12.5 46.5z" />
    <glyph glyph-name="uni2077" unicode="&#x2077;" horiz-adv-x="315" 
d="M178 438q0 -15 -10 -30.5t-36 -15.5q-14 0 -26 8.5t-12 35.5q0 21 13 60.5t35 83t49 74.5h-92l-8 -44h-47v110h236v-42q-25 -23 -48.5 -64t-38.5 -87.5t-15 -88.5z" />
    <glyph glyph-name="uni2078" unicode="&#x2078;" horiz-adv-x="348" 
d="M284 658q0 -53 -53 -82q36 -19 52 -39.5t16 -47.5q0 -41 -33 -66.5t-99 -25.5q-54 0 -85 22t-31 62q0 55 65 90q-27 18 -38.5 35.5t-11.5 41.5q0 38 28 60t84 22q57 0 81.5 -20t24.5 -52zM152 549q-15 -11 -23 -26t-8 -37q0 -17 9.5 -32t35.5 -15q14 0 32.5 7.5
t18.5 29.5t-17.5 38.5t-47.5 34.5zM193 598q10 9 18 21.5t8 33.5q0 23 -11.5 32.5t-27.5 9.5q-18 0 -28 -10.5t-10 -26.5q0 -10 6.5 -26.5t44.5 -33.5z" />
    <glyph glyph-name="uni2079" unicode="&#x2079;" horiz-adv-x="364" 
d="M230 568h-4q-25 -36 -75 -36q-43 0 -71 28t-28 71q0 46 35 72.5t90 26.5q71 0 102.5 -38.5t31.5 -118.5q0 -86 -35 -131t-109 -45q-49 0 -73.5 22t-24.5 49q0 23 10.5 35t35.5 12q16 0 27.5 -9t11.5 -22q0 -11 -5.5 -19.5t-16.5 -9.5q2 -9 12.5 -13t20.5 -4q30 0 48 23
t18 86q0 15 -1 21zM139 631q0 -34 11.5 -46.5t28.5 -12.5q18 0 29.5 12.5t11.5 46.5q0 35 -12.5 47t-26.5 12q-17 0 -29.5 -12t-12.5 -47z" />
    <glyph glyph-name="uni2080" unicode="&#x2080;" horiz-adv-x="391" 
d="M54 154q0 90 36 131q17 20 43.5 29t62.5 9q69 0 104 -38q36 -39 36 -128q0 -42 -7.5 -75t-27.5 -54q-35 -38 -109 -38q-27 0 -55 7.5t-48 30.5q-35 40 -35 126zM248 156q0 61 -13 92q-4 11 -14 19.5t-25 8.5q-11 0 -21.5 -6t-18.5 -21q-9 -19 -11.5 -45.5t-2.5 -46.5
q0 -25 3 -49.5t11 -42.5q6 -13 15 -20t24 -7q13 0 22.5 6t16.5 21q6 14 10 37t4 54z" />
    <glyph glyph-name="uni2081" unicode="&#x2081;" horiz-adv-x="332" 
d="M131 50v212h-60v46q16 0 41 5t32 15h69v-278l48 -9v-41h-190v41z" />
    <glyph glyph-name="uni2082" unicode="&#x2082;" horiz-adv-x="348" 
d="M130 63h99l10 47h56v-110h-247v30q0 28 16 50.5t40 42.5t48 39.5t40 41.5t16 49q0 21 -18 27.5t-29 6.5q-5 0 -16 -1.5t-20.5 -7t-11.5 -17.5q14 0 21 -9t7 -23t-9.5 -23.5t-31.5 -9.5q-26 0 -36.5 14t-10.5 33q0 39 29.5 62.5t86.5 23.5q61 0 91.5 -23.5t30.5 -63.5
q0 -30 -16.5 -53t-40 -40.5t-47.5 -32t-40.5 -27.5t-16.5 -26z" />
    <glyph glyph-name="uni2083" unicode="&#x2083;" horiz-adv-x="344" 
d="M288 239q0 -30 -18.5 -49.5t-49.5 -24.5v-4q73 -14 73 -77q0 -42 -39 -68t-103 -26q-46 0 -74.5 23t-28.5 61q0 21 11 33.5t30 12.5q26 0 35.5 -10.5t9.5 -24.5q0 -11 -5.5 -19t-16.5 -8q2 -17 15 -21t26 -4q22 0 37.5 11.5t15.5 35.5q0 29 -20.5 45t-56.5 16v40
q34 0 55 15.5t21 45.5q0 20 -14 30.5t-37 10.5q-13 0 -25.5 -5t-14.5 -18q10 0 19 -7t9 -20t-10.5 -25.5t-36.5 -12.5q-21 0 -32 15.5t-11 34.5q0 35 29.5 56.5t82.5 21.5q59 0 91.5 -23t32.5 -61z" />
    <glyph glyph-name="uni2084" unicode="&#x2084;" horiz-adv-x="341" 
d="M169 49v28h-129l-7 46l136 205h82v-203h49l-8 -48h-41v-28l35 -9v-40h-160v40zM169 237l-68 -112h68v112z" />
    <glyph glyph-name="uni2085" unicode="&#x2085;" horiz-adv-x="341" 
d="M254 254l25 78h-52l-8 -14h-130l-24 -158l50 -18q8 11 23 14t23 3q26 0 36 -21t10 -44q0 -40 -16 -52.5t-33 -12.5q-16 0 -27 7.5t-14 14.5q11 0 18.5 8t7.5 20q0 11 -9 22t-29 11q-28 0 -39.5 -15t-11.5 -33q0 -40 35 -57t79 -17q62 0 93.5 29.5t31.5 77.5
q0 47 -28 74.5t-75 27.5q-37 0 -63 -22l11 77h116z" />
    <glyph glyph-name="uni2086" unicode="&#x2086;" horiz-adv-x="365" 
d="M133 152h4q25 36 75 36q44 0 71.5 -27.5t27.5 -71.5q0 -46 -30 -72.5t-86 -26.5q-71 0 -107 38.5t-36 118.5q0 86 35.5 131t108.5 45q50 0 74 -22t24 -49q0 -23 -10 -35t-36 -12q-16 0 -27.5 9t-11.5 22q0 11 6 19.5t16 9.5q-2 9 -12.5 13t-20.5 4q-30 0 -48 -23t-18 -86
q0 -15 1 -21zM224 89q0 34 -11.5 46.5t-28.5 12.5q-18 0 -29.5 -12.5t-11.5 -46.5t12.5 -46.5t26.5 -12.5q17 0 29.5 12.5t12.5 46.5z" />
    <glyph glyph-name="uni2087" unicode="&#x2087;" horiz-adv-x="316" 
d="M179 36q0 -15 -10 -30.5t-36 -15.5q-14 0 -26 8.5t-12 35.5q0 21 13 60.5t35 83t49 74.5h-92l-8 -44h-47v110h236v-42q-25 -23 -48.5 -64t-38.5 -87.5t-15 -88.5z" />
    <glyph glyph-name="uni2088" unicode="&#x2088;" horiz-adv-x="346" 
d="M283 251q0 -53 -53 -82q36 -19 52 -39.5t16 -47.5q0 -41 -33 -66.5t-99 -25.5q-54 0 -85 22t-31 62q0 55 65 90q-27 18 -38.5 35.5t-11.5 41.5q0 38 28 60t84 22q57 0 81.5 -20t24.5 -52zM151 142q-15 -11 -23 -26t-8 -37q0 -17 9.5 -32t35.5 -15q14 0 32.5 7.5
t18.5 29.5t-17.5 38.5t-47.5 34.5zM192 191q10 9 18 21.5t8 33.5q0 23 -11.5 32.5t-27.5 9.5q-18 0 -28 -10.5t-10 -26.5q0 -10 6.5 -26.5t44.5 -33.5z" />
    <glyph glyph-name="uni2089" unicode="&#x2089;" horiz-adv-x="364" 
d="M230 161h-4q-25 -36 -75 -36q-43 0 -71 28t-28 71q0 46 35 72.5t90 26.5q71 0 102.5 -38.5t31.5 -118.5q0 -86 -35 -131t-109 -45q-49 0 -73.5 22t-24.5 49q0 23 10.5 35t35.5 12q16 0 27.5 -9t11.5 -22q0 -11 -5.5 -19.5t-16.5 -9.5q2 -9 12.5 -13t20.5 -4q30 0 48 23
t18 86q0 15 -1 21zM139 224q0 -34 11.5 -46.5t28.5 -12.5q18 0 29.5 12.5t11.5 46.5q0 35 -12.5 47t-26.5 12q-17 0 -29.5 -12t-12.5 -47z" />
    <glyph glyph-name="Euro" unicode="&#x20ac;" horiz-adv-x="739" 
d="M34 388v75h107q21 131 95.5 199t202.5 68q78 0 136 -24t90 -64.5t32 -91.5q0 -38 -22 -57.5t-60 -19.5q-25 0 -45 17.5t-20 42.5q0 40 36 58q-20 32 -55 50.5t-83 18.5q-72 0 -115.5 -49t-54.5 -148h194v-75h-199q-1 -7 -1 -15v-16v-17.5t1 -16.5h199v-76h-193
q12 -97 49 -143t102 -46q75 0 121.5 38.5t56.5 108.5h85q-22 -109 -90.5 -162t-186.5 -53q-238 0 -276 257h-106v76h100q-1 7 -1 14v14v19t1 18h-100z" />
    <glyph glyph-name="uni2120" unicode="&#x2120;" horiz-adv-x="785" 
d="M178 406q-45 0 -70 31l-5 -26h-40v117h42q2 -41 21.5 -59t48.5 -18q20 0 36.5 8t16.5 30q0 16 -16.5 33.5t-59.5 33.5q-51 20 -69.5 39.5t-18.5 53.5q0 42 26.5 66.5t72.5 24.5q44 0 72 -25l4 20h40v-117h-41q0 42 -14 60t-50 18q-19 0 -31.5 -8.5t-12.5 -28.5
q0 -22 12.5 -31t52.5 -26q57 -24 78 -48.5t21 -59.5q0 -40 -31.5 -64t-84.5 -24zM520 472l81 263h126v-34l-33 -10v-236l33 -10v-34h-131v34l32 10v231l-77 -275h-68l-74 275v-231l28 -10v-34h-115v34l38 10v236l-38 10v34h127l67 -263h4z" />
    <glyph glyph-name="trademark" unicode="&#x2122;" horiz-adv-x="850" 
d="M64 730h284v-110h-39l-14 63h-54v-232l43 -11v-34h-156v34l44 11v232h-55l-14 -63h-39v110zM582 467l81 263h126v-34l-33 -10v-236l33 -10v-34h-131v34l32 10v231l-77 -275h-68l-74 275v-231l28 -10v-34h-115v34l38 10v236l-38 10v34h127l67 -263h4z" />
    <glyph glyph-name="uni2153" unicode="&#x2153;" horiz-adv-x="654" 
d="M85 -10l386 740h84l-386 -740h-84zM101 442v212h-60v46q16 0 41 5t32 15h69v-278l48 -9v-41h-190v41zM615 239q0 -30 -18.5 -49.5t-49.5 -24.5v-4q73 -14 73 -77q0 -42 -39 -68t-103 -26q-46 0 -74.5 23t-28.5 61q0 21 11 33.5t30 12.5q26 0 35.5 -10.5t9.5 -24.5
q0 -11 -5.5 -19t-16.5 -8q2 -17 15 -21t26 -4q22 0 37.5 11.5t15.5 35.5q0 29 -20.5 45t-56.5 16v40q34 0 55 15.5t21 45.5q0 20 -14 30.5t-37 10.5q-13 0 -25.5 -5t-14.5 -18q10 0 19 -7t9 -20t-10.5 -25.5t-36.5 -12.5q-21 0 -32 15.5t-11 34.5q0 35 29.5 56.5t82.5 21.5
q59 0 91.5 -23t32.5 -61z" />
    <glyph glyph-name="uni2154" unicode="&#x2154;" horiz-adv-x="671" 
d="M102 -10l386 740h84l-386 -740h-84zM632 239q0 -30 -18.5 -49.5t-49.5 -24.5v-4q73 -14 73 -77q0 -42 -39 -68t-103 -26q-46 0 -74.5 23t-28.5 61q0 21 11 33.5t30 12.5q26 0 35.5 -10.5t9.5 -24.5q0 -11 -5.5 -19t-16.5 -8q2 -17 15 -21t26 -4q22 0 37.5 11.5t15.5 35.5
q0 29 -20.5 45t-56.5 16v40q34 0 55 15.5t21 45.5q0 20 -14 30.5t-37 10.5q-13 0 -25.5 -5t-14.5 -18q10 0 19 -7t9 -20t-10.5 -25.5t-36.5 -12.5q-21 0 -32 15.5t-11 34.5q0 35 29.5 56.5t82.5 21.5q59 0 91.5 -23t32.5 -61zM118 464h99l10 47h56v-110h-247v30
q0 28 16 50.5t40 42.5t48 39.5t40 41.5t16 49q0 21 -18 27.5t-29 6.5q-5 0 -16 -1.5t-20.5 -7t-11.5 -17.5q14 0 21 -9t7 -23t-9.5 -23.5t-31.5 -9.5q-26 0 -36.5 14t-10.5 33q0 39 29.5 62.5t86.5 23.5q61 0 91.5 -23.5t30.5 -63.5q0 -30 -16.5 -53t-40 -40.5t-47.5 -32
t-40.5 -27.5t-16.5 -26z" />
    <glyph glyph-name="oneeighth" unicode="&#x215b;" horiz-adv-x="656" 
d="M87 -10l386 740h84l-386 -740h-84zM103 442v212h-60v46q16 0 41 5t32 15h69v-278l48 -9v-41h-190v41zM608 251q0 -53 -53 -82q36 -19 52 -39.5t16 -47.5q0 -41 -33 -66.5t-99 -25.5q-54 0 -85 22t-31 62q0 55 65 90q-27 18 -38.5 35.5t-11.5 41.5q0 38 28 60t84 22
q57 0 81.5 -20t24.5 -52zM476 142q-15 -11 -23 -26t-8 -37q0 -17 9.5 -32t35.5 -15q14 0 32.5 7.5t18.5 29.5t-17.5 38.5t-47.5 34.5zM517 191q10 9 18 21.5t8 33.5q0 23 -11.5 32.5t-27.5 9.5q-18 0 -28 -10.5t-10 -26.5q0 -10 6.5 -26.5t44.5 -33.5z" />
    <glyph glyph-name="threeeighths" unicode="&#x215c;" horiz-adv-x="666" 
d="M97 -10l386 740h84l-386 -740h-84zM275 646q0 -30 -18.5 -49.5t-49.5 -24.5v-4q73 -14 73 -77q0 -42 -39 -68t-103 -26q-46 0 -74.5 23t-28.5 61q0 21 11 33.5t30 12.5q26 0 35.5 -10.5t9.5 -24.5q0 -11 -5.5 -19t-16.5 -8q2 -17 15 -21t26 -4q22 0 37.5 11.5t15.5 35.5
q0 29 -20.5 45t-56.5 16v40q34 0 55 15.5t21 45.5q0 20 -14 30.5t-37 10.5q-13 0 -25.5 -5t-14.5 -18q10 0 19 -7t9 -20t-10.5 -25.5t-36.5 -12.5q-21 0 -32 15.5t-11 34.5q0 35 29.5 56.5t82.5 21.5q59 0 91.5 -23t32.5 -61zM618 251q0 -53 -53 -82q36 -19 52 -39.5
t16 -47.5q0 -41 -33 -66.5t-99 -25.5q-54 0 -85 22t-31 62q0 55 65 90q-27 18 -38.5 35.5t-11.5 41.5q0 38 28 60t84 22q57 0 81.5 -20t24.5 -52zM486 142q-15 -11 -23 -26t-8 -37q0 -17 9.5 -32t35.5 -15q14 0 32.5 7.5t18.5 29.5t-17.5 38.5t-47.5 34.5zM527 191
q10 9 18 21.5t8 33.5q0 23 -11.5 32.5t-27.5 9.5q-18 0 -28 -10.5t-10 -26.5q0 -10 6.5 -26.5t44.5 -33.5z" />
    <glyph glyph-name="fiveeighths" unicode="&#x215d;" horiz-adv-x="650" 
d="M91 -10l386 740h84l-386 -740h-84zM602 251q0 -53 -53 -82q36 -19 52 -39.5t16 -47.5q0 -41 -33 -66.5t-99 -25.5q-54 0 -85 22t-31 62q0 55 65 90q-27 18 -38.5 35.5t-11.5 41.5q0 38 28 60t84 22q57 0 81.5 -20t24.5 -52zM470 142q-15 -11 -23 -26t-8 -37
q0 -17 9.5 -32t35.5 -15q14 0 32.5 7.5t18.5 29.5t-17.5 38.5t-47.5 34.5zM511 191q10 9 18 21.5t8 33.5q0 23 -11.5 32.5t-27.5 9.5q-18 0 -28 -10.5t-10 -26.5q0 -10 6.5 -26.5t44.5 -33.5zM233 656l25 78h-52l-8 -14h-130l-24 -158l50 -18q8 11 23 14t23 3q26 0 36 -21
t10 -44q0 -40 -16 -52.5t-33 -12.5q-16 0 -27 7.5t-14 14.5q11 0 18.5 8t7.5 20q0 11 -9 22t-29 11q-28 0 -39.5 -15t-11.5 -33q0 -40 35 -57t79 -17q62 0 93.5 29.5t31.5 77.5q0 47 -28 74.5t-75 27.5q-37 0 -63 -22l11 77h116z" />
    <glyph glyph-name="seveneighths" unicode="&#x215e;" horiz-adv-x="636" 
d="M77 -10l386 740h84l-386 -740h-84zM588 251q0 -53 -53 -82q36 -19 52 -39.5t16 -47.5q0 -41 -33 -66.5t-99 -25.5q-54 0 -85 22t-31 62q0 55 65 90q-27 18 -38.5 35.5t-11.5 41.5q0 38 28 60t84 22q57 0 81.5 -20t24.5 -52zM456 142q-15 -11 -23 -26t-8 -37
q0 -17 9.5 -32t35.5 -15q14 0 32.5 7.5t18.5 29.5t-17.5 38.5t-47.5 34.5zM497 191q10 9 18 21.5t8 33.5q0 23 -11.5 32.5t-27.5 9.5q-18 0 -28 -10.5t-10 -26.5q0 -10 6.5 -26.5t44.5 -33.5zM167 438q0 -15 -10 -30.5t-36 -15.5q-14 0 -26 8.5t-12 35.5q0 21 13 60.5t35 83
t49 74.5h-92l-8 -44h-47v110h236v-42q-25 -23 -48.5 -64t-38.5 -87.5t-15 -88.5z" />
    <glyph glyph-name="minus" unicode="&#x2212;" horiz-adv-x="526" 
d="M64 322v81h398v-81h-398z" />
    <glyph glyph-name="uni2215" unicode="&#x2215;" horiz-adv-x="431" 
d="M-19 -10l386 740h84l-386 -740h-84z" />
    <glyph glyph-name="uni2219" unicode="&#x2219;" horiz-adv-x="264" 
d="M54 298q0 37 21 58.5t57 21.5t57.5 -22t21.5 -58t-21.5 -57t-57.5 -21q-37 0 -57.5 20.5t-20.5 57.5z" />
    <glyph glyph-name="dotbelow" horiz-adv-x="185" 
d="M15 -129q0 38 21 59.5t57 21.5t57.5 -22t21.5 -58t-21 -57t-59 -21q-36 0 -56.5 20t-20.5 57z" />
    <glyph glyph-name="caron.alt" horiz-adv-x="119" 
d="M94 590h-70q0 33 -4.5 57t-9.5 44t-5 41q0 18 10.5 38t44.5 20q32 0 43 -19t11 -39q0 -21 -5 -41t-10 -44t-5 -57z" />
    <glyph glyph-name="gravecomb.case" 
d="M170 836l60 -76h-83l-47 28q-31 19 -47 30t-22 20.5t-6 22.5q0 15 11.5 27t35.5 12q19 0 33 -4.5t28.5 -18t36.5 -41.5z" />
    <glyph glyph-name="acutecomb.case" 
d="M25 760l60 76q22 28 37 41.5t28.5 18t32.5 4.5q24 0 35.5 -12t11.5 -27q0 -13 -6 -22.5t-22 -20.5t-47 -30l-47 -28h-83z" />
    <glyph glyph-name="uni0302.case" 
d="M357 769l-119 121h-125l-118 -121h83l98 61l98 -61h83z" />
    <glyph glyph-name="tildecomb.case" 
d="M0 766q2 73 37 109t90 36q26 0 44.5 -8.5t34.5 -19t32 -19t35 -8.5q30 0 45 13t20 37h60q-21 -151 -127 -151q-25 0 -44 8.5t-35 19.5t-31.5 19.5t-35.5 8.5q-30 0 -45 -12t-20 -33h-60z" />
    <glyph glyph-name="uni0304.case" 
d="M25 766v95h279v-95h-279z" />
    <glyph glyph-name="uni0306.case" 
d="M338 938h-63q-1 -43 -30.5 -62.5t-68.5 -19.5t-68 19.5t-31 62.5h-63q0 -81 43.5 -131t118.5 -50t118.5 50t43.5 131z" />
    <glyph glyph-name="uni0307.case" 
d="M15 837q0 36 21 57t56 21t56.5 -21.5t21.5 -56.5t-21 -56t-57 -21t-56.5 20.5t-20.5 56.5z" />
    <glyph glyph-name="uni0308.case" 
d="M11 837q0 36 21 57t56 21t56.5 -21.5t21.5 -56.5t-21 -56t-57 -21t-56.5 20.5t-20.5 56.5zM241 837q0 36 21 57t56 21t56.5 -21.5t21.5 -56.5t-21 -56t-57 -21t-56.5 20.5t-20.5 56.5z" />
    <glyph glyph-name="uni030A.case" 
d="M29 824q0 38 26.5 57t63.5 19q38 0 64.5 -19t26.5 -57q0 -37 -26.5 -55.5t-64.5 -18.5q-37 0 -63.5 18.5t-26.5 55.5zM89 824q0 -15 7.5 -22.5t22.5 -7.5t23.5 7.5t8.5 22.5t-8.5 23.5t-23.5 8.5t-22.5 -8.5t-7.5 -23.5z" />
    <glyph glyph-name="uni030B.case" 
d="M25 760l60 76q22 28 37 41.5t28.5 18t32.5 4.5q24 0 35.5 -12t11.5 -27q0 -13 -6 -22.5t-22 -20.5t-47 -30l-47 -28h-83zM205 760l60 76q22 28 37 41.5t28.5 18t32.5 4.5q24 0 35.5 -12t11.5 -27q0 -13 -6 -22.5t-22 -20.5t-47 -30l-47 -28h-83z" />
    <glyph glyph-name="uni030C.case" 
d="M238 769l119 121h-83l-98 -61l-98 61h-83l118 -121h125z" />
    </font>
</defs>
</svg>
