<?xml version="1.0" standalone="no"?>
<!DOCTYPE svg PUBLIC "-//W3C//DTD SVG 1.1//EN" "http://www.w3.org/Graphics/SVG/1.1/DTD/svg11.dtd" >
<svg xmlns="http://www.w3.org/2000/svg" xmlns:xlink="http://www.w3.org/1999/xlink" version="1.1">
<metadata>
Created by FontForge 20170731 at Thu Jun  4 21:15:17 2020
 By Aleksey,,,
Copyright 2020 The Domine Project Authors (https://github.com/googlefonts/domine)
</metadata>
<defs>
<font id="Domine-Medium" horiz-adv-x="0" >
  <font-face 
    font-family="Domine Medium"
    font-weight="500"
    font-stretch="normal"
    units-per-em="1000"
    panose-1="2 4 5 3 4 4 3 6 2 4"
    ascent="800"
    descent="-200"
    x-height="540"
    cap-height="720"
    bbox="-205 -240 1377 918"
    underline-thickness="50"
    underline-position="-150"
    unicode-range="U+000D-FB04"
  />
<missing-glyph horiz-adv-x="640" 
d="M75 -240v1140h490v-1140h-490zM182 825v-990h276v990h-276z" />
    <glyph glyph-name="f_f" unicode="ff" horiz-adv-x="684" 
d="M17 485v41l97 14v10q0 101 54 155.5t151 54.5q47 0 87.5 -12t63.5 -32q49 74 143 74q63 0 101.5 -28.5t38.5 -72.5q0 -30 -16 -46t-41 -16q-26 0 -41 14t-15 39q0 26 16 49q-18 18 -46 18q-11 0 -22 -4t-18 -10q-17 -12 -24.5 -34t-9 -50.5t-1.5 -58.5v-50h128v-55h-128
v-420l108 -19v-46h-272v46l57 19v420h-207v-420l68 -19v-46h-252v46l77 19v420h-97zM428 540v23q0 82 -23 118t-79 36q-52 0 -78.5 -32.5t-26.5 -94.5v-50h207z" />
    <glyph glyph-name="f_i" unicode="fi" horiz-adv-x="635" 
d="M17 485v41l97 14v10q0 111 65 175.5t176 64.5q81 0 131 -30.5t50 -81.5q0 -61 -59 -61q-25 0 -40 13.5t-15 39.5q0 24 17 49q-34 28 -88 28q-37 0 -65 -11q-35 -13 -50 -46t-15 -100v-50h314v-475l77 -19v-46h-251v46l67 19v420h-207v-420l78 -19v-46h-262v46l77 19v420
h-97z" />
    <glyph glyph-name="f_l" unicode="fl" horiz-adv-x="639" 
d="M341 790q45 0 80 -12.5t56 -37.5l18 40h40v-715l77 -19v-46h-251v46l67 19v420h-207v-420l78 -19v-46h-262v46l77 19v420h-97v41l97 14v10q0 111 60.5 175.5t166.5 64.5zM221 585v-45h207v100q0 51 -26.5 79t-72.5 28q-52 0 -80 -40.5t-28 -121.5z" />
    <glyph glyph-name="f_f_i" unicode="ffi" horiz-adv-x="948" 
d="M17 485v41l97 14v10q0 100 54 155t150 55q51 0 89 -14t66 -48q32 47 75.5 69.5t115.5 22.5q85 0 135 -30.5t50 -81.5q0 -29 -15 -45t-46 -16q-24 0 -38 13.5t-14 38.5q0 13 3.5 25t12.5 25q-16 14 -39 21t-49 7q-18 0 -35.5 -3t-33.5 -11q-32 -14 -46 -48t-14 -100v-45
h313v-475l77 -19v-46h-251v46l67 19v420h-206v-420l78 -19v-46h-252v46l67 19v420h-207v-420l78 -19v-46h-262v46l77 19v420h-97zM428 540v18q0 86 -23.5 122.5t-78.5 36.5q-51 0 -78 -33.5t-27 -98.5v-45h207z" />
    <glyph glyph-name="f_f_l" unicode="ffl" horiz-adv-x="952" 
d="M656 790q90 0 134 -50l18 40h40v-715l77 -19v-46h-251v46l67 19v420h-206v-420l78 -19v-46h-252v46l67 19v420h-207v-420l78 -19v-46h-262v46l77 19v420h-97v41l97 14v10q0 101 54.5 155.5t154.5 54.5q97 0 150 -62q57 92 183 92zM535 585v-45h206v100q0 51 -26 79
t-72 28q-55 0 -81.5 -40.5t-26.5 -121.5zM221 585v-45h207v18q0 85 -23.5 122t-78.5 37q-105 0 -105 -132z" />
    <glyph glyph-name="f_b" unicode="fb" horiz-adv-x="953" 
d="M910 275q0 -65 -19 -123t-53 -97q-57 -65 -160 -65q-52 0 -92 23.5t-71 87.5l-30 -101h-57v485h-207v-420l78 -19v-46h-262v46l77 19v420h-97v41l97 14v10q0 111 59 175.5t169 64.5q45 0 79.5 -12.5t55.5 -37.5l18 40h40v-298q30 38 67 53t83 15q51 0 92 -15t68 -48
q31 -38 48 -93.5t17 -118.5zM535 273q0 -60 9 -103t26 -70q16 -25 38.5 -39t57.5 -14q62 0 94 47q18 26 26.5 70t8.5 102q0 59 -9.5 102.5t-25.5 71.5q-15 26 -38 39.5t-58 13.5q-31 0 -55.5 -11t-38.5 -35q-16 -27 -25.5 -71t-9.5 -103zM221 585v-45h207v100q0 51 -25 79
t-72 28q-56 0 -83 -40.5t-27 -121.5z" />
    <glyph glyph-name="f_f_b" unicode="ffb" horiz-adv-x="1267" 
d="M1224 275q0 -65 -19 -123t-53 -97q-56 -65 -161 -65q-51 0 -91 23.5t-71 87.5l-30 -101h-57v485h-207v-420l78 -19v-46h-262v46l77 19v420h-207v-420l78 -19v-46h-262v46l77 19v420h-97v41l97 14v10q0 101 57 155.5t162 54.5q48 0 81 -14.5t60 -43.5q31 45 80 66.5
t111 21.5q41 0 73.5 -12.5t52.5 -37.5l18 40h40v-298q30 38 67 53t83 15q51 0 92.5 -15t67.5 -48q31 -38 48 -93t17 -119zM849 274q0 -119 35 -174q16 -25 37.5 -39t57.5 -14q33 0 57 12.5t39 34.5q17 26 25.5 70.5t8.5 102.5t-9.5 101.5t-25.5 71.5q-15 25 -37 39t-59 14
q-33 0 -56.5 -11.5t-37.5 -34.5q-16 -27 -25.5 -70.5t-9.5 -102.5zM535 585v-45h207v100q0 51 -25.5 79t-72.5 28q-56 0 -82.5 -40.5t-26.5 -121.5zM221 585v-45h207v18q0 83 -22.5 121t-76.5 38t-81 -33.5t-27 -98.5z" />
    <glyph glyph-name="f_h" unicode="fh" horiz-adv-x="978" 
d="M774 65v213q0 65 -3.5 97t-12.5 50q-24 49 -88 49q-26 0 -50.5 -9t-42.5 -26q-23 -20 -32.5 -47t-9.5 -62v-265l67 -19v-46h-251v46l77 19v420h-207v-420l78 -19v-46h-262v46l77 19v420h-97v41l97 14v10q0 112 61 176t166 64q94 0 136 -50l18 40h40v-334q28 50 76.5 77
t102.5 27q43 0 76.5 -13.5t53.5 -40.5q20 -28 28.5 -78.5t8.5 -136.5v-216l77 -19v-46h-251v46zM221 585v-45h207v105q0 48 -26 75t-73 27q-53 0 -80.5 -41t-27.5 -121z" />
    <glyph glyph-name="f_f_h" unicode="ffh" horiz-adv-x="1291" 
d="M1087 65v213q0 65 -4 97t-12 50q-12 24 -33 36t-50 12q-55 0 -95 -36q-45 -39 -45 -111v-261l67 -19v-46h-251v46l77 19v420h-206v-420l78 -19v-46h-252v46l67 19v420h-207v-420l78 -19v-46h-262v46l77 19v420h-97v41l97 14v10q0 101 57 155.5t162 54.5q97 0 150 -62
q57 92 183 92q83 0 124 -50l18 40h40v-334q30 49 80 76.5t106 27.5q83 0 123 -54q20 -28 28.5 -78.5t8.5 -136.5v-216l77 -19v-46h-251v46zM535 585v-45h206v100q0 51 -23.5 79t-67.5 28q-115 0 -115 -162zM221 585v-45h207v18q0 85 -22 122t-75 37q-55 0 -82.5 -33.5
t-27.5 -98.5z" />
    <glyph glyph-name="f_j" unicode="fj" horiz-adv-x="615" 
d="M535 540v-460q0 -74 -5 -116.5t-17 -69.5q-20 -43 -59.5 -66t-89.5 -23q-53 0 -88 27t-35 68q0 28 15 46t44 18q25 0 39 -15t14 -41q0 -14 -6.5 -26t-19.5 -20q2 -7 12.5 -11t26.5 -4q35 0 48.5 28t13.5 101v509h-207v-420l78 -19v-46h-262v46l77 19v420h-97v41l97 14v10
q0 111 65 175.5t176 64.5q81 0 131 -31t50 -82q0 -28 -14 -44t-44 -16q-25 0 -40 12.5t-15 37.5q0 13 3.5 25.5t12.5 26.5q-34 28 -88 28q-18 0 -34.5 -2.5t-29.5 -7.5q-36 -14 -51 -47t-15 -100v-50h314z" />
    <glyph glyph-name="f_f_j" unicode="ffj" horiz-adv-x="928" 
d="M17 485v41l97 14v10q0 100 54 155t150 55q51 0 89 -14t66 -48q32 47 75.5 69.5t115.5 22.5q85 0 135 -30.5t50 -81.5q0 -61 -59 -61q-24 0 -39 12.5t-15 37.5q0 24 16 52q-16 14 -39 21t-49 7q-18 0 -36.5 -3.5t-32.5 -9.5q-31 -14 -45.5 -48.5t-14.5 -100.5v-45h313
v-460q0 -74 -4.5 -116.5t-16.5 -69.5q-20 -43 -59.5 -66t-89.5 -23q-53 0 -88 27t-35 68q0 28 15.5 45t43.5 17q24 0 38.5 -14.5t14.5 -40.5q0 -29 -26 -45q2 -7 12.5 -11t26.5 -4q33 0 47.5 28t14.5 101v509h-207v-420l78 -19v-46h-252v46l67 19v420h-207v-420l78 -19v-46
h-262v46l77 19v420h-97zM428 540v18q0 86 -23.5 122.5t-79.5 36.5q-50 0 -77 -33.5t-27 -98.5v-45h207z" />
    <glyph glyph-name="f_k" unicode="fk" horiz-adv-x="926" 
d="M692 46l59 19l-147 198l-69 -59v-139l77 -19v-46h-261v46l77 19v420h-207v-420l78 -19v-46h-262v46l77 19v420h-97v41l97 14v10q0 112 61 176t166 64q94 0 136 -50l18 40h40v-518l198 213l-66 19v46h225v-46l-73 -19l-146 -150l195 -262l53 -17v-46h-229v46zM221 585v-45
h207v105q0 48 -26 75t-74 27q-52 0 -79.5 -41t-27.5 -121z" />
    <glyph glyph-name="f_f_k" unicode="ffk" horiz-adv-x="1239" 
d="M1005 46l59 19l-146 198l-70 -59v-139l77 -19v-46h-261v46l77 19v420h-206v-420l78 -19v-46h-252v46l67 19v420h-207v-420l78 -19v-46h-262v46l77 19v420h-97v41l97 14v10q0 101 54.5 155.5t154.5 54.5q97 0 150 -62q57 92 183 92q90 0 134 -50l18 40h40v-518l198 213
l-66 19v46h225v-46l-73 -19l-146 -150l195 -262l53 -17v-46h-229v46zM535 585v-45h206v105q0 48 -26.5 75t-70.5 27q-109 0 -109 -162zM221 585v-45h207v18q0 85 -24 122t-77 37q-106 0 -106 -132z" />
    <glyph glyph-name=".notdef" horiz-adv-x="640" 
d="M75 -240v1140h490v-1140h-490zM182 825v-990h276v990h-276z" />
    <glyph glyph-name=".null" 
 />
    <glyph glyph-name="nonmarkingreturn" horiz-adv-x="333" 
 />
    <glyph glyph-name="NULL" 
 />
    <glyph glyph-name="NULL" 
 />
    <glyph glyph-name="CR" unicode="&#xd;" horiz-adv-x="270" 
 />
    <glyph glyph-name="space" unicode=" " horiz-adv-x="248" 
 />
    <glyph glyph-name="exclam" unicode="!" horiz-adv-x="287" 
d="M176 205h-66q0 39 -2 82.5t-4.5 85.5t-5 75.5t-4.5 51.5q-3 37 -8 73t-5 77q0 35 16 57.5t48 22.5q34 0 47 -23.5t13 -55.5q0 -42 -4.5 -78t-8.5 -73q0 -18 -3 -51.5t-5.5 -75.5t-5 -85.5t-2.5 -82.5zM211 52q0 -32 -18 -49.5t-50 -17.5q-31 0 -49 17.5t-18 49.5t18 50.5
t49 18.5t49.5 -18.5t18.5 -50.5z" />
    <glyph glyph-name="quotedbl" unicode="&#x22;" horiz-adv-x="393" 
d="M135 480h-57q0 45 -6.5 88t-13 77.5t-6.5 53.5q0 27 12 44t43 17t42.5 -16.5t11.5 -44.5q0 -19 -6.5 -53.5t-13 -77.5t-6.5 -88zM314 480h-57q0 45 -6.5 88t-13 77.5t-6.5 53.5q0 27 12 44t43 17t42.5 -16.5t11.5 -44.5q0 -19 -6.5 -53.5t-13 -77.5t-6.5 -88z" />
    <glyph glyph-name="numbersign" unicode="#" horiz-adv-x="744" 
d="M397 -10l41 207h-193l-41 -207h-67l41 207h-144v58h155l40 201h-146v58h157l43 216h67l-43 -216h193l43 216h67l-43 -216h143v-58h-154l-40 -201h145v-58h-156l-41 -207h-67zM296 456l-40 -201h193l40 201h-193z" />
    <glyph glyph-name="dollar" unicode="$" horiz-adv-x="575" 
d="M261 -130v120q-69 5 -119 30.5t-76.5 63t-26.5 78.5q0 34 18 55t51 21q29 0 46 -16.5t17 -41.5q0 -23 -13 -40t-29 -25q20 -26 52 -44.5t80 -21.5v259q-3 2 -6.5 3.5t-6.5 2.5q-49 20 -94 45.5t-74 66.5t-29 105q0 90 57.5 143t152.5 57v120h57v-122q60 -6 103.5 -31
t67.5 -60.5t24 -74.5q0 -34 -17.5 -54.5t-48.5 -20.5q-26 0 -43.5 15t-17.5 41q0 20 10 37t26 25q-33 57 -104 64v-258q74 -33 123 -62.5t73.5 -66.5t24.5 -93q0 -91 -59.5 -143t-161.5 -57v-120h-57zM421 155q0 49 -29.5 78.5t-73.5 51.5v-235q49 6 76 33.5t27 71.5z
M162 557q0 -46 24 -70t75 -50v233q-50 -5 -74.5 -34.5t-24.5 -78.5z" />
    <glyph glyph-name="percent" unicode="%" horiz-adv-x="686" 
d="M119 -10l386 740h64l-386 -740h-64zM35 563q0 86 37 130q16 19 38.5 27.5t55.5 8.5q63 0 94 -36q37 -43 37 -129q0 -43 -9 -77t-27 -55q-31 -36 -96 -36q-30 0 -53.5 8t-40.5 28q-36 42 -36 131zM229 563q0 67 -18 102q-8 13 -18 20t-27 7q-15 0 -25.5 -6t-18.5 -21
q-10 -18 -14.5 -44.5t-4.5 -57.5q0 -32 4.5 -58t14.5 -44q7 -14 17.5 -20.5t26.5 -6.5t25.5 6t18.5 21q10 17 14.5 42t4.5 60zM389 157q0 86 36 130q17 19 39.5 27.5t55.5 8.5q63 0 94 -36q37 -43 37 -129q0 -43 -9 -77t-28 -55q-31 -36 -95 -36q-30 0 -53.5 8t-40.5 28
q-36 42 -36 131zM583 157q0 67 -19 102q-8 13 -18 20t-26 7q-15 0 -26 -6t-19 -21q-9 -18 -13.5 -44.5t-4.5 -57.5q0 -32 4.5 -58t13.5 -44q8 -14 18 -20.5t27 -6.5q15 0 25 6t19 21q9 17 14 42t5 60z" />
    <glyph glyph-name="ampersand" unicode="&#x26;" horiz-adv-x="763" 
d="M710 339l-76 -19q0 -60 -18 -120t-49 -106q10 -19 31.5 -31t44.5 -12t45.5 12t37.5 31l29 -43q-43 -61 -125 -61q-35 0 -67 12.5t-61 36.5q-37 -25 -81 -37t-100 -12q-121 0 -190.5 53t-69.5 145q0 62 35 107t118 91q-55 88 -55 167q0 52 22.5 91.5t63 61.5t94.5 22
q50 0 87.5 -18t58.5 -50t21 -73q0 -56 -41.5 -109t-125.5 -97l180 -233q21 33 35 77t14 95l-77 19v46h219v-46zM333 53q38 0 68 8t52 24l-198 253q-39 -21 -61.5 -61t-22.5 -88q0 -65 42.5 -100.5t119.5 -35.5zM254 576q0 -35 11 -68t36 -73q65 38 95.5 72t30.5 75
q0 39 -24.5 63t-66.5 24q-38 0 -60 -23.5t-22 -69.5z" />
    <glyph glyph-name="quotesingle" unicode="'" horiz-adv-x="214" 
d="M135 480h-57q0 45 -6.5 88t-13 77.5t-6.5 53.5q0 27 12 44t43 17t42.5 -16.5t11.5 -44.5q0 -19 -6.5 -53.5t-13 -77.5t-6.5 -88z" />
    <glyph glyph-name="parenleft" unicode="(" horiz-adv-x="375" 
d="M40 353q0 -104 22 -193t61 -158t92 -112.5t116 -56.5l30 63q-63 13 -110.5 73t-73.5 158t-26 224q0 125 27 224.5t75.5 162.5t112.5 78l-24 56q-66 -16 -121.5 -62t-96 -115t-62.5 -156t-22 -186z" />
    <glyph glyph-name="parenright" unicode=")" horiz-adv-x="375" 
d="M334 353q0 99 -22 186t-62.5 156t-96 115t-121.5 62l-24 -56q65 -15 113 -78t75 -162.5t27 -224.5q0 -126 -26.5 -224t-73.5 -158t-110 -73l31 -63q63 13 116 56.5t92 112.5t60.5 158t21.5 193z" />
    <glyph glyph-name="asterisk" unicode="*" horiz-adv-x="474" 
d="M280 747q0 -24 -9 -58t-16 -63q23 13 46 27.5t44.5 24.5t39.5 10q16 0 29 -11.5t13 -33.5q0 -19 -12 -29t-30.5 -13.5t-39.5 -4.5q-19 -1 -40 -1t-40 -2q21 -17 46 -37t43.5 -40.5t18.5 -40.5q0 -15 -13.5 -28.5t-31.5 -13.5q-22 0 -38 22.5t-28 55t-25 60.5
q-14 -33 -26 -65t-26.5 -53t-37.5 -21q-17 0 -31 13.5t-14 29.5q0 17 16.5 37t41 41t47.5 41q-16 0 -33 0.5t-34 1.5q-22 0 -43.5 3t-35.5 12.5t-14 30.5q0 22 13 34t29 12t38 -10t45.5 -24.5t44.5 -26.5q-7 32 -16 64t-9 56q0 22 11.5 35.5t32.5 13.5q20 0 32 -13t12 -36z
" />
    <glyph glyph-name="plus" unicode="+" horiz-adv-x="492" 
d="M42 326v72h165v163h78v-163h165v-72h-165v-163h-78v163h-165z" />
    <glyph glyph-name="comma" unicode="," horiz-adv-x="249" 
d="M122 123q34 0 54 -24t20 -64q0 -54 -31.5 -100t-97.5 -87l-25 29q40 33 64.5 62.5t26.5 52.5l-4 3q-5 -8 -24 -8q-22 0 -37.5 18.5t-15.5 47.5q0 31 19.5 50.5t50.5 19.5z" />
    <glyph glyph-name="hyphen" unicode="-" horiz-adv-x="383" 
d="M66 239v77h251v-77h-251z" />
    <glyph glyph-name="hyphen" unicode="&#xad;" horiz-adv-x="383" 
d="M66 239v77h251v-77h-251z" />
    <glyph glyph-name="period" unicode="." horiz-adv-x="242" 
d="M53 53q0 32 18.5 51t49.5 19t50 -19.5t19 -50.5t-18.5 -49.5t-50.5 -18.5t-50 17.5t-18 50.5z" />
    <glyph glyph-name="slash" unicode="/" horiz-adv-x="314" 
d="M51 -10l146 740h67l-146 -740h-67z" />
    <glyph glyph-name="zero" unicode="0" horiz-adv-x="677" 
d="M54 360q0 192 83 292q36 44 85 61t117 17q47 0 83 -7.5t65 -24.5t54 -46q83 -100 83 -292q0 -96 -21.5 -169.5t-61.5 -122.5q-25 -29 -54 -46t-65 -24.5t-83 -7.5q-68 0 -117 17.5t-85 60.5q-83 100 -83 292zM502 360q0 85 -11 147.5t-34 100.5q-19 32 -45.5 47.5
t-72.5 15.5q-43 0 -72 -15.5t-46 -47.5q-23 -38 -34 -100.5t-11 -147.5t11 -147.5t34 -100.5q17 -31 45.5 -47t72.5 -16q46 0 72.5 16t45.5 47q23 38 34 100.5t11 147.5z" />
    <glyph glyph-name="one" unicode="1" horiz-adv-x="405" 
d="M170 65v563h-127v56q24 0 56 5.5t60.5 15.5t39.5 25h78v-665l107 -19v-46h-341v46z" />
    <glyph glyph-name="two" unicode="2" horiz-adv-x="593" 
d="M139 100h305l24 128h65v-228h-485v66q0 53 26.5 96t68 81.5t88 74.5t88 73t68 78.5t26.5 89.5q0 55 -36.5 84t-103.5 29q-59 0 -92.5 -24t-43.5 -73q32 0 49 -16t17 -45q0 -28 -18 -44.5t-50 -16.5q-35 0 -54.5 21.5t-19.5 67.5q0 56 28 98.5t80 66.5t122 24t122 -24
t81.5 -67.5t29.5 -103.5t-28 -107t-71.5 -84t-93 -68t-93 -59.5t-71.5 -57t-28 -60.5z" />
    <glyph glyph-name="three" unicode="3" horiz-adv-x="583" 
d="M518 542q0 -64 -38 -109.5t-104 -56.5v-4q78 -16 115.5 -61t37.5 -114q0 -63 -32.5 -109.5t-89.5 -72t-129 -25.5q-69 0 -120.5 24t-79.5 66.5t-28 96.5q0 44 18.5 67.5t57.5 23.5q31 0 48.5 -17t17.5 -45q0 -27 -18 -43.5t-48 -16.5q8 -48 43 -72.5t97 -24.5
q71 0 108 34.5t37 99.5q0 76 -48.5 119.5t-133.5 43.5v53q80 0 129.5 43t49.5 113q0 58 -34.5 87.5t-97.5 29.5q-120 0 -136 -87q31 0 48.5 -15.5t17.5 -43.5q0 -27 -17.5 -44.5t-49.5 -17.5q-39 0 -60 26t-21 68q0 51 29 90t80 61t119 22t120 -23.5t82 -66t30 -99.5z" />
    <glyph glyph-name="four" unicode="4" horiz-adv-x="564" 
d="M318 65v143h-291l-12 49l321 473h89v-460h109l-10 -62h-99v-143l77 -19v-46h-281v46zM318 608l-224 -338h224v338z" />
    <glyph glyph-name="five" unicode="5" horiz-adv-x="555" 
d="M448 620l42 132h-52l-18 -32h-288l-56 -356l57 -23q20 25 55.5 37.5t75.5 12.5q73 0 102.5 -45.5t29.5 -123.5q0 -79 -31.5 -127t-105.5 -48q-58 0 -94.5 24.5t-43.5 60.5q32 0 49.5 19t17.5 43t-15 42t-49 18q-32 0 -56 -27t-24 -74q0 -43 27 -80.5t76 -60t116 -22.5
q76 0 132.5 29.5t87.5 83t31 124.5q0 69 -29 119t-80.5 77.5t-121.5 27.5q-43 0 -77.5 -11t-63.5 -33l32 213h274z" />
    <glyph glyph-name="six" unicode="6" horiz-adv-x="606" 
d="M160 351h4q28 37 75 58t102 21q64 0 111.5 -27.5t74.5 -77t27 -115.5q0 -102 -64.5 -161t-174.5 -59q-132 0 -196 86t-64 264q0 191 68 291t199 100q61 0 107.5 -21t72.5 -59t26 -88q0 -41 -17.5 -63.5t-54.5 -22.5q-33 0 -51.5 17.5t-18.5 45.5t18 44.5t48 16.5
q-6 34 -38 52t-83 18q-91 0 -132 -65t-41 -208q0 -14 0.5 -24t1.5 -23zM437 210q0 158 -128 158q-62 0 -95 -39.5t-33 -118.5t33 -119.5t95 -40.5q128 0 128 160z" />
    <glyph glyph-name="seven" unicode="7" horiz-adv-x="518" 
d="M269 56q0 -31 -12.5 -48.5t-44.5 -17.5q-31 0 -43.5 18t-12.5 49q0 42 13 97t35.5 117t53.5 125t67 120.5t75 103.5h-282l-19 -117h-62v217h469v-66q-50 -59 -93 -131.5t-75.5 -152t-50.5 -160t-18 -154.5z" />
    <glyph glyph-name="eight" unicode="8" horiz-adv-x="575" 
d="M493 570q0 -55 -28.5 -102.5t-80.5 -78.5q74 -40 108 -85.5t34 -105.5q0 -63 -32 -109.5t-89 -72.5t-134 -26q-104 0 -162.5 50t-58.5 138q0 64 32.5 112t102.5 88q-55 40 -78.5 78t-23.5 90q0 86 55 135.5t155 49.5q92 0 146 -42t54 -119zM235 346q-53 -30 -79 -70
t-26 -96q0 -66 36.5 -98.5t105.5 -32.5q70 0 108 30.5t38 87.5q0 32 -16.5 57.5t-56.5 54.5t-110 67zM338 419q38 21 61.5 61t23.5 86q0 53 -32.5 79.5t-92.5 26.5q-58 0 -89 -24.5t-31 -73.5q0 -44 35 -79.5t125 -75.5z" />
    <glyph glyph-name="nine" unicode="9" horiz-adv-x="606" 
d="M445 370h-4q-28 -37 -75 -58t-102 -21q-63 0 -111 27.5t-75 77t-27 115.5q0 68 29.5 117.5t84 76t127.5 26.5q133 0 195.5 -86t62.5 -265q0 -191 -69 -290.5t-205 -99.5q-60 0 -105.5 20.5t-70 57.5t-24.5 87q0 41 18.5 64t53.5 23q33 0 51.5 -17t18.5 -46
q0 -28 -17.5 -44.5t-48.5 -16.5q5 -33 34.5 -50.5t78.5 -17.5q98 0 140 64t42 209v26.5t-2 20.5zM168 511q0 -158 128 -158q63 0 95.5 40t32.5 118q0 79 -32.5 119.5t-95.5 40.5q-128 0 -128 -160z" />
    <glyph glyph-name="colon" unicode=":" horiz-adv-x="269" 
d="M66 48q0 32 18.5 51t49.5 19t50 -19.5t19 -50.5t-18.5 -49.5t-50.5 -18.5t-50 17.5t-18 50.5zM66 399q0 32 18.5 51t49.5 19t50 -19.5t19 -50.5t-18.5 -49.5t-50.5 -18.5t-50 17.5t-18 50.5z" />
    <glyph glyph-name="semicolon" unicode=";" horiz-adv-x="287" 
d="M75 399q0 32 18.5 51t49.5 19t50 -19.5t19 -50.5t-18.5 -49.5t-50.5 -18.5t-50 17.5t-18 50.5zM143 123q34 0 54 -24t20 -64q0 -54 -31.5 -100t-97.5 -87l-25 29q40 33 64.5 62.5t26.5 52.5l-4 3q-5 -8 -24 -8q-22 0 -37.5 18.5t-15.5 47.5q0 31 19.5 50.5t50.5 19.5z
" />
    <glyph glyph-name="less" unicode="&#x3c;" horiz-adv-x="478" 
d="M412 135l-379 196v58l379 195v-81l-298 -143l298 -143v-82z" />
    <glyph glyph-name="equal" unicode="=" horiz-adv-x="569" 
d="M71 418v68h428v-68h-428zM71 230v69h428v-69h-428z" />
    <glyph glyph-name="greater" unicode="&#x3e;" horiz-adv-x="478" 
d="M444 331l-379 -196v82l298 143l-298 143v81l379 -195v-58z" />
    <glyph glyph-name="question" unicode="?" horiz-adv-x="489" 
d="M247 205h-66q0 41 9 72.5t31.5 63t62.5 71.5q35 35 50 67t15 72q0 58 -30.5 89t-86.5 31q-36 0 -64.5 -14.5t-28.5 -34.5q20 -11 31.5 -30.5t11.5 -41.5q0 -28 -19.5 -47t-51.5 -19q-34 0 -56 27t-22 67q0 43 27.5 77.5t75 55t105.5 20.5q65 0 114.5 -22t77 -61.5
t27.5 -90.5q0 -45 -22.5 -85t-77.5 -91q-44 -40 -68.5 -68.5t-34.5 -53t-10 -54.5zM147 52q0 32 18.5 50.5t49.5 18.5t49 -18.5t18 -50.5q0 -31 -17.5 -49t-49.5 -18q-31 0 -49.5 17.5t-18.5 49.5z" />
    <glyph glyph-name="at" unicode="@" horiz-adv-x="811" 
d="M406 449q77 0 101 -55l32 37h50l-37 -246q-2 -13 -3 -23.5t-1 -20.5q0 -31 12 -45.5t34 -14.5q31 0 57 27t41.5 72t15.5 101q0 83 -35.5 143.5t-100 94.5t-152.5 34q-69 0 -128.5 -27t-103.5 -75t-68.5 -112.5t-24.5 -139.5q0 -139 78.5 -216t220.5 -77q139 0 246 69
l19 -36q-55 -37 -124 -56t-143 -19q-108 0 -186 40.5t-120.5 115.5t-42.5 178q0 84 29 156t81 126t121 84t149 30q102 0 178 -39t118.5 -108.5t42.5 -162.5q0 -70 -24 -125.5t-65.5 -87.5t-94.5 -32q-43 0 -67 18.5t-30 49.5q-23 -33 -61 -53t-82 -20q-73 0 -110 42t-37 120
q0 72 28.5 129.5t77 90.5t109.5 33zM408 405q-57 0 -93 -59.5t-36 -159.5q0 -57 17.5 -82.5t55.5 -25.5q60 0 96 57.5t36 160.5q0 58 -18.5 83.5t-57.5 25.5z" />
    <glyph glyph-name="A" unicode="A" horiz-adv-x="723" 
d="M526 69l-56 170h-260l-58 -170l83 -21v-48h-244v48l82 21l238 661h103l235 -661l80 -21v-48h-285v48zM342 627l-110 -325h217l-103 325h-4z" />
    <glyph glyph-name="B" unicode="B" horiz-adv-x="688" 
d="M609 547q0 -38 -17.5 -71t-47.5 -55t-69 -27v-4q78 -16 123 -66t45 -123q0 -56 -29.5 -103.5t-74.5 -70.5q-28 -14 -69 -20.5t-115 -6.5h-309v48l84 21v582l-84 21v48h346q105 0 162 -51q26 -24 40.5 -56t14.5 -66zM358 344h-118v-279h100q46 0 74 5t47 16q27 15 44 46.5
t17 75.5q0 37 -13 64t-33 43q-18 15 -46 22t-72 7zM240 657v-250h115q70 0 103 35q15 16 26 39.5t11 53.5t-11 54t-26 38q-30 30 -99 30h-119z" />
    <glyph glyph-name="C" unicode="C" horiz-adv-x="689" 
d="M373 671q-45 0 -79.5 -15.5t-57.5 -46.5q-29 -39 -46.5 -101t-17.5 -136q0 -71 15 -133t42 -104q25 -39 63 -57.5t93 -18.5q176 0 205 169h65q-47 -238 -284 -238q-138 0 -220 80q-49 48 -75 121t-26 162q0 101 33 183t93 131q76 63 201 63q62 0 101 -16t77 -57l20 63h65
v-226h-71q-14 88 -64 132.5t-132 44.5z" />
    <glyph glyph-name="D" unicode="D" horiz-adv-x="770" 
d="M240 65h145q54 0 92 16t64 50q27 35 41 90.5t14 132.5q0 151 -55 227q-27 38 -67.5 56t-98.5 18h-135v-590zM46 720h346q149 0 232 -84q47 -48 72 -118t25 -150q0 -84 -26.5 -157.5t-73.5 -123.5q-83 -87 -238 -87h-337v48l84 21v582l-84 21v48z" />
    <glyph glyph-name="E" unicode="E" horiz-adv-x="689" 
d="M480 238h-61l-18 99h-156v-272h293l30 158h68v-223h-595v48l94 21v582l-94 21v48h573v-212h-62l-31 149h-276v-255h156l18 100h61v-264z" />
    <glyph glyph-name="F" unicode="F" horiz-adv-x="641" 
d="M480 227h-61l-17 99h-157v-254l117 -19v-53h-321v48l94 24v579l-94 21v48h573v-214h-64l-32 151h-273v-266h157l17 100h61v-264z" />
    <glyph glyph-name="G" unicode="G" horiz-adv-x="757" 
d="M376 60q85 0 125.5 42.5t40.5 125.5v60l-84 21v50h278v-50l-84 -21v-288h-62l-25 79q-43 -48 -89.5 -68.5t-109.5 -20.5q-137 0 -219 84q-46 47 -71.5 119t-25.5 159q0 89 26.5 165.5t74.5 126.5q41 43 96 64.5t126 21.5q60 0 101.5 -17.5t78.5 -59.5l22 67h65v-226h-71
q-14 85 -63.5 131t-133.5 46q-49 0 -82 -16t-57 -49q-28 -42 -45 -105t-17 -135q0 -73 17.5 -136.5t49.5 -107.5q24 -32 57.5 -47t80.5 -15z" />
    <glyph glyph-name="H" unicode="H" horiz-adv-x="808" 
d="M679 651v-582l84 -21v-48h-278v48l84 21v269h-329v-269l84 -21v-48h-278v48l84 21v582l-84 21v48h278v-48l-84 -21v-250h329v250l-84 21v48h278v-48z" />
    <glyph glyph-name="I" unicode="I" horiz-adv-x="379" 
d="M245 651v-582l94 -21v-48h-298v48l94 21v582l-94 21v48h298v-48z" />
    <glyph glyph-name="J" unicode="J" horiz-adv-x="588" 
d="M362 207v444l-99 21v48h288v-48l-79 -21v-433q0 -69 -29.5 -120.5t-82.5 -80t-124 -28.5q-65 0 -115.5 23.5t-78 65t-27.5 95.5q0 43 17.5 67t52.5 24q31 0 50 -17.5t19 -45.5q0 -23 -13 -46.5t-30 -31.5q1 -30 34 -50.5t87 -20.5q66 0 98 38.5t32 116.5z" />
    <glyph glyph-name="K" unicode="K" horiz-adv-x="743" 
d="M245 651v-275l265 275l-91 21v48h273v-48l-88 -21l-229 -227l295 -357l84 -19v-48h-289v48l66 20l-229 283l-57 -55v-227l84 -21v-48h-288v48l94 21v582l-94 21v48h288v-48z" />
    <glyph glyph-name="L" unicode="L" horiz-adv-x="634" 
d="M245 651v-586h262l34 173h65v-238h-565v48l94 21v582l-94 21v48h308v-48z" />
    <glyph glyph-name="M" unicode="M" horiz-adv-x="966" 
d="M486 96l191 624h244v-48l-84 -21v-582l84 -21v-48h-267v48l73 21v581l-198 -650h-126l-198 650v-581l73 -21v-48h-232v48l84 21v582l-84 21v48h248l188 -624h4z" />
    <glyph glyph-name="N" unicode="N" horiz-adv-x="806" 
d="M130 69v582l-84 21v48h204l361 -545v476l-84 21v48h243v-48l-84 -21v-651h-85l-396 591v-522l84 -21v-48h-243v48z" />
    <glyph glyph-name="O" unicode="O" horiz-adv-x="767" 
d="M718 368q0 -86 -26 -162.5t-74 -128.5q-42 -44 -100.5 -65.5t-136.5 -21.5t-137 21t-98 63q-45 47 -70.5 119.5t-25.5 158.5q0 87 26.5 163.5t73.5 127.5q42 45 98.5 66t135.5 21q77 0 135.5 -20.5t101.5 -63.5q48 -49 72.5 -122.5t24.5 -155.5zM175 372q0 -82 14 -145
t40 -103q25 -37 63.5 -55.5t94.5 -18.5q102 0 151 66q27 36 41 96t14 142t-14.5 143.5t-40.5 99.5t-65.5 56t-92.5 18q-51 0 -88 -17t-62 -49q-55 -73 -55 -233z" />
    <glyph glyph-name="P" unicode="P" horiz-adv-x="636" 
d="M240 343h114q28 0 52.5 8.5t38.5 22.5q20 21 34 53t14 71q0 36 -13.5 67.5t-34.5 55.5q-16 17 -41 26.5t-54 9.5h-110v-314zM386 280h-146v-211l95 -21v-48h-289v48l84 21v582l-84 21v48h341q47 0 86 -12.5t64 -35.5q35 -31 55.5 -74.5t20.5 -91.5q0 -49 -21.5 -97
t-56.5 -79q-26 -25 -65 -37.5t-84 -12.5z" />
    <glyph glyph-name="Q" unicode="Q" horiz-adv-x="767" 
d="M718 368q0 -87 -26.5 -163.5t-73.5 -127.5q-37 -40 -86.5 -60.5t-111.5 -25.5v-4l117 -76q37 -24 81 -24q17 0 28.5 5t27.5 17l18 -31q-20 -34 -52.5 -48.5t-78.5 -14.5q-55 0 -97.5 19t-65.5 57l-60 101q-122 9 -192 82q-46 48 -71 120.5t-25 157.5q0 87 26 163.5
t74 127.5q42 45 99 66t135 21q77 0 136 -20.5t101 -63.5q47 -48 72 -121t25 -157zM175 374q0 -83 14 -147.5t40 -102.5q47 -74 157 -74q104 0 152 66q55 73 55 238t-55 243q-51 74 -157 74q-102 0 -151 -66q-55 -70 -55 -231z" />
    <glyph glyph-name="R" unicode="R" horiz-adv-x="710" 
d="M551 382q-18 -14 -41.5 -25t-58.5 -18q7 -8 18 -21.5t21 -30.5l130 -220l89 -19v-48h-216v48l-140 272h-113v-251l95 -21v-48h-289v48l84 21v582l-84 21v48h354q48 0 84 -9t65 -29q36 -24 57 -66t21 -84t-20.5 -82.5t-55.5 -67.5zM240 383h133q55 0 91 31q20 18 31.5 48
t11.5 64q0 33 -12 60.5t-32 44.5q-17 14 -39.5 20t-54.5 6h-129v-274z" />
    <glyph glyph-name="S" unicode="S" horiz-adv-x="604" 
d="M321 -11q-58 0 -103.5 17.5t-77.5 51.5l-11 -58h-66v232h71q6 -97 48.5 -140t122.5 -43q67 0 102 26.5t35 78.5q0 43 -21.5 71t-62 50t-96.5 44q-62 26 -106 52t-67 63t-23 95q0 96 59.5 149t159.5 53q99 0 161 -56l8 45h66v-232h-67q0 95 -35.5 139.5t-111.5 44.5
q-129 0 -129 -119q0 -34 13 -55t44.5 -39t89.5 -43q83 -36 133.5 -69t73 -71t22.5 -90q0 -63 -30 -107t-82 -67t-120 -23z" />
    <glyph glyph-name="T" unicode="T" horiz-adv-x="663" 
d="M29 720h606v-215h-56l-32 150h-160v-583l106 -24v-48h-322v48l106 24v583h-161l-31 -150h-56v215z" />
    <glyph glyph-name="U" unicode="U" horiz-adv-x="776" 
d="M589 264v387l-84 21v48h241v-48l-84 -21v-408q0 -124 -69.5 -189t-203.5 -65q-133 0 -204.5 66.5t-71.5 188.5v407l-84 21v48h278v-48l-84 -21v-385q0 -217 188 -217q94 0 136 51t42 164z" />
    <glyph glyph-name="V" unicode="V" horiz-adv-x="719" 
d="M187 651l190 -556h4l181 556l-83 21v48h244v-48l-82 -21l-223 -651h-108l-241 651l-80 21v48h280v-48z" />
    <glyph glyph-name="W" unicode="W" horiz-adv-x="1044" 
d="M737 105l150 547l-79 20v48h239v-48l-83 -21l-188 -651h-114l-142 464l-128 -464h-114l-207 651l-78 21v48h294v-48l-96 -21l157 -546h4l133 491l-12 55l-78 21v48h274v-48l-92 -21l156 -546h4z" />
    <glyph glyph-name="X" unicode="X" horiz-adv-x="741" 
d="M339 672l-94 -21l133 -212l160 212l-91 21v48h273v-48l-98 -21l-203 -265l211 -317l106 -21v-48h-337l-2 48l103 21l-149 239l-168 -239l109 -21v-48h-282v48l93 21l207 289l-192 293l-106 21v48h327v-48z" />
    <glyph glyph-name="Y" unicode="Y" horiz-adv-x="679" 
d="M359 345l167 306l-81 21v48h237v-48l-82 -21l-201 -369v-213l94 -21v-48h-298v48l94 21v197l-213 385l-83 21v48h286v-48l-84 -21z" />
    <glyph glyph-name="Z" unicode="Z" horiz-adv-x="651" 
d="M508 65l32 163h67v-228h-573v61l422 594h-297l-32 -152h-62v217h519v-61l-422 -594h346z" />
    <glyph glyph-name="bracketleft" unicode="[" horiz-adv-x="373" 
d="M90 -149v1004h261v-65h-162v-874h162v-65h-261z" />
    <glyph glyph-name="backslash" unicode="\" horiz-adv-x="314" 
d="M117 730l146 -740h-67l-146 740h67z" />
    <glyph glyph-name="bracketright" unicode="]" horiz-adv-x="373" 
d="M283 855v-1004h-261v65h162v874h-162v65h261z" />
    <glyph glyph-name="asciicircum" unicode="^" horiz-adv-x="385" 
d="M334 639l-89 151h-105l-88 -151h63l78 86l78 -86h63z" />
    <glyph glyph-name="underscore" unicode="_" horiz-adv-x="626" 
d="M66 -63v68h494v-68h-494z" />
    <glyph glyph-name="grave" unicode="`" horiz-adv-x="259" 
d="M175 715l49 -76h-63l-38 28q-47 35 -67 55.5t-20 35.5q0 18 12 27.5t37 9.5q24 0 42.5 -17t47.5 -63z" />
    <glyph glyph-name="a" unicode="a" horiz-adv-x="541" 
d="M35 117q0 80 74 125t241 70q-4 56 -11 87t-18 51q-13 25 -36 38t-52 13q-26 0 -47 -9.5t-28 -25.5q14 -9 20 -24.5t6 -28.5q0 -25 -18 -41t-45 -16q-26 0 -42.5 17.5t-16.5 46.5q0 42 29 71t74 44t90 15q43 0 78.5 -13t59.5 -35q67 -65 67 -221v-140q0 -49 6.5 -68
t28.5 -19h45v-35q-78 -29 -121 -29q-31 0 -42 22.5t-11 86.5h-4q-31 -51 -82 -80t-110 -29q-63 0 -99 34t-36 93zM219 53q25 0 54 14.5t49 39.5q15 18 23 45t8 64q0 15 -1 31t-3 31q-77 -16 -120.5 -34t-62 -43t-18.5 -61q0 -43 20 -65t51 -22z" />
    <glyph glyph-name="b" unicode="b" horiz-adv-x="606" 
d="M562 275q0 -65 -19 -123t-53 -97q-56 -65 -161 -65q-51 0 -91 23.5t-71 87.5l-30 -101h-57v715l-77 19v46h184v-298q30 38 67 53t83 15q51 0 92.5 -15t67.5 -48q31 -38 48 -93t17 -119zM187 273q0 -61 9.5 -103.5t25.5 -69.5q16 -25 39 -39t59 -14q33 0 56 13t38 34
q17 26 25 69t8 100q0 59 -8.5 104t-24.5 73q-15 26 -37 39.5t-58 13.5q-32 0 -57 -11t-40 -35q-15 -27 -25 -70.5t-10 -103.5z" />
    <glyph glyph-name="c" unicode="c" horiz-adv-x="539" 
d="M301 550q60 0 104 -19.5t69 -54.5t25 -82q0 -40 -18.5 -61t-50.5 -21t-48 18.5t-16 45.5q0 25 13 43t37 25q-14 25 -42 37.5t-67 12.5q-76 0 -112.5 -51t-36.5 -166q0 -51 6.5 -85t19.5 -58q19 -34 49 -53t73 -19q45 0 88 20t73 58l38 -30q-42 -62 -97.5 -91t-125.5 -29
q-71 0 -122.5 28.5t-80.5 83.5q-36 67 -36 162q0 87 31.5 151t90 99.5t136.5 35.5z" />
    <glyph glyph-name="d" unicode="d" horiz-adv-x="625" 
d="M43 266q0 66 17.5 124.5t50.5 94.5q29 32 69 48.5t92 16.5q45 0 81 -17t65 -61v243l-77 19v46h184v-715l77 -19v-46l-165 -10l-8 82q-31 -46 -70 -64t-88 -18q-52 0 -92 15.5t-67 47.5q-31 38 -50 93t-19 120zM418 266q0 60 -9 104.5t-25 70.5q-16 25 -39 38.5t-59 13.5
q-30 0 -55.5 -11.5t-40.5 -35.5q-17 -25 -24.5 -70t-7.5 -101q0 -60 9 -104t24 -71q16 -25 40 -39t58 -14q31 0 56 11t39 35q16 27 25 71t9 102z" />
    <glyph glyph-name="e" unicode="e" horiz-adv-x="548" 
d="M504 261h-349q0 -71 20 -118q19 -42 52.5 -61.5t75.5 -19.5q46 0 86.5 19.5t71.5 55.5l39 -30q-35 -48 -88 -82.5t-135 -34.5q-70 0 -123 29.5t-81 86.5q-15 31 -22 69t-7 81q0 140 64.5 217t177.5 77q105 0 163 -63.5t58 -175.5q0 -10 -0.5 -19.5t-2.5 -30.5zM282 491
q-115 0 -126 -176h240v31q0 70 -30 107.5t-84 37.5z" />
    <glyph glyph-name="f" unicode="f" horiz-adv-x="372" 
d="M18 480v45l97 14v16q0 112 52.5 173.5t142.5 61.5q59 0 94.5 -28.5t35.5 -72.5q0 -29 -15 -44.5t-41 -15.5t-41 14t-15 39q0 24 16 47q-15 18 -41 18q-21 0 -37 -9q-22 -14 -31 -37t-11 -51.5t-2 -59.5v-50h128v-60h-128v-415l108 -19v-46h-292v46l77 19v415h-97z" />
    <glyph glyph-name="g" unicode="g" horiz-adv-x="565" 
d="M514 -9q0 -81 -65 -128t-190 -47q-72 0 -124 14t-80 42t-28 69q0 47 28.5 73.5t79.5 31.5v4q-69 20 -69 77q0 21 10 40.5t31.5 36t54.5 25.5q-50 16 -78 55t-28 94q0 80 55 126t151 46q53 0 90.5 -11.5t64.5 -34.5l34 12l92 44h17v-93h-17l-70 8h-31q26 -37 26 -91
q0 -80 -53.5 -126t-149.5 -46q-10 0 -20 0.5t-20 1.5q-39 -6 -60 -20t-21 -37q0 -22 18.5 -29.5t69.5 -7.5h116q82 0 124 -31.5t42 -97.5zM294 38h-55q-67 0 -97 -22.5t-30 -58.5q0 -86 152 -86q82 0 125 25t43 72q0 39 -30.5 54.5t-107.5 15.5zM154 382q0 -59 26.5 -89.5
t79.5 -30.5q57 0 83.5 30.5t26.5 89.5q0 58 -26.5 87.5t-83.5 29.5q-53 0 -79.5 -29.5t-26.5 -87.5z" />
    <glyph glyph-name="h" unicode="h" horiz-adv-x="649" 
d="M446 65v213q0 65 -3.5 97t-12.5 50q-24 49 -88 49q-28 0 -54 -11.5t-44 -31.5q-18 -17 -27 -42.5t-10 -62.5v-261l67 -19v-46h-251v46l77 19v650l-77 19v46h184v-334q29 48 76 76t102 28q41 0 72 -13t51 -38q24 -29 34.5 -80.5t10.5 -137.5v-216l77 -19v-46h-251v46z" />
    <glyph glyph-name="i" unicode="i" horiz-adv-x="318" 
d="M111 475l-77 19v46h184v-475l77 -19v-46h-261v46l77 19v410zM98 698q0 30 18 48t48 18q31 0 49 -18t18 -48q0 -29 -17.5 -47t-49.5 -18q-31 0 -48.5 17.5t-17.5 47.5z" />
    <glyph glyph-name="j" unicode="j" horiz-adv-x="289" 
d="M209 540v-455q0 -74 -5 -116.5t-17 -69.5q-20 -44 -56.5 -66.5t-85.5 -22.5q-57 0 -93.5 26t-36.5 69q0 27 15.5 44.5t43.5 17.5q25 0 39.5 -15.5t14.5 -41.5q0 -13 -4.5 -24.5t-12.5 -18.5q2 -8 12.5 -11.5t22.5 -3.5q31 0 43.5 28t12.5 101v494l-77 19v46h184zM90 698
q0 30 18 48t48 18q31 0 49 -18t18 -48q0 -29 -18 -47t-49 -18t-48.5 17.5t-17.5 47.5z" />
    <glyph glyph-name="k" unicode="k" horiz-adv-x="600" 
d="M364 46l59 19l-147 197l-69 -58v-139l77 -19v-46h-261v46l77 19v650l-77 19v46h184v-519l199 214l-62 19v46h225v-46l-78 -19l-146 -150l195 -262l53 -17v-46h-229v46z" />
    <glyph glyph-name="l" unicode="l" horiz-adv-x="314" 
d="M103 65v650l-77 19v46h184v-715l77 -19v-46h-261v46z" />
    <glyph glyph-name="m" unicode="m" horiz-adv-x="982" 
d="M111 65v410l-77 19v46h154l22 -100h4q29 50 77.5 80t103.5 30q41 0 73 -15.5t47 -38.5q16 -25 26 -66q32 56 83 88t109 32q40 0 72 -15.5t49 -42.5q12 -19 19 -49t10 -77.5t3 -120.5v-180l77 -19v-46h-251v46l67 19v213q0 65 -3.5 97t-12.5 50q-11 24 -31 35.5t-45 11.5
t-48 -9t-42 -26q-22 -20 -32.5 -47t-12.5 -68v-257l67 -19v-46h-241v46l67 19v213q0 65 -3.5 97t-12.5 50q-11 24 -31 35.5t-45 11.5t-48 -9t-42 -26q-22 -20 -32.5 -47t-12.5 -68v-257l67 -19v-46h-251v46z" />
    <glyph glyph-name="n" unicode="n" horiz-adv-x="661" 
d="M111 65v410l-77 19v46h154l22 -100h4q30 51 81 80.5t109 29.5q83 0 123 -54q20 -28 28.5 -78.5t8.5 -136.5v-216l77 -19v-46h-251v46l67 19v213q0 63 -3.5 95.5t-12.5 51.5q-11 25 -32.5 36.5t-50.5 11.5q-55 0 -95 -35q-41 -38 -45 -116v-257l67 -19v-46h-251v46z" />
    <glyph glyph-name="o" unicode="o" horiz-adv-x="586" 
d="M543 273q0 -64 -19 -122t-54 -96q-31 -34 -76 -49.5t-103 -15.5q-57 0 -101.5 15.5t-75.5 48.5q-34 37 -52.5 92t-18.5 119q0 65 19 123.5t54 96.5q33 34 76.5 49.5t101.5 15.5q57 0 102 -15.5t76 -48.5q35 -37 53 -93t18 -120zM171 215q4 -47 18 -80t36 -53
q22 -16 45.5 -22t52.5 0q57 17 80 89q12 39 15 84t-3 93q-4 46 -18 79.5t-36 52.5q-21 17 -45 22.5t-54 -0.5q-57 -17 -78 -89q-24 -78 -13 -176z" />
    <glyph glyph-name="p" unicode="p" horiz-adv-x="624" 
d="M207 -115l97 -19v-46h-281v46l77 19v590l-77 19v46h154l15 -77q32 50 72.5 68.5t91.5 18.5t92.5 -15t67.5 -48q30 -38 47.5 -91.5t17.5 -115.5q0 -64 -19.5 -120.5t-52.5 -94.5q-56 -65 -161 -65q-43 0 -77.5 16.5t-63.5 57.5v-189zM206 279q0 -57 9 -100t25 -69
q16 -25 39.5 -39t58.5 -14q33 0 56.5 12.5t38.5 34.5q17 25 25 69t8 98q0 56 -9 99.5t-25 71.5q-16 26 -39 38.5t-58 12.5q-33 0 -57 -11.5t-38 -34.5q-15 -26 -24.5 -68t-9.5 -100z" />
    <glyph glyph-name="q" unicode="q" horiz-adv-x="606" 
d="M418 -115v182q-29 -38 -65.5 -52.5t-80.5 -14.5q-51 0 -92 15t-68 48q-31 38 -50 91.5t-19 115.5q0 64 18.5 120.5t49.5 94.5q53 65 161 65q53 0 94 -24.5t72 -88.5l30 103h57v-655l77 -19v-46h-281v46zM418 271q0 116 -35 169q-16 26 -38.5 39.5t-58.5 13.5
q-30 0 -55.5 -11.5t-40.5 -35.5q-18 -25 -25 -68t-7 -100q0 -113 32 -168q17 -27 40 -40t57 -13q35 0 59 11.5t37 34.5q17 27 26 69t9 99z" />
    <glyph glyph-name="r" unicode="r" horiz-adv-x="463" 
d="M335 477q-3 2 -6.5 3t-7.5 1q-11 0 -25 -12t-26.5 -30t-21.5 -39q-14 -34 -22 -73t-8 -85v-177l108 -19v-46h-292v46l77 19v415l-77 19v41h154l22 -132h4q23 68 62 105t86 37q39 0 65 -24.5t26 -65.5q0 -30 -16.5 -50t-44.5 -20q-31 0 -46.5 17.5t-15.5 42.5q0 6 0.5 11
t4.5 16z" />
    <glyph glyph-name="s" unicode="s" horiz-adv-x="507" 
d="M244 41q54 0 89.5 21.5t35.5 60.5q0 31 -22 50.5t-54.5 31.5t-65.5 22q-41 13 -79 31t-62 50t-24 83q0 72 52.5 115.5t146.5 43.5q84 0 133.5 -35t49.5 -94q0 -32 -15.5 -50.5t-43.5 -18.5q-26 0 -42 14.5t-16 35.5q0 19 10 34.5t26 22.5q-15 20 -38.5 30t-59.5 10
q-56 0 -83.5 -21t-27.5 -60q0 -29 13.5 -46.5t39.5 -29t63 -23.5q36 -11 70.5 -23.5t63 -31t45.5 -45.5t17 -67q0 -51 -29.5 -87.5t-80.5 -55.5t-116 -19q-90 0 -144 36t-54 96q0 35 17 55t46 20q24 0 42 -14t18 -37q0 -19 -11 -36t-25 -25q12 -18 42 -31t73 -13z" />
    <glyph glyph-name="t" unicode="t" horiz-adv-x="349" 
d="M8 485v41l97 14l13 125l94 14v-139h128v-55h-128v-347q0 -34 1 -46.5t4 -20.5q3 -7 11 -9.5t26 -2.5h70v-34q-52 -18 -91 -26.5t-62 -8.5q-45 0 -58 37q-4 12 -6 31t-2 56v371h-97z" />
    <glyph glyph-name="u" unicode="u" horiz-adv-x="639" 
d="M201 540v-278q0 -64 3.5 -96.5t11.5 -50.5q10 -24 31 -36.5t46 -12.5q27 0 51 10t43 27q41 37 45 115v257l-87 19v46h194v-475l77 -19v-46l-165 -10l-11 110h-4q-29 -51 -79 -80.5t-107 -29.5q-38 0 -69.5 14.5t-49.5 39.5q-19 28 -28 79t-9 136v216l-67 19v46h174z" />
    <glyph glyph-name="v" unicode="v" horiz-adv-x="597" 
d="M355 -10h-113l-177 485l-56 19v46h234v-46l-66 -19l134 -401h4l135 401l-62 19v46h200v-46l-58 -19z" />
    <glyph glyph-name="w" unicode="w" horiz-adv-x="881" 
d="M176 475l97 -345l12 -59h5l11 59l113 420h82l116 -420l12 -59h4l12 59l93 345l-65 19v46h200v-46l-54 -19l-147 -485h-113l-114 380l-111 -380h-113l-152 485l-53 19v46h234v-46z" />
    <glyph glyph-name="x" unicode="x" horiz-adv-x="573" 
d="M190 475l113 -147l108 147l-60 19v46h198v-46l-57 -19l-158 -188l173 -223l55 -18v-46h-229v46l57 19l-120 154l-115 -154l60 -19v-46h-198v46l56 19l166 195l-166 215l-56 19v46h217v-46z" />
    <glyph glyph-name="y" unicode="y" horiz-adv-x="593" 
d="M519 475l-164 -451q-30 -77 -54.5 -124.5t-54 -68.5t-75.5 -21q-47 0 -80.5 25t-33.5 63q0 30 17.5 50t45.5 20q25 0 39 -12.5t14 -36.5q0 -12 -7 -26.5t-21 -21.5q2 -10 12 -13.5t17 -3.5q14 0 26 6.5t25.5 28t29.5 67.5l12 37l-205 482l-60 19v46h234l8 -46l-71 -19
l140 -377h4l121 377l-58 19v46h200v-46z" />
    <glyph glyph-name="z" unicode="z" horiz-adv-x="545" 
d="M408 61l20 136h67v-197h-453v61l323 418h-219l-24 -131h-67v192h436v-61l-322 -418h239z" />
    <glyph glyph-name="braceleft" unicode="{" horiz-adv-x="411" 
d="M5 322v69h34q55 0 80 27t25 85q0 18 -1.5 50t-3.5 64t-2 50q0 91 60.5 136.5t191.5 51.5v-65q-81 -5 -114.5 -31t-33.5 -85q0 -9 0.5 -27.5t1.5 -41.5t1.5 -43.5t0.5 -32.5q0 -69 -25.5 -108t-83.5 -59v-5q59 -13 84 -52.5t25 -119.5q0 -14 -0.5 -36t-1.5 -45.5
t-1.5 -43.5t-0.5 -29q0 -59 34 -85.5t114 -30.5v-65q-131 6 -191.5 51.5t-60.5 137.5q0 14 1 36.5t2.5 48.5t2.5 48.5t1 36.5q0 59 -24.5 86t-80.5 27h-34z" />
    <glyph glyph-name="bar" unicode="|" horiz-adv-x="248" 
d="M91 -170v940h67v-940h-67z" />
    <glyph glyph-name="braceright" unicode="}" horiz-adv-x="411" 
d="M406 391v-69h-34q-55 0 -80 -27t-25 -86q0 -14 1 -36.5t2.5 -48.5t2.5 -48.5t1 -36.5q0 -92 -61 -137.5t-191 -51.5v65q80 4 114 30.5t34 85.5q0 9 -0.5 29t-1.5 43.5t-1.5 45.5t-0.5 36q0 80 25.5 119.5t83.5 52.5v5q-58 20 -83.5 59t-25.5 108q0 12 0.5 32.5t1.5 43.5
t1.5 41.5t0.5 27.5q0 59 -33.5 85t-114.5 31v65q130 -6 191 -51.5t61 -136.5q0 -18 -1.5 -50t-3.5 -64t-2 -50q0 -58 25 -85t80 -27h34z" />
    <glyph glyph-name="asciitilde" unicode="~" horiz-adv-x="484" 
d="M71 299q16 125 102 125q34 0 56.5 -13.5t42 -27.5t43.5 -14q45 0 54 50h50q-17 -131 -102 -131q-33 0 -56 14t-42.5 28t-43.5 14q-44 0 -54 -45h-50z" />
    <glyph glyph-name="uni00A0" unicode="&#xa0;" horiz-adv-x="248" 
 />
    <glyph glyph-name="exclamdown" unicode="&#xa1;" horiz-adv-x="267" 
d="M100 335h66q0 -39 2.5 -82.5t5 -85.5t5.5 -75.5t3 -51.5q4 -37 8.5 -73t4.5 -78q0 -32 -13 -55.5t-47 -23.5q-32 0 -48 22.5t-16 57.5q0 41 5 77t8 73q2 18 4.5 51.5t5 75.5t4.5 85.5t2 82.5zM201 487q0 -31 -18 -49.5t-50 -18.5t-49.5 18.5t-17.5 49.5q0 32 18 50t50 18
q31 0 49 -18t18 -50z" />
    <glyph glyph-name="cent" unicode="&#xa2;" horiz-adv-x="552" 
d="M263 -108v99q-126 9 -179 111q-36 67 -36 162q0 117 57 193t158 90v105h57v-102q84 -3 137 -45.5t53 -111.5q0 -39 -18 -60t-51 -21q-31 0 -47.5 18.5t-16.5 45.5q0 25 13.5 43t36.5 25q-14 24 -41.5 36t-65.5 14v-431q42 1 82.5 21t69.5 56l38 -30q-38 -55 -84.5 -83.5
t-105.5 -34.5v-100h-57zM189 134q12 -25 30.5 -41t43.5 -24v418q-52 -15 -76 -65.5t-24 -144.5q0 -51 6.5 -85t19.5 -58z" />
    <glyph glyph-name="sterling" unicode="&#xa3;" horiz-adv-x="613" 
d="M74 321v68h124q-21 44 -30.5 78t-9.5 65q0 79 56 124t154 45q83 0 130 -35t47 -95q0 -31 -15 -50t-43 -19q-26 0 -42.5 14t-16.5 37q0 18 9.5 33.5t26.5 23.5q-14 21 -37.5 30.5t-57.5 9.5q-57 0 -85.5 -23t-28.5 -72q0 -31 10 -72t32 -94h173v-68h-153q5 -28 6.5 -45
t1.5 -31q0 -27 -5 -55.5t-16 -58.5q51 -29 78.5 -39.5t52.5 -10.5q35 0 54 16t27 53h55q-11 -85 -39.5 -122.5t-80.5 -37.5q-20 0 -41 7t-52 25.5t-82 53.5q-60 -86 -134 -86q-49 0 -78.5 25.5t-29.5 68.5q0 30 14.5 51.5t39 33t55.5 11.5q21 0 47.5 -4.5t48.5 -12.5
q3 11 4.5 27.5t1.5 34.5q0 28 -3.5 50t-14.5 46h-153zM147 46q44 0 67 61q-14 8 -32.5 13t-31.5 5q-22 0 -35 -11t-13 -30q0 -38 45 -38z" />
    <glyph glyph-name="currency" unicode="&#xa4;" horiz-adv-x="575" 
d="M292 177q-54 0 -95 22t-63.5 61.5t-22.5 90.5q0 50 24 90t65 63t92 23q54 0 95 -22t64.5 -61.5t23.5 -90.5q0 -49 -24.5 -89.5t-65.5 -63.5t-93 -23zM296 237q44 0 71.5 31.5t27.5 82.5q0 50 -29 82t-76 32q-44 0 -72 -32t-28 -82q0 -48 30 -81t76 -33zM180 420l-109 118
l39 38l117 -109zM404 419l-47 48l117 109l39 -38zM173 289l48 -48l-118 -108l-39 38zM411 289l109 -118l-39 -38l-118 109z" />
    <glyph glyph-name="yen" unicode="&#xa5;" horiz-adv-x="747" 
d="M153 278v68h127l-168 305l-83 21v48h286v-48l-84 -21l162 -303h4l165 303l-81 21v48h237v-48l-82 -21l-167 -305h123v-68h-157v-69h157v-69h-157v-71l94 -21v-48h-298v48l94 21v71h-172v69h172v57l-7 12h-165z" />
    <glyph glyph-name="brokenbar" unicode="&#xa6;" horiz-adv-x="252" 
d="M93 -170v418h67v-418h-67zM93 368v402h67v-402h-67z" />
    <glyph glyph-name="section" unicode="&#xa7;" horiz-adv-x="533" 
d="M489 250q0 -52 -25.5 -91.5t-69.5 -62.5q55 -49 55 -121q0 -78 -55 -121.5t-150 -43.5q-84 0 -130.5 33.5t-46.5 92.5q0 33 15.5 52.5t43.5 19.5q25 0 41.5 -14t16.5 -37q0 -18 -10 -34t-31 -22q14 -21 36.5 -30.5t59.5 -9.5q60 0 89 22.5t29 67.5q0 34 -16 56t-44 39
t-66 36q-47 23 -89.5 50t-69.5 65t-27 93q0 52 25.5 91.5t68.5 62.5q-28 25 -41 54t-13 66q0 79 51.5 122.5t145.5 43.5q85 0 135 -35t50 -94q0 -32 -15.5 -50.5t-44.5 -18.5q-27 0 -42 14t-15 36q0 18 10 34t26 23q-16 21 -40 30.5t-61 9.5q-56 0 -82 -21.5t-26 -65.5
q0 -35 14.5 -57t42.5 -38.5t65 -35.5q48 -24 91.5 -51t71 -65t27.5 -95zM250 377l-26 13t-43 24q-17 -13 -28 -39.5t-11 -55.5q0 -33 15.5 -59t47.5 -48.5t80 -48.5q10 -4 27.5 -13t43.5 -24q18 14 27 39.5t9 54.5q0 31 -13 56.5t-44 50t-85 50.5z" />
    <glyph glyph-name="dieresis" unicode="&#xa8;" horiz-adv-x="407" 
d="M25 700q0 30 17 47t46 17t46.5 -17.5t17.5 -46.5t-17 -46t-47 -17q-29 0 -46 17t-17 46zM255 700q0 30 17 47t46 17t46.5 -17.5t17.5 -46.5t-17 -46t-47 -17q-29 0 -46 17t-17 46z" />
    <glyph glyph-name="copyright" unicode="&#xa9;" horiz-adv-x="845" 
d="M421 -10q-79 0 -147 28.5t-118.5 79t-78.5 118t-28 145.5t28 145t78.5 117.5t118.5 78.5t147 28q82 0 150.5 -28t119 -78.5t78.5 -117.5t28 -145t-28.5 -145.5t-79.5 -118t-119 -79t-149 -28.5zM421 35q69 0 127.5 24.5t102 69t67.5 104t24 128.5t-24 128t-67 103
t-101.5 68.5t-128.5 24.5q-67 0 -124.5 -24t-100 -68.5t-66.5 -103t-24 -128.5t24 -129.5t66.5 -103.5t100 -68.5t124.5 -24.5zM421 520q-49 0 -72 -32q-15 -21 -23.5 -51.5t-8.5 -67.5q0 -34 7.5 -63.5t20.5 -50.5q13 -22 34.5 -32.5t48.5 -10.5q43 0 69.5 23t35.5 67h39
q-13 -68 -50.5 -100.5t-101.5 -32.5q-74 0 -118 42q-28 27 -43.5 66t-15.5 83q0 50 19 94.5t53 71.5q21 18 48 25.5t59 7.5q30 0 51 -8.5t42 -30.5l10 33h39v-126h-42q-7 47 -33.5 70t-67.5 23z" />
    <glyph glyph-name="ordfeminine" unicode="&#xaa;" horiz-adv-x="376" 
d="M51 492q0 44 39.5 69t129.5 40q-6 55 -16 72q-6 12 -17.5 17.5t-23.5 5.5q-15 0 -25.5 -6t-14.5 -15q8 -4 11 -11.5t3 -12.5q0 -15 -11.5 -23t-27.5 -8t-26.5 10t-10.5 28q0 23 17 39t43 24.5t54 8.5q23 0 44.5 -6t36.5 -21q18 -17 26 -47.5t8 -73.5v-75q0 -27 3.5 -37.5
t15.5 -10.5h25v-21q-22 -8 -40.5 -12t-30.5 -4q-21 0 -27 12.5t-6 47.5h-4q-15 -27 -41.5 -43.5t-58.5 -16.5q-35 0 -55 18.5t-20 51.5zM158 465q10 0 23 5t23 18q8 9 12.5 22t4.5 31q0 8 -0.5 16.5t-1.5 16.5q-54 -12 -75 -28t-21 -43q0 -38 35 -38z" />
    <glyph glyph-name="guillemotleft" unicode="&#xab;" horiz-adv-x="539" 
d="M148 255l133 -201l-38 -38l-205 218v38l204 216l38 -30zM359 255l133 -201l-38 -38l-205 218v38l204 216l38 -30z" />
    <glyph glyph-name="logicalnot" unicode="&#xac;" horiz-adv-x="573" 
d="M69 323v80h429v-219h-70v139h-359z" />
    <glyph glyph-name="registered" unicode="&#xae;" horiz-adv-x="631" 
d="M314 230q-72 0 -129.5 33t-90.5 90t-33 128q0 72 33 128.5t90.5 88.5t129.5 32q74 0 132 -32t91.5 -88.5t33.5 -128.5q0 -71 -33.5 -128t-91.5 -90t-132 -33zM314 272q98 0 151.5 57t53.5 152t-53.5 151t-151.5 56q-93 0 -147 -56t-54 -151t54 -152t147 -57zM393 491
q-7 -5 -15 -8.5t-20 -6.5q3 -5 6.5 -9t6.5 -9l44 -75l32 -7v-20h-89v20l-47 92h-29v-84l38 -8v-20h-119v20l30 8v201l-30 8v20h138q38 0 59 -19q11 -9 16.5 -21t5.5 -28q0 -15 -7 -29.5t-20 -24.5zM282 499h36q10 0 19.5 3.5t15.5 9.5t9 14t3 18t-3.5 18t-10.5 12
q-5 4 -13.5 6t-21.5 2h-34v-83z" />
    <glyph glyph-name="macron" unicode="&#xaf;" horiz-adv-x="329" 
d="M25 655v75h279v-75h-279z" />
    <glyph glyph-name="degree" unicode="&#xb0;" horiz-adv-x="364" 
d="M183 458q-63 0 -101 37.5t-38 97.5q0 39 18 70t49.5 49t71.5 18q61 0 100 -37.5t39 -97.5q0 -39 -18.5 -70t-50 -49t-70.5 -18zM185 499q34 0 55.5 26t21.5 68t-22.5 68.5t-58.5 26.5q-34 0 -55.5 -26t-21.5 -68q0 -41 23 -68t58 -27z" />
    <glyph glyph-name="plusminus" unicode="&#xb1;" horiz-adv-x="525" 
d="M68 365v62h160v153h68v-153h160v-62h-160v-153h-68v153h-160zM68 65v62h388v-62h-388z" />
    <glyph glyph-name="uni00B2" unicode="&#xb2;" horiz-adv-x="329" 
d="M108 454h119l11 50h37v-103h-227v30q0 28 16 50.5t40 42.5t48 39.5t40 41.5t16 49q0 21 -16.5 31t-39.5 10q-14 0 -26.5 -3.5t-21 -10.5t-11.5 -19q14 0 21.5 -7.5t7.5 -21.5q0 -13 -8 -21t-25 -8q-19 0 -27.5 10.5t-8.5 29.5q0 39 29 62.5t78 23.5q52 0 81.5 -23.5
t29.5 -63.5q0 -31 -16.5 -54.5t-40.5 -41.5t-48.5 -32.5t-41 -29t-16.5 -31.5z" />
    <glyph glyph-name="uni00B3" unicode="&#xb3;" horiz-adv-x="325" 
d="M268 646q0 -30 -18 -49.5t-50 -24.5v-4q73 -14 73 -77q0 -42 -33.5 -68t-88.5 -26q-46 0 -74.5 23t-28.5 61q0 20 8.5 30.5t25.5 10.5q18 0 26 -8.5t8 -21.5q0 -12 -6.5 -19.5t-17.5 -7.5q3 -17 18 -24.5t36 -7.5q29 0 44.5 12.5t15.5 39.5q0 31 -20.5 49t-56.5 18v33
q34 0 55 17.5t21 47.5q0 23 -14.5 35t-41.5 12q-21 0 -36.5 -8t-18.5 -22q13 0 21 -7t8 -20t-8.5 -22t-26.5 -9q-17 0 -26.5 12t-9.5 31q0 35 28.5 56.5t76.5 21.5q51 0 81 -23t30 -61z" />
    <glyph glyph-name="acute" unicode="&#xb4;" horiz-adv-x="259" 
d="M35 639l49 76q30 46 48.5 63t41.5 17q25 0 37 -9.5t12 -27.5q0 -15 -20 -35.5t-67 -55.5l-38 -28h-63z" />
    <glyph glyph-name="uni03BC" unicode="&#xb5;" horiz-adv-x="673" 
d="M110 -179v654l-67 19v46h174v-278q0 -64 3.5 -97t11.5 -51q11 -23 32 -35.5t47 -12.5q54 0 93 36q21 21 31 47.5t13 68.5v257l-87 19v46h194v-475l77 -19v-46l-165 -10l-11 110h-4q-29 -52 -69 -81t-86 -29q-31 0 -55 17.5t-31 51.5h-4l10 -238h-107z" />
    <glyph glyph-name="paragraph" unicode="&#xb6;" horiz-adv-x="686" 
d="M483 -96v697h-60v-697h-80v294h-66q-121 0 -184 59.5t-63 174.5t64 176.5t182 61.5h371v-48l-84 -21v-697h-80z" />
    <glyph glyph-name="periodcentered" unicode="&#xb7;" horiz-adv-x="261" 
d="M63 298q0 32 18 51t50 19q31 0 50 -19.5t19 -50.5t-19 -49.5t-50 -18.5q-33 0 -50.5 18t-17.5 50z" />
    <glyph glyph-name="cedilla" unicode="&#xb8;" horiz-adv-x="254" 
d="M111 -210q-53 0 -91 28l28 39q29 -20 59 -20q21 0 33.5 9t12.5 23q0 15 -13.5 22.5t-37.5 7.5q-11 0 -22 -1.5t-22 -4.5l-14 24l77 100h54l-45 -74l1 -3q56 0 79.5 -17t23.5 -49q0 -40 -36 -62t-87 -22z" />
    <glyph glyph-name="uni00B9" unicode="&#xb9;" horiz-adv-x="309" 
d="M129 432v232h-60v36q16 0 41 5t32 15h49v-288l48 -9v-31h-170v31z" />
    <glyph glyph-name="ordmasculine" unicode="&#xba;" horiz-adv-x="373" 
d="M327 579q0 -35 -10.5 -67.5t-30.5 -53.5q-17 -18 -42 -27t-59 -9q-33 0 -58 9t-41 26q-19 20 -29 50.5t-10 64.5q0 36 11 68.5t30 53.5q34 36 100 36q32 0 57.5 -9t42.5 -26q19 -20 29 -50.5t10 -65.5zM121 578q0 -58 20 -91q7 -12 18.5 -19t28.5 -7q29 0 46 22
q19 24 19 91q0 29 -4.5 52t-15.5 39q-8 13 -19.5 19.5t-27.5 6.5q-15 0 -26.5 -6t-18.5 -16q-10 -16 -15 -38.5t-5 -52.5z" />
    <glyph glyph-name="guillemotright" unicode="&#xbb;" horiz-adv-x="539" 
d="M48 54l133 201l-132 203l38 30l204 -216v-38l-205 -218zM259 54l133 201l-132 203l38 30l204 -216v-38l-205 -218z" />
    <glyph glyph-name="onequarter" unicode="&#xbc;" horiz-adv-x="619" 
d="M91 -10l386 740h64l-386 -740h-64zM107 432v232h-60v36q16 0 41 5t32 15h49v-288l48 -9v-31h-170v31zM474 39v48h-131l-5 36l136 205h62v-203h49l-6 -38h-43v-48l35 -9v-30h-145v30zM474 260l-87 -135h87v135z" />
    <glyph glyph-name="onehalf" unicode="&#xbd;" horiz-adv-x="645" 
d="M89 -10l386 740h64l-386 -740h-64zM105 432v232h-60v36q16 0 41 5t32 15h49v-288l48 -9v-31h-170v31zM436 53h119l11 50h37v-103h-227v30q0 28 16 50.5t40 42.5t48 39.5t40 41.5t16 49q0 21 -16.5 31t-39.5 10q-14 0 -26.5 -3.5t-21 -10.5t-11.5 -19q14 0 21.5 -7.5
t7.5 -21.5q0 -13 -8 -21t-25 -8q-19 0 -27.5 10.5t-8.5 29.5q0 39 29 62.5t78 23.5q52 0 81.5 -23.5t29.5 -63.5q0 -31 -16.5 -54.5t-40.5 -41.5t-48.5 -32.5t-41 -29t-16.5 -31.5z" />
    <glyph glyph-name="threequarters" unicode="&#xbe;" horiz-adv-x="630" 
d="M102 -10l386 740h64l-386 -740h-64zM485 39v48h-131l-5 36l136 205h62v-203h49l-6 -38h-43v-48l35 -9v-30h-145v30zM485 260l-87 -135h87v135zM260 646q0 -30 -18 -49.5t-50 -24.5v-4q73 -14 73 -77q0 -42 -33.5 -68t-88.5 -26q-46 0 -74.5 23t-28.5 61q0 20 8.5 30.5
t25.5 10.5q18 0 26 -8.5t8 -21.5q0 -12 -6.5 -19.5t-17.5 -7.5q3 -17 18 -24.5t36 -7.5q29 0 44.5 12.5t15.5 39.5q0 31 -20.5 49t-56.5 18v33q34 0 55 17.5t21 47.5q0 23 -14.5 35t-41.5 12q-21 0 -36.5 -8t-18.5 -22q13 0 21 -7t8 -20t-8.5 -22t-26.5 -9q-17 0 -26.5 12
t-9.5 31q0 35 28.5 56.5t76.5 21.5q51 0 81 -23t30 -61z" />
    <glyph glyph-name="questiondown" unicode="&#xbf;" horiz-adv-x="484" 
d="M240 336h66q0 -41 -9 -72.5t-31.5 -63t-62.5 -71.5q-35 -35 -50 -67t-15 -72q0 -58 30.5 -89t86.5 -31q36 0 64.5 14.5t28.5 34.5q-20 11 -31.5 30.5t-11.5 41.5q0 28 19.5 47t51.5 19q34 0 56 -27t22 -67q0 -43 -27.5 -77.5t-75 -55t-105.5 -20.5q-65 0 -114.5 22
t-77 61.5t-27.5 90.5q0 45 22.5 85t77.5 91q44 40 68.5 68.5t34.5 53t10 54.5zM340 489q0 -32 -18.5 -50.5t-49.5 -18.5t-49 18.5t-18 50.5q0 31 17.5 49t49.5 18q31 0 49.5 -17.5t18.5 -49.5z" />
    <glyph glyph-name="Agrave" unicode="&#xc0;" horiz-adv-x="723" 
d="M526 69l-56 170h-260l-58 -170l83 -21v-48h-244v48l82 21l238 661h103l235 -661l80 -21v-48h-285v48zM342 627l-110 -325h217l-103 325h-4zM354 843l61 -76h-63l-47 28q-27 17 -43.5 28t-23.5 20.5t-7 20.5q0 14 10.5 23.5t29.5 9.5q15 0 27.5 -4.5t25.5 -16t30 -33.5z
" />
    <glyph glyph-name="Aacute" unicode="&#xc1;" horiz-adv-x="723" 
d="M526 69l-56 170h-260l-58 -170l83 -21v-48h-244v48l82 21l238 661h103l235 -661l80 -21v-48h-285v48zM342 627l-110 -325h217l-103 325h-4zM331 767l61 76q16 22 29.5 33.5t26 16t26.5 4.5q20 0 30.5 -9.5t10.5 -23.5q0 -11 -7 -20.5t-23 -20.5t-44 -28l-47 -28h-63z" />
    <glyph glyph-name="Acircumflex" unicode="&#xc2;" horiz-adv-x="723" 
d="M526 69l-56 170h-260l-58 -170l83 -21v-48h-244v48l82 21l238 661h103l235 -661l80 -21v-48h-285v48zM342 627l-110 -325h217l-103 325h-4zM534 769l-119 121h-105l-118 -121h63l108 61l108 -61h63z" />
    <glyph glyph-name="Atilde" unicode="&#xc3;" horiz-adv-x="723" 
d="M526 69l-56 170h-260l-58 -170l83 -21v-48h-244v48l82 21l238 661h103l235 -661l80 -21v-48h-285v48zM342 627l-110 -325h217l-103 325h-4zM174 769q6 63 36.5 94t80.5 31q26 0 44.5 -8.5t34.5 -19t32 -19t35 -8.5q30 0 45 13t20 37h50q-19 -131 -117 -131q-25 0 -44 8.5
t-35 19.5t-31.5 19.5t-35.5 8.5q-30 0 -45 -12t-20 -33h-50z" />
    <glyph glyph-name="Adieresis" unicode="&#xc4;" horiz-adv-x="723" 
d="M526 69l-56 170h-260l-58 -170l83 -21v-48h-244v48l82 21l238 661h103l235 -661l80 -21v-48h-285v48zM342 627l-110 -325h217l-103 325h-4zM184 833q0 31 17 48t47 17t47.5 -17.5t17.5 -47.5t-17 -47t-48 -17q-30 0 -47 17t-17 47zM414 833q0 31 17 48t47 17t47.5 -17.5
t17.5 -47.5t-17 -47t-48 -17q-30 0 -47 17t-17 47z" />
    <glyph glyph-name="Aring" unicode="&#xc5;" horiz-adv-x="723" 
d="M526 69l-56 170h-260l-58 -170l83 -21v-48h-244v48l82 21l238 661h103l235 -661l80 -21v-48h-285v48zM342 627l-110 -325h217l-103 325h-4zM283 824q0 34 23.5 55t56.5 21q34 0 57.5 -21t23.5 -55q0 -33 -23.5 -53.5t-57.5 -20.5q-33 0 -56.5 20.5t-23.5 53.5zM339 824
q0 -11 6.5 -17.5t17.5 -6.5q12 0 19 6.5t7 17.5q0 12 -7 19t-19 7q-11 0 -17.5 -7t-6.5 -19z" />
    <glyph glyph-name="AE" unicode="&#xc6;" horiz-adv-x="1062" 
d="M852 238h-61l-17 99h-157v-272h293l30 158h68v-223h-595v48l94 21v170h-243l-94 -170l76 -21v-48h-257v48l97 21l331 592l-81 11v48h650v-212h-62l-31 149h-276v-255h157l17 100h61v-264zM507 651l-17 2l-191 -351h208v349z" />
    <glyph glyph-name="Ccedilla" unicode="&#xc7;" horiz-adv-x="689" 
d="M373 671q-45 0 -79.5 -15.5t-57.5 -46.5q-29 -39 -46.5 -101t-17.5 -136q0 -71 15 -133t42 -104q25 -39 63 -57.5t93 -18.5q176 0 205 169h65q-47 -238 -284 -238q-138 0 -220 80q-49 48 -75 121t-26 162q0 101 33 183t93 131q76 63 201 63q62 0 101 -16t77 -57l20 63h65
v-226h-71q-14 88 -64 132.5t-132 44.5zM351 -210q-53 0 -91 28l28 39q29 -20 59 -20q21 0 33.5 9t12.5 23q0 15 -13.5 22.5t-37.5 7.5q-11 0 -22 -1.5t-22 -4.5l-14 24l77 100h54l-45 -74l1 -3q56 0 79.5 -17t23.5 -49q0 -40 -36 -62t-87 -22z" />
    <glyph glyph-name="Egrave" unicode="&#xc8;" horiz-adv-x="689" 
d="M480 238h-61l-18 99h-156v-272h293l30 158h68v-223h-595v48l94 21v582l-94 21v48h573v-212h-62l-31 149h-276v-255h156l18 100h61v-264zM363 843l61 -76h-63l-47 28q-27 17 -43.5 28t-23.5 20.5t-7 20.5q0 14 10.5 23.5t29.5 9.5q15 0 27.5 -4.5t25.5 -16t30 -33.5z" />
    <glyph glyph-name="Eacute" unicode="&#xc9;" horiz-adv-x="689" 
d="M480 238h-61l-18 99h-156v-272h293l30 158h68v-223h-595v48l94 21v582l-94 21v48h573v-212h-62l-31 149h-276v-255h156l18 100h61v-264zM317 767l61 76q16 22 29.5 33.5t26 16t26.5 4.5q20 0 30.5 -9.5t10.5 -23.5q0 -11 -7 -20.5t-23 -20.5t-44 -28l-47 -28h-63z" />
    <glyph glyph-name="Ecircumflex" unicode="&#xca;" horiz-adv-x="689" 
d="M480 238h-61l-18 99h-156v-272h293l30 158h68v-223h-595v48l94 21v582l-94 21v48h573v-212h-62l-31 149h-276v-255h156l18 100h61v-264zM520 769l-119 121h-105l-118 -121h63l108 61l108 -61h63z" />
    <glyph glyph-name="Edieresis" unicode="&#xcb;" horiz-adv-x="689" 
d="M480 238h-61l-18 99h-156v-272h293l30 158h68v-223h-595v48l94 21v582l-94 21v48h573v-212h-62l-31 149h-276v-255h156l18 100h61v-264zM169 833q0 31 17 48t47 17t47.5 -17.5t17.5 -47.5t-17 -47t-48 -17q-30 0 -47 17t-17 47zM399 833q0 31 17 48t47 17t47.5 -17.5
t17.5 -47.5t-17 -47t-48 -17q-30 0 -47 17t-17 47z" />
    <glyph glyph-name="Igrave" unicode="&#xcc;" horiz-adv-x="379" 
d="M245 651v-582l94 -21v-48h-298v48l94 21v582l-94 21v48h298v-48zM203 843l61 -76h-63l-47 28q-27 17 -43.5 28t-23.5 20.5t-7 20.5q0 14 10.5 23.5t29.5 9.5q15 0 27.5 -4.5t25.5 -16t30 -33.5z" />
    <glyph glyph-name="Iacute" unicode="&#xcd;" horiz-adv-x="379" 
d="M245 651v-582l94 -21v-48h-298v48l94 21v582l-94 21v48h298v-48zM158 767l61 76q16 22 29.5 33.5t26 16t26.5 4.5q20 0 30.5 -9.5t10.5 -23.5q0 -11 -7 -20.5t-23 -20.5t-44 -28l-47 -28h-63z" />
    <glyph glyph-name="Icircumflex" unicode="&#xce;" horiz-adv-x="379" 
d="M245 651v-582l94 -21v-48h-298v48l94 21v582l-94 21v48h298v-48zM361 769l-119 121h-105l-118 -121h63l108 61l108 -61h63z" />
    <glyph glyph-name="Idieresis" unicode="&#xcf;" horiz-adv-x="379" 
d="M245 651v-582l94 -21v-48h-298v48l94 21v582l-94 21v48h298v-48zM10 833q0 31 17 48t47 17t47.5 -17.5t17.5 -47.5t-17 -47t-48 -17q-30 0 -47 17t-17 47zM240 833q0 31 17 48t47 17t47.5 -17.5t17.5 -47.5t-17 -47t-48 -17q-30 0 -47 17t-17 47z" />
    <glyph glyph-name="Eth" unicode="&#xd0;" horiz-adv-x="776" 
d="M51 327v72h84v252l-84 21v48h346q149 0 232 -84q47 -48 72 -118t25 -150q0 -84 -26.5 -157.5t-73.5 -123.5q-83 -87 -238 -87h-337v48l84 21v258h-84zM245 65h145q106 0 156 61q28 35 41.5 92t13.5 136q0 156 -55 232q-52 69 -166 69h-135v-256h127v-72h-127v-262z" />
    <glyph glyph-name="Ntilde" unicode="&#xd1;" horiz-adv-x="806" 
d="M130 69v582l-84 21v48h204l361 -545v476l-84 21v48h243v-48l-84 -21v-651h-85l-396 591v-522l84 -21v-48h-243v48zM214 769q6 63 36.5 94t80.5 31q26 0 44.5 -8.5t34.5 -19t32 -19t35 -8.5q30 0 45 13t20 37h50q-19 -131 -117 -131q-25 0 -44 8.5t-35 19.5t-31.5 19.5
t-35.5 8.5q-30 0 -45 -12t-20 -33h-50z" />
    <glyph glyph-name="Ograve" unicode="&#xd2;" horiz-adv-x="767" 
d="M718 368q0 -86 -26 -162.5t-74 -128.5q-42 -44 -100.5 -65.5t-136.5 -21.5t-137 21t-98 63q-45 47 -70.5 119.5t-25.5 158.5q0 87 26.5 163.5t73.5 127.5q42 45 98.5 66t135.5 21q77 0 135.5 -20.5t101.5 -63.5q48 -49 72.5 -122.5t24.5 -155.5zM175 372q0 -82 14 -145
t40 -103q25 -37 63.5 -55.5t94.5 -18.5q102 0 151 66q27 36 41 96t14 142t-14.5 143.5t-40.5 99.5t-65.5 56t-92.5 18q-51 0 -88 -17t-62 -49q-55 -73 -55 -233zM400 843l61 -76h-63l-47 28q-27 17 -43.5 28t-23.5 20.5t-7 20.5q0 14 10.5 23.5t29.5 9.5q15 0 27.5 -4.5
t25.5 -16t30 -33.5z" />
    <glyph glyph-name="Oacute" unicode="&#xd3;" horiz-adv-x="767" 
d="M718 368q0 -86 -26 -162.5t-74 -128.5q-42 -44 -100.5 -65.5t-136.5 -21.5t-137 21t-98 63q-45 47 -70.5 119.5t-25.5 158.5q0 87 26.5 163.5t73.5 127.5q42 45 98.5 66t135.5 21q77 0 135.5 -20.5t101.5 -63.5q48 -49 72.5 -122.5t24.5 -155.5zM175 372q0 -82 14 -145
t40 -103q25 -37 63.5 -55.5t94.5 -18.5q102 0 151 66q27 36 41 96t14 142t-14.5 143.5t-40.5 99.5t-65.5 56t-92.5 18q-51 0 -88 -17t-62 -49q-55 -73 -55 -233zM352 767l61 76q16 22 29.5 33.5t26 16t26.5 4.5q20 0 30.5 -9.5t10.5 -23.5q0 -11 -7 -20.5t-23 -20.5t-44 -28
l-47 -28h-63z" />
    <glyph glyph-name="Ocircumflex" unicode="&#xd4;" horiz-adv-x="767" 
d="M718 368q0 -86 -26 -162.5t-74 -128.5q-42 -44 -100.5 -65.5t-136.5 -21.5t-137 21t-98 63q-45 47 -70.5 119.5t-25.5 158.5q0 87 26.5 163.5t73.5 127.5q42 45 98.5 66t135.5 21q77 0 135.5 -20.5t101.5 -63.5q48 -49 72.5 -122.5t24.5 -155.5zM175 372q0 -82 14 -145
t40 -103q25 -37 63.5 -55.5t94.5 -18.5q102 0 151 66q27 36 41 96t14 142t-14.5 143.5t-40.5 99.5t-65.5 56t-92.5 18q-51 0 -88 -17t-62 -49q-55 -73 -55 -233zM555 769l-119 121h-105l-118 -121h63l108 61l108 -61h63z" />
    <glyph glyph-name="Otilde" unicode="&#xd5;" horiz-adv-x="767" 
d="M718 368q0 -86 -26 -162.5t-74 -128.5q-42 -44 -100.5 -65.5t-136.5 -21.5t-137 21t-98 63q-45 47 -70.5 119.5t-25.5 158.5q0 87 26.5 163.5t73.5 127.5q42 45 98.5 66t135.5 21q77 0 135.5 -20.5t101.5 -63.5q48 -49 72.5 -122.5t24.5 -155.5zM175 372q0 -82 14 -145
t40 -103q25 -37 63.5 -55.5t94.5 -18.5q102 0 151 66q27 36 41 96t14 142t-14.5 143.5t-40.5 99.5t-65.5 56t-92.5 18q-51 0 -88 -17t-62 -49q-55 -73 -55 -233zM195 769q6 63 36.5 94t80.5 31q26 0 44.5 -8.5t34.5 -19t32 -19t35 -8.5q30 0 45 13t20 37h50
q-19 -131 -117 -131q-25 0 -44 8.5t-35 19.5t-31.5 19.5t-35.5 8.5q-30 0 -45 -12t-20 -33h-50z" />
    <glyph glyph-name="Odieresis" unicode="&#xd6;" horiz-adv-x="767" 
d="M718 368q0 -86 -26 -162.5t-74 -128.5q-42 -44 -100.5 -65.5t-136.5 -21.5t-137 21t-98 63q-45 47 -70.5 119.5t-25.5 158.5q0 87 26.5 163.5t73.5 127.5q42 45 98.5 66t135.5 21q77 0 135.5 -20.5t101.5 -63.5q48 -49 72.5 -122.5t24.5 -155.5zM175 372q0 -82 14 -145
t40 -103q25 -37 63.5 -55.5t94.5 -18.5q102 0 151 66q27 36 41 96t14 142t-14.5 143.5t-40.5 99.5t-65.5 56t-92.5 18q-51 0 -88 -17t-62 -49q-55 -73 -55 -233zM204 833q0 31 17 48t47 17t47.5 -17.5t17.5 -47.5t-17 -47t-48 -17q-30 0 -47 17t-17 47zM434 833q0 31 17 48
t47 17t47.5 -17.5t17.5 -47.5t-17 -47t-48 -17q-30 0 -47 17t-17 47z" />
    <glyph glyph-name="multiply" unicode="&#xd7;" horiz-adv-x="506" 
d="M112 155l-56 56l142 141l-142 141l56 56l141 -142l141 142l56 -56l-142 -141l142 -141l-56 -56l-141 142z" />
    <glyph glyph-name="Oslash" unicode="&#xd8;" horiz-adv-x="764" 
d="M68 -10l526 740h81l-526 -740h-81zM716 368q0 -86 -26 -162.5t-74 -128.5q-42 -44 -100.5 -65.5t-136.5 -21.5t-137 21t-98 63q-45 47 -70.5 119.5t-25.5 158.5q0 87 26.5 163.5t73.5 127.5q42 45 98.5 66t135.5 21q77 0 135.5 -20.5t101.5 -63.5q48 -49 72.5 -122.5
t24.5 -155.5zM173 372q0 -82 14 -145t40 -103q25 -37 63.5 -55.5t94.5 -18.5q102 0 151 66q27 36 41 96t14 142t-14.5 143.5t-40.5 99.5t-65.5 56t-92.5 18q-51 0 -88 -17t-62 -49q-55 -73 -55 -233z" />
    <glyph glyph-name="Ugrave" unicode="&#xd9;" horiz-adv-x="776" 
d="M589 264v387l-84 21v48h241v-48l-84 -21v-408q0 -124 -69.5 -189t-203.5 -65q-133 0 -204.5 66.5t-71.5 188.5v407l-84 21v48h278v-48l-84 -21v-385q0 -217 188 -217q94 0 136 51t42 164zM422 843l61 -76h-63l-47 28q-27 17 -43.5 28t-23.5 20.5t-7 20.5q0 14 10.5 23.5
t29.5 9.5q15 0 27.5 -4.5t25.5 -16t30 -33.5z" />
    <glyph glyph-name="Uacute" unicode="&#xda;" horiz-adv-x="776" 
d="M589 264v387l-84 21v48h241v-48l-84 -21v-408q0 -124 -69.5 -189t-203.5 -65q-133 0 -204.5 66.5t-71.5 188.5v407l-84 21v48h278v-48l-84 -21v-385q0 -217 188 -217q94 0 136 51t42 164zM375 767l61 76q16 22 29.5 33.5t26 16t26.5 4.5q20 0 30.5 -9.5t10.5 -23.5
q0 -11 -7 -20.5t-23 -20.5t-44 -28l-47 -28h-63z" />
    <glyph glyph-name="Ucircumflex" unicode="&#xdb;" horiz-adv-x="776" 
d="M589 264v387l-84 21v48h241v-48l-84 -21v-408q0 -124 -69.5 -189t-203.5 -65q-133 0 -204.5 66.5t-71.5 188.5v407l-84 21v48h278v-48l-84 -21v-385q0 -217 188 -217q94 0 136 51t42 164zM578 769l-119 121h-105l-118 -121h63l108 61l108 -61h63z" />
    <glyph glyph-name="Udieresis" unicode="&#xdc;" horiz-adv-x="776" 
d="M589 264v387l-84 21v48h241v-48l-84 -21v-408q0 -124 -69.5 -189t-203.5 -65q-133 0 -204.5 66.5t-71.5 188.5v407l-84 21v48h278v-48l-84 -21v-385q0 -217 188 -217q94 0 136 51t42 164zM228 833q0 31 17 48t47 17t47.5 -17.5t17.5 -47.5t-17 -47t-48 -17q-30 0 -47 17
t-17 47zM458 833q0 31 17 48t47 17t47.5 -17.5t17.5 -47.5t-17 -47t-48 -17q-30 0 -47 17t-17 47z" />
    <glyph glyph-name="Yacute" unicode="&#xdd;" horiz-adv-x="679" 
d="M359 345l167 306l-81 21v48h237v-48l-82 -21l-201 -369v-213l94 -21v-48h-298v48l94 21v197l-213 385l-83 21v48h286v-48l-84 -21zM328 768l61 76q16 22 29.5 33.5t26 16t26.5 4.5q20 0 30.5 -9.5t10.5 -23.5q0 -11 -7 -20.5t-23 -20.5t-44 -28l-47 -28h-63z" />
    <glyph glyph-name="Thorn" unicode="&#xde;" horiz-adv-x="647" 
d="M394 148h-151v-79l95 -21v-48h-289v48l84 21v582l-95 21v48h289v-48l-84 -21v-76h152q53 0 94 -16t68 -45q29 -29 44 -67.5t15 -80.5q0 -44 -15 -84.5t-44 -69.5q-28 -29 -69.5 -46.5t-93.5 -17.5zM243 211h119q33 0 59 11t41 31q17 19 25.5 47t8.5 60q0 66 -37 108
q-17 20 -42.5 32t-58.5 12h-115v-301z" />
    <glyph glyph-name="germandbls" unicode="&#xdf;" horiz-adv-x="636" 
d="M361 424q0 23 17.5 42.5t61.5 47.5q42 26 59.5 55t17.5 69q0 70 -51.5 111t-140.5 41q-105 0 -165 -64t-60 -176v-485l-77 -19v-46h184v585q0 80 29 120t84 40q48 0 75 -27.5t27 -78.5q0 -36 -14 -61.5t-47 -50.5q-38 -28 -58 -47t-27 -37t-7 -42q0 -29 11 -51t40 -44.5
t84 -55.5q48 -29 72 -47t32 -34.5t8 -39.5q0 -41 -25.5 -64.5t-66.5 -23.5q-25 0 -47.5 9.5t-30.5 24.5q16 8 26 25t10 36q0 21 -16 36.5t-45 15.5q-30 0 -46 -20.5t-16 -51.5q0 -55 45.5 -90.5t117.5 -35.5q56 0 99 21.5t67.5 60t24.5 90.5q0 37 -12.5 64.5t-46.5 53.5
t-97 58q-39 21 -60 34t-28.5 25t-7.5 27z" />
    <glyph glyph-name="agrave" unicode="&#xe0;" horiz-adv-x="541" 
d="M35 117q0 80 74 125t241 70q-4 56 -11 87t-18 51q-13 25 -36 38t-52 13q-26 0 -47 -9.5t-28 -25.5q14 -9 20 -24.5t6 -28.5q0 -25 -18 -41t-45 -16q-26 0 -42.5 17.5t-16.5 46.5q0 42 29 71t74 44t90 15q43 0 78.5 -13t59.5 -35q67 -65 67 -221v-140q0 -49 6.5 -68
t28.5 -19h45v-35q-78 -29 -121 -29q-31 0 -42 22.5t-11 86.5h-4q-31 -51 -82 -80t-110 -29q-63 0 -99 34t-36 93zM219 53q25 0 54 14.5t49 39.5q15 18 23 45t8 64q0 15 -1 31t-3 31q-77 -16 -120.5 -34t-62 -43t-18.5 -61q0 -43 20 -65t51 -22zM262 715l49 -76h-63l-38 28
q-47 35 -67 55.5t-20 35.5q0 18 12 27.5t37 9.5q24 0 42.5 -17t47.5 -63z" />
    <glyph glyph-name="aacute" unicode="&#xe1;" horiz-adv-x="541" 
d="M35 117q0 80 74 125t241 70q-4 56 -11 87t-18 51q-13 25 -36 38t-52 13q-26 0 -47 -9.5t-28 -25.5q14 -9 20 -24.5t6 -28.5q0 -25 -18 -41t-45 -16q-26 0 -42.5 17.5t-16.5 46.5q0 42 29 71t74 44t90 15q43 0 78.5 -13t59.5 -35q67 -65 67 -221v-140q0 -49 6.5 -68
t28.5 -19h45v-35q-78 -29 -121 -29q-31 0 -42 22.5t-11 86.5h-4q-31 -51 -82 -80t-110 -29q-63 0 -99 34t-36 93zM219 53q25 0 54 14.5t49 39.5q15 18 23 45t8 64q0 15 -1 31t-3 31q-77 -16 -120.5 -34t-62 -43t-18.5 -61q0 -43 20 -65t51 -22zM214 639l49 76q30 46 48.5 63
t41.5 17q25 0 37 -9.5t12 -27.5q0 -15 -20 -35.5t-67 -55.5l-38 -28h-63z" />
    <glyph glyph-name="acircumflex" unicode="&#xe2;" horiz-adv-x="541" 
d="M35 117q0 80 74 125t241 70q-4 56 -11 87t-18 51q-13 25 -36 38t-52 13q-26 0 -47 -9.5t-28 -25.5q14 -9 20 -24.5t6 -28.5q0 -25 -18 -41t-45 -16q-26 0 -42.5 17.5t-16.5 46.5q0 42 29 71t74 44t90 15q43 0 78.5 -13t59.5 -35q67 -65 67 -221v-140q0 -49 6.5 -68
t28.5 -19h45v-35q-78 -29 -121 -29q-31 0 -42 22.5t-11 86.5h-4q-31 -51 -82 -80t-110 -29q-63 0 -99 34t-36 93zM219 53q25 0 54 14.5t49 39.5q15 18 23 45t8 64q0 15 -1 31t-3 31q-77 -16 -120.5 -34t-62 -43t-18.5 -61q0 -43 20 -65t51 -22zM397 639l-89 151h-105
l-88 -151h63l78 86l78 -86h63z" />
    <glyph glyph-name="atilde" unicode="&#xe3;" horiz-adv-x="541" 
d="M35 117q0 80 74 125t241 70q-4 56 -11 87t-18 51q-13 25 -36 38t-52 13q-26 0 -47 -9.5t-28 -25.5q14 -9 20 -24.5t6 -28.5q0 -25 -18 -41t-45 -16q-26 0 -42.5 17.5t-16.5 46.5q0 42 29 71t74 44t90 15q43 0 78.5 -13t59.5 -35q67 -65 67 -221v-140q0 -49 6.5 -68
t28.5 -19h45v-35q-78 -29 -121 -29q-31 0 -42 22.5t-11 86.5h-4q-31 -51 -82 -80t-110 -29q-63 0 -99 34t-36 93zM219 53q25 0 54 14.5t49 39.5q15 18 23 45t8 64q0 15 -1 31t-3 31q-77 -16 -120.5 -34t-62 -43t-18.5 -61q0 -43 20 -65t51 -22zM57 634q6 63 36.5 94t80.5 31
q26 0 44.5 -8.5t34.5 -19t32 -19t35 -8.5q30 0 45 13t20 37h50q-19 -131 -117 -131q-25 0 -44 8.5t-35 19.5t-31.5 19.5t-35.5 8.5q-30 0 -45 -12t-20 -33h-50z" />
    <glyph glyph-name="adieresis" unicode="&#xe4;" horiz-adv-x="541" 
d="M35 117q0 80 74 125t241 70q-4 56 -11 87t-18 51q-13 25 -36 38t-52 13q-26 0 -47 -9.5t-28 -25.5q14 -9 20 -24.5t6 -28.5q0 -25 -18 -41t-45 -16q-26 0 -42.5 17.5t-16.5 46.5q0 42 29 71t74 44t90 15q43 0 78.5 -13t59.5 -35q67 -65 67 -221v-140q0 -49 6.5 -68
t28.5 -19h45v-35q-78 -29 -121 -29q-31 0 -42 22.5t-11 86.5h-4q-31 -51 -82 -80t-110 -29q-63 0 -99 34t-36 93zM219 53q25 0 54 14.5t49 39.5q15 18 23 45t8 64q0 15 -1 31t-3 31q-77 -16 -120.5 -34t-62 -43t-18.5 -61q0 -43 20 -65t51 -22zM88 700q0 30 17 47t46 17
t46.5 -17.5t17.5 -46.5t-17 -46t-47 -17q-29 0 -46 17t-17 46zM318 700q0 30 17 47t46 17t46.5 -17.5t17.5 -46.5t-17 -46t-47 -17q-29 0 -46 17t-17 46z" />
    <glyph glyph-name="aring" unicode="&#xe5;" horiz-adv-x="541" 
d="M35 117q0 80 74 125t241 70q-4 56 -11 87t-18 51q-13 25 -36 38t-52 13q-26 0 -47 -9.5t-28 -25.5q14 -9 20 -24.5t6 -28.5q0 -25 -18 -41t-45 -16q-26 0 -42.5 17.5t-16.5 46.5q0 42 29 71t74 44t90 15q43 0 78.5 -13t59.5 -35q67 -65 67 -221v-140q0 -49 6.5 -68
t28.5 -19h45v-35q-78 -29 -121 -29q-31 0 -42 22.5t-11 86.5h-4q-31 -51 -82 -80t-110 -29q-63 0 -99 34t-36 93zM219 53q25 0 54 14.5t49 39.5q15 18 23 45t8 64q0 15 -1 31t-3 31q-77 -16 -120.5 -34t-62 -43t-18.5 -61q0 -43 20 -65t51 -22zM178 713q0 38 25.5 64.5
t63.5 26.5t64.5 -26.5t26.5 -64.5t-26.5 -63.5t-64.5 -25.5t-63.5 25.5t-25.5 63.5zM230 713q0 -16 10.5 -26.5t26.5 -10.5q17 0 28 10.5t11 26.5q0 17 -11 28t-28 11q-16 0 -26.5 -11t-10.5 -28z" />
    <glyph glyph-name="ae" unicode="&#xe6;" horiz-adv-x="841" 
d="M36 117q0 78 73 124t242 71q-4 57 -11 88t-18 50q-15 26 -38.5 38.5t-52.5 12.5q-25 0 -45.5 -10t-27.5 -27q13 -10 20 -25.5t7 -29.5q0 -25 -17.5 -40t-44.5 -15t-43.5 17t-16.5 49q0 42 29 71t73.5 44t89.5 15q53 0 96 -25.5t57 -77.5h5q20 51 65 77t102 26
q107 0 163.5 -63.5t56.5 -175.5q0 -10 -0.5 -20t-2.5 -30h-349q0 -37 5 -66t15 -52q18 -43 52.5 -62t74.5 -19q47 0 86 19.5t70 53.5l41 -30q-24 -32 -55 -58.5t-71 -41.5t-95 -15q-67 0 -117 27.5t-79 81.5h-7q-31 -51 -81.5 -80t-115.5 -29q-63 0 -99 34t-36 93zM571 491
q-56 0 -86.5 -43.5t-35.5 -132.5h240v31q0 70 -30.5 107.5t-87.5 37.5zM223 53q25 0 52.5 14.5t47.5 40.5q15 19 23 45.5t8 61.5q0 17 -1 32t-3 30q-77 -16 -121 -33.5t-62 -42.5t-18 -63q0 -41 19.5 -63t54.5 -22z" />
    <glyph glyph-name="ccedilla" unicode="&#xe7;" horiz-adv-x="539" 
d="M301 550q60 0 104 -19.5t69 -54.5t25 -82q0 -40 -18.5 -61t-50.5 -21t-48 18.5t-16 45.5q0 25 13 43t37 25q-14 25 -42 37.5t-67 12.5q-76 0 -112.5 -51t-36.5 -166q0 -51 6.5 -85t19.5 -58q19 -34 49 -53t73 -19q45 0 88 20t73 58l38 -30q-42 -62 -97.5 -91t-125.5 -29
q-71 0 -122.5 28.5t-80.5 83.5q-36 67 -36 162q0 87 31.5 151t90 99.5t136.5 35.5zM258 -210q-53 0 -91 28l28 39q29 -20 59 -20q21 0 33.5 9t12.5 23q0 15 -13.5 22.5t-37.5 7.5q-11 0 -22 -1.5t-22 -4.5l-14 24l77 100h54l-45 -74l1 -3q56 0 79.5 -17t23.5 -49
q0 -40 -36 -62t-87 -22z" />
    <glyph glyph-name="egrave" unicode="&#xe8;" horiz-adv-x="548" 
d="M504 261h-349q0 -71 20 -118q19 -42 52.5 -61.5t75.5 -19.5q46 0 86.5 19.5t71.5 55.5l39 -30q-35 -48 -88 -82.5t-135 -34.5q-70 0 -123 29.5t-81 86.5q-15 31 -22 69t-7 81q0 140 64.5 217t177.5 77q105 0 163 -63.5t58 -175.5q0 -10 -0.5 -19.5t-2.5 -30.5zM282 491
q-115 0 -126 -176h240v31q0 70 -30 107.5t-84 37.5zM293 715l49 -76h-63l-38 28q-47 35 -67 55.5t-20 35.5q0 18 12 27.5t37 9.5q24 0 42.5 -17t47.5 -63z" />
    <glyph glyph-name="eacute" unicode="&#xe9;" horiz-adv-x="548" 
d="M504 261h-349q0 -71 20 -118q19 -42 52.5 -61.5t75.5 -19.5q46 0 86.5 19.5t71.5 55.5l39 -30q-35 -48 -88 -82.5t-135 -34.5q-70 0 -123 29.5t-81 86.5q-15 31 -22 69t-7 81q0 140 64.5 217t177.5 77q105 0 163 -63.5t58 -175.5q0 -10 -0.5 -19.5t-2.5 -30.5zM282 491
q-115 0 -126 -176h240v31q0 70 -30 107.5t-84 37.5zM250 639l49 76q30 46 48.5 63t41.5 17q25 0 37 -9.5t12 -27.5q0 -15 -20 -35.5t-67 -55.5l-38 -28h-63z" />
    <glyph glyph-name="ecircumflex" unicode="&#xea;" horiz-adv-x="548" 
d="M504 261h-349q0 -71 20 -118q19 -42 52.5 -61.5t75.5 -19.5q46 0 86.5 19.5t71.5 55.5l39 -30q-35 -48 -88 -82.5t-135 -34.5q-70 0 -123 29.5t-81 86.5q-15 31 -22 69t-7 81q0 140 64.5 217t177.5 77q105 0 163 -63.5t58 -175.5q0 -10 -0.5 -19.5t-2.5 -30.5zM282 491
q-115 0 -126 -176h240v31q0 70 -30 107.5t-84 37.5zM432 639l-89 151h-105l-88 -151h63l78 86l78 -86h63z" />
    <glyph glyph-name="edieresis" unicode="&#xeb;" horiz-adv-x="548" 
d="M504 261h-349q0 -71 20 -118q19 -42 52.5 -61.5t75.5 -19.5q46 0 86.5 19.5t71.5 55.5l39 -30q-35 -48 -88 -82.5t-135 -34.5q-70 0 -123 29.5t-81 86.5q-15 31 -22 69t-7 81q0 140 64.5 217t177.5 77q105 0 163 -63.5t58 -175.5q0 -10 -0.5 -19.5t-2.5 -30.5zM282 491
q-115 0 -126 -176h240v31q0 70 -30 107.5t-84 37.5zM106 700q0 30 17 47t46 17t46.5 -17.5t17.5 -46.5t-17 -46t-47 -17q-29 0 -46 17t-17 46zM336 700q0 30 17 47t46 17t46.5 -17.5t17.5 -46.5t-17 -46t-47 -17q-29 0 -46 17t-17 46z" />
    <glyph glyph-name="igrave" unicode="&#xec;" horiz-adv-x="318" 
d="M111 475l-77 19v46h184v-475l77 -19v-46h-261v46l77 19v410zM148 715l49 -76h-63l-38 28q-47 35 -67 55.5t-20 35.5q0 18 12 27.5t37 9.5q24 0 42.5 -17t47.5 -63z" />
    <glyph glyph-name="iacute" unicode="&#xed;" horiz-adv-x="318" 
d="M111 475l-77 19v46h184v-475l77 -19v-46h-261v46l77 19v410zM132 639l49 76q30 46 48.5 63t41.5 17q25 0 37 -9.5t12 -27.5q0 -15 -20 -35.5t-67 -55.5l-38 -28h-63z" />
    <glyph glyph-name="icircumflex" unicode="&#xee;" horiz-adv-x="318" 
d="M111 475l-77 19v46h184v-475l77 -19v-46h-261v46l77 19v410zM305 639l-89 151h-105l-88 -151h63l78 86l78 -86h63z" />
    <glyph glyph-name="idieresis" unicode="&#xef;" horiz-adv-x="318" 
d="M111 475l-77 19v46h184v-475l77 -19v-46h-261v46l77 19v410zM-14 700q0 30 17 47t46 17t46.5 -17.5t17.5 -46.5t-17 -46t-47 -17q-29 0 -46 17t-17 46zM216 700q0 30 17 47t46 17t46.5 -17.5t17.5 -46.5t-17 -46t-47 -17q-29 0 -46 17t-17 46z" />
    <glyph glyph-name="eth" unicode="&#xf0;" horiz-adv-x="573" 
d="M146 210q0 79 33 118.5t94 39.5q65 0 97 -39.5t32 -118.5t-32 -119.5t-97 -40.5q-61 0 -94 40.5t-33 119.5zM423 351h-4q-28 37 -75 58t-102 21q-63 0 -111 -27.5t-75 -76.5t-27 -115q0 -101 63.5 -161t172.5 -60q127 0 195 79t68 225q0 60 -13.5 114t-42 106.5
t-75.5 109.5l74 33l-27 53l-89 -39l-29.5 29.5t-20 19t-17.5 13.5l-61 -22q18 -16 34.5 -33.5t29.5 -34.5l-120 -53l25 -55l133 58q40 -47 65 -110.5t29 -131.5z" />
    <glyph glyph-name="ntilde" unicode="&#xf1;" horiz-adv-x="661" 
d="M111 65v410l-77 19v46h154l22 -100h4q30 51 81 80.5t109 29.5q83 0 123 -54q20 -28 28.5 -78.5t8.5 -136.5v-216l77 -19v-46h-251v46l67 19v213q0 63 -3.5 95.5t-12.5 51.5q-11 25 -32.5 36.5t-50.5 11.5q-55 0 -95 -35q-41 -38 -45 -116v-257l67 -19v-46h-251v46z
M161 634q6 63 36.5 94t80.5 31q26 0 44.5 -8.5t34.5 -19t32 -19t35 -8.5q30 0 45 13t20 37h50q-19 -131 -117 -131q-25 0 -44 8.5t-35 19.5t-31.5 19.5t-35.5 8.5q-30 0 -45 -12t-20 -33h-50z" />
    <glyph glyph-name="ograve" unicode="&#xf2;" horiz-adv-x="586" 
d="M543 273q0 -64 -19 -122t-54 -96q-31 -34 -76 -49.5t-103 -15.5q-57 0 -101.5 15.5t-75.5 48.5q-34 37 -52.5 92t-18.5 119q0 65 19 123.5t54 96.5q33 34 76.5 49.5t101.5 15.5q57 0 102 -15.5t76 -48.5q35 -37 53 -93t18 -120zM171 215q4 -47 18 -80t36 -53
q22 -16 45.5 -22t52.5 0q57 17 80 89q12 39 15 84t-3 93q-4 46 -18 79.5t-36 52.5q-21 17 -45 22.5t-54 -0.5q-57 -17 -78 -89q-24 -78 -13 -176zM277 715l49 -76h-63l-38 28q-47 35 -67 55.5t-20 35.5q0 18 12 27.5t37 9.5q24 0 42.5 -17t47.5 -63z" />
    <glyph glyph-name="oacute" unicode="&#xf3;" horiz-adv-x="586" 
d="M543 273q0 -64 -19 -122t-54 -96q-31 -34 -76 -49.5t-103 -15.5q-57 0 -101.5 15.5t-75.5 48.5q-34 37 -52.5 92t-18.5 119q0 65 19 123.5t54 96.5q33 34 76.5 49.5t101.5 15.5q57 0 102 -15.5t76 -48.5q35 -37 53 -93t18 -120zM171 215q4 -47 18 -80t36 -53
q22 -16 45.5 -22t52.5 0q57 17 80 89q12 39 15 84t-3 93q-4 46 -18 79.5t-36 52.5q-21 17 -45 22.5t-54 -0.5q-57 -17 -78 -89q-24 -78 -13 -176zM261 639l49 76q30 46 48.5 63t41.5 17q25 0 37 -9.5t12 -27.5q0 -15 -20 -35.5t-67 -55.5l-38 -28h-63z" />
    <glyph glyph-name="ocircumflex" unicode="&#xf4;" horiz-adv-x="586" 
d="M543 273q0 -64 -19 -122t-54 -96q-31 -34 -76 -49.5t-103 -15.5q-57 0 -101.5 15.5t-75.5 48.5q-34 37 -52.5 92t-18.5 119q0 65 19 123.5t54 96.5q33 34 76.5 49.5t101.5 15.5q57 0 102 -15.5t76 -48.5q35 -37 53 -93t18 -120zM171 215q4 -47 18 -80t36 -53
q22 -16 45.5 -22t52.5 0q57 17 80 89q12 39 15 84t-3 93q-4 46 -18 79.5t-36 52.5q-21 17 -45 22.5t-54 -0.5q-57 -17 -78 -89q-24 -78 -13 -176zM434 639l-89 151h-105l-88 -151h63l78 86l78 -86h63z" />
    <glyph glyph-name="otilde" unicode="&#xf5;" horiz-adv-x="586" 
d="M543 273q0 -64 -19 -122t-54 -96q-31 -34 -76 -49.5t-103 -15.5q-57 0 -101.5 15.5t-75.5 48.5q-34 37 -52.5 92t-18.5 119q0 65 19 123.5t54 96.5q33 34 76.5 49.5t101.5 15.5q57 0 102 -15.5t76 -48.5q35 -37 53 -93t18 -120zM171 215q4 -47 18 -80t36 -53
q22 -16 45.5 -22t52.5 0q57 17 80 89q12 39 15 84t-3 93q-4 46 -18 79.5t-36 52.5q-21 17 -45 22.5t-54 -0.5q-57 -17 -78 -89q-24 -78 -13 -176zM104 634q6 63 36.5 94t80.5 31q26 0 44.5 -8.5t34.5 -19t32 -19t35 -8.5q30 0 45 13t20 37h50q-19 -131 -117 -131
q-25 0 -44 8.5t-35 19.5t-31.5 19.5t-35.5 8.5q-30 0 -45 -12t-20 -33h-50z" />
    <glyph glyph-name="odieresis" unicode="&#xf6;" horiz-adv-x="586" 
d="M543 273q0 -64 -19 -122t-54 -96q-31 -34 -76 -49.5t-103 -15.5q-57 0 -101.5 15.5t-75.5 48.5q-34 37 -52.5 92t-18.5 119q0 65 19 123.5t54 96.5q33 34 76.5 49.5t101.5 15.5q57 0 102 -15.5t76 -48.5q35 -37 53 -93t18 -120zM171 215q4 -47 18 -80t36 -53
q22 -16 45.5 -22t52.5 0q57 17 80 89q12 39 15 84t-3 93q-4 46 -18 79.5t-36 52.5q-21 17 -45 22.5t-54 -0.5q-57 -17 -78 -89q-24 -78 -13 -176zM115 700q0 30 17 47t46 17t46.5 -17.5t17.5 -46.5t-17 -46t-47 -17q-29 0 -46 17t-17 46zM345 700q0 30 17 47t46 17
t46.5 -17.5t17.5 -46.5t-17 -46t-47 -17q-29 0 -46 17t-17 46z" />
    <glyph glyph-name="divide" unicode="&#xf7;" horiz-adv-x="542" 
d="M52 323v59h438v-59h-438zM210 174q0 31 17 48.5t48 17.5q30 0 47 -18t17 -48t-17 -47t-48 -17q-64 0 -64 64zM210 528q0 31 17 48.5t48 17.5q30 0 47 -18t17 -48t-17 -47t-48 -17q-64 0 -64 64z" />
    <glyph glyph-name="oslash" unicode="&#xf8;" horiz-adv-x="586" 
d="M93 -60l334 642h74l-334 -642h-74zM543 273q0 -64 -19 -122t-54 -96q-31 -34 -76 -49.5t-103 -15.5q-57 0 -101.5 15.5t-75.5 48.5q-34 37 -52.5 92t-18.5 119q0 65 19 123.5t54 96.5q33 34 76.5 49.5t101.5 15.5q57 0 102 -15.5t76 -48.5q35 -37 53 -93t18 -120z
M171 215q4 -47 18 -80t36 -53q22 -16 45.5 -22t52.5 0q57 17 80 89q12 39 15 84t-3 93q-4 46 -18 79.5t-36 52.5q-21 17 -45 22.5t-54 -0.5q-57 -17 -78 -89q-24 -78 -13 -176z" />
    <glyph glyph-name="ugrave" unicode="&#xf9;" horiz-adv-x="639" 
d="M201 540v-278q0 -64 3.5 -96.5t11.5 -50.5q10 -24 31 -36.5t46 -12.5q27 0 51 10t43 27q41 37 45 115v257l-87 19v46h194v-475l77 -19v-46l-165 -10l-11 110h-4q-29 -51 -79 -80.5t-107 -29.5q-38 0 -69.5 14.5t-49.5 39.5q-19 28 -28 79t-9 136v216l-67 19v46h174z
M298 715l49 -76h-63l-38 28q-47 35 -67 55.5t-20 35.5q0 18 12 27.5t37 9.5q24 0 42.5 -17t47.5 -63z" />
    <glyph glyph-name="uacute" unicode="&#xfa;" horiz-adv-x="639" 
d="M201 540v-278q0 -64 3.5 -96.5t11.5 -50.5q10 -24 31 -36.5t46 -12.5q27 0 51 10t43 27q41 37 45 115v257l-87 19v46h194v-475l77 -19v-46l-165 -10l-11 110h-4q-29 -51 -79 -80.5t-107 -29.5q-38 0 -69.5 14.5t-49.5 39.5q-19 28 -28 79t-9 136v216l-67 19v46h174z
M282 639l49 76q30 46 48.5 63t41.5 17q25 0 37 -9.5t12 -27.5q0 -15 -20 -35.5t-67 -55.5l-38 -28h-63z" />
    <glyph glyph-name="ucircumflex" unicode="&#xfb;" horiz-adv-x="639" 
d="M201 540v-278q0 -64 3.5 -96.5t11.5 -50.5q10 -24 31 -36.5t46 -12.5q27 0 51 10t43 27q41 37 45 115v257l-87 19v46h194v-475l77 -19v-46l-165 -10l-11 110h-4q-29 -51 -79 -80.5t-107 -29.5q-38 0 -69.5 14.5t-49.5 39.5q-19 28 -28 79t-9 136v216l-67 19v46h174z
M455 639l-89 151h-105l-88 -151h63l78 86l78 -86h63z" />
    <glyph glyph-name="udieresis" unicode="&#xfc;" horiz-adv-x="639" 
d="M201 540v-278q0 -64 3.5 -96.5t11.5 -50.5q10 -24 31 -36.5t46 -12.5q27 0 51 10t43 27q41 37 45 115v257l-87 19v46h194v-475l77 -19v-46l-165 -10l-11 110h-4q-29 -51 -79 -80.5t-107 -29.5q-38 0 -69.5 14.5t-49.5 39.5q-19 28 -28 79t-9 136v216l-67 19v46h174z
M136 700q0 30 17 47t46 17t46.5 -17.5t17.5 -46.5t-17 -46t-47 -17q-29 0 -46 17t-17 46zM366 700q0 30 17 47t46 17t46.5 -17.5t17.5 -46.5t-17 -46t-47 -17q-29 0 -46 17t-17 46z" />
    <glyph glyph-name="yacute" unicode="&#xfd;" horiz-adv-x="593" 
d="M519 475l-164 -451q-30 -77 -54.5 -124.5t-54 -68.5t-75.5 -21q-47 0 -80.5 25t-33.5 63q0 30 17.5 50t45.5 20q25 0 39 -12.5t14 -36.5q0 -12 -7 -26.5t-21 -21.5q2 -10 12 -13.5t17 -3.5q14 0 26 6.5t25.5 28t29.5 67.5l12 37l-205 482l-60 19v46h234l8 -46l-71 -19
l140 -377h4l121 377l-58 19v46h200v-46zM255 639l49 76q30 46 48.5 63t41.5 17q25 0 37 -9.5t12 -27.5q0 -15 -20 -35.5t-67 -55.5l-38 -28h-63z" />
    <glyph glyph-name="thorn" unicode="&#xfe;" horiz-adv-x="605" 
d="M561 275q0 -62 -19 -117t-52 -93q-56 -65 -161 -65q-93 0 -142 75v-190l97 -19v-46h-281v46l77 19v830l-77 19v46h184v-298q54 68 150 68q109 0 160 -63q31 -38 47.5 -92t16.5 -120zM187 274q0 -56 8.5 -96t26.5 -68q17 -28 41 -40.5t54 -12.5q32 0 56.5 12t39.5 35
q16 23 24.5 65t8.5 98q0 58 -8.5 101.5t-25.5 71.5q-16 28 -40 40.5t-56 12.5q-68 0 -94 -46q-35 -58 -35 -173z" />
    <glyph glyph-name="ydieresis" unicode="&#xff;" horiz-adv-x="593" 
d="M519 475l-164 -451q-30 -77 -54.5 -124.5t-54 -68.5t-75.5 -21q-47 0 -80.5 25t-33.5 63q0 30 17.5 50t45.5 20q25 0 39 -12.5t14 -36.5q0 -12 -7 -26.5t-21 -21.5q2 -10 12 -13.5t17 -3.5q14 0 26 6.5t25.5 28t29.5 67.5l12 37l-205 482l-60 19v46h234l8 -46l-71 -19
l140 -377h4l121 377l-58 19v46h200v-46zM137 700q0 30 17 47t46 17t46.5 -17.5t17.5 -46.5t-17 -46t-47 -17q-29 0 -46 17t-17 46zM367 700q0 30 17 47t46 17t46.5 -17.5t17.5 -46.5t-17 -46t-47 -17q-29 0 -46 17t-17 46z" />
    <glyph glyph-name="Amacron" unicode="&#x100;" horiz-adv-x="723" 
d="M526 69l-56 170h-260l-58 -170l83 -21v-48h-244v48l82 21l238 661h103l235 -661l80 -21v-48h-285v48zM342 627l-110 -325h217l-103 325h-4zM222 786v75h279v-75h-279z" />
    <glyph glyph-name="amacron" unicode="&#x101;" horiz-adv-x="541" 
d="M35 117q0 80 74 125t241 70q-4 56 -11 87t-18 51q-13 25 -36 38t-52 13q-26 0 -47 -9.5t-28 -25.5q14 -9 20 -24.5t6 -28.5q0 -25 -18 -41t-45 -16q-26 0 -42.5 17.5t-16.5 46.5q0 42 29 71t74 44t90 15q43 0 78.5 -13t59.5 -35q67 -65 67 -221v-140q0 -49 6.5 -68
t28.5 -19h45v-35q-78 -29 -121 -29q-31 0 -42 22.5t-11 86.5h-4q-31 -51 -82 -80t-110 -29q-63 0 -99 34t-36 93zM219 53q25 0 54 14.5t49 39.5q15 18 23 45t8 64q0 15 -1 31t-3 31q-77 -16 -120.5 -34t-62 -43t-18.5 -61q0 -43 20 -65t51 -22zM125 655v75h279v-75h-279z
" />
    <glyph glyph-name="Abreve" unicode="&#x102;" horiz-adv-x="723" 
d="M526 69l-56 170h-260l-58 -170l83 -21v-48h-244v48l82 21l238 661h103l235 -661l80 -21v-48h-285v48zM342 627l-110 -325h217l-103 325h-4zM515 918h-53q-1 -40 -30.5 -57.5t-68.5 -17.5t-67.5 17.5t-30.5 57.5h-53q0 -69 40.5 -111.5t110.5 -42.5t111 42.5t41 111.5z
" />
    <glyph glyph-name="abreve" unicode="&#x103;" horiz-adv-x="541" 
d="M35 117q0 80 74 125t241 70q-4 56 -11 87t-18 51q-13 25 -36 38t-52 13q-26 0 -47 -9.5t-28 -25.5q14 -9 20 -24.5t6 -28.5q0 -25 -18 -41t-45 -16q-26 0 -42.5 17.5t-16.5 46.5q0 42 29 71t74 44t90 15q43 0 78.5 -13t59.5 -35q67 -65 67 -221v-140q0 -49 6.5 -68
t28.5 -19h45v-35q-78 -29 -121 -29q-31 0 -42 22.5t-11 86.5h-4q-31 -51 -82 -80t-110 -29q-63 0 -99 34t-36 93zM219 53q25 0 54 14.5t49 39.5q15 18 23 45t8 64q0 15 -1 31t-3 31q-77 -16 -120.5 -34t-62 -43t-18.5 -61q0 -43 20 -65t51 -22zM404 780h-53
q0 -43 -27.5 -62.5t-77.5 -19.5q-39 0 -65 19.5t-28 62.5h-53q0 -72 38 -116.5t108 -44.5q67 0 111.5 42.5t46.5 118.5z" />
    <glyph glyph-name="Aogonek" unicode="&#x104;" horiz-adv-x="723" 
d="M526 69l-56 170h-260l-58 -170l83 -21v-48h-244v48l82 21l238 661h103l235 -661l80 -21v-48h-285v48zM342 627l-110 -325h217l-103 325h-4zM578 -210q-49 0 -76.5 23.5t-27.5 61.5q0 75 114 139h51q-23 -15 -42 -34.5t-30 -41t-11 -41.5q0 -21 13 -32.5t37 -11.5
q17 0 35 4.5t30 14.5l18 -26q-17 -26 -44.5 -41t-66.5 -15z" />
    <glyph glyph-name="aogonek" unicode="&#x105;" horiz-adv-x="541" 
d="M35 117q0 80 74 125t241 70q-4 56 -11 87t-18 51q-13 25 -36 38t-52 13q-26 0 -47 -9.5t-28 -25.5q14 -9 20 -24.5t6 -28.5q0 -25 -18 -41t-45 -16q-26 0 -42.5 17.5t-16.5 46.5q0 42 29 71t74 44t90 15q43 0 78.5 -13t59.5 -35q67 -65 67 -221v-140q0 -49 6.5 -68
t28.5 -19h45v-35q-78 -29 -121 -29q-31 0 -42 22.5t-11 86.5h-4q-31 -51 -82 -80t-110 -29q-63 0 -99 34t-36 93zM219 53q25 0 54 14.5t49 39.5q15 18 23 45t8 64q0 15 -1 31t-3 31q-77 -16 -120.5 -34t-62 -43t-18.5 -61q0 -43 20 -65t51 -22zM405 -210q-49 0 -76.5 23.5
t-27.5 61.5q0 75 114 139h51q-23 -15 -42 -34.5t-30 -41t-11 -41.5q0 -21 13 -32.5t37 -11.5q17 0 35 4.5t30 14.5l18 -26q-17 -26 -44.5 -41t-66.5 -15z" />
    <glyph glyph-name="Cacute" unicode="&#x106;" horiz-adv-x="689" 
d="M373 671q-45 0 -79.5 -15.5t-57.5 -46.5q-29 -39 -46.5 -101t-17.5 -136q0 -71 15 -133t42 -104q25 -39 63 -57.5t93 -18.5q176 0 205 169h65q-47 -238 -284 -238q-138 0 -220 80q-49 48 -75 121t-26 162q0 101 33 183t93 131q76 63 201 63q62 0 101 -16t77 -57l20 63h65
v-226h-71q-14 88 -64 132.5t-132 44.5zM352 767l61 76q16 22 29.5 33.5t26 16t26.5 4.5q20 0 30.5 -9.5t10.5 -23.5q0 -11 -7 -20.5t-23 -20.5t-44 -28l-47 -28h-63z" />
    <glyph glyph-name="cacute" unicode="&#x107;" horiz-adv-x="539" 
d="M301 550q60 0 104 -19.5t69 -54.5t25 -82q0 -40 -18.5 -61t-50.5 -21t-48 18.5t-16 45.5q0 25 13 43t37 25q-14 25 -42 37.5t-67 12.5q-76 0 -112.5 -51t-36.5 -166q0 -51 6.5 -85t19.5 -58q19 -34 49 -53t73 -19q45 0 88 20t73 58l38 -30q-42 -62 -97.5 -91t-125.5 -29
q-71 0 -122.5 28.5t-80.5 83.5q-36 67 -36 162q0 87 31.5 151t90 99.5t136.5 35.5zM272 639l49 76q30 46 48.5 63t41.5 17q25 0 37 -9.5t12 -27.5q0 -15 -20 -35.5t-67 -55.5l-38 -28h-63z" />
    <glyph glyph-name="Ccircumflex" unicode="&#x108;" horiz-adv-x="689" 
d="M373 671q-45 0 -79.5 -15.5t-57.5 -46.5q-29 -39 -46.5 -101t-17.5 -136q0 -71 15 -133t42 -104q25 -39 63 -57.5t93 -18.5q176 0 205 169h65q-47 -238 -284 -238q-138 0 -220 80q-49 48 -75 121t-26 162q0 101 33 183t93 131q76 63 201 63q62 0 101 -16t77 -57l20 63h65
v-226h-71q-14 88 -64 132.5t-132 44.5zM555 769l-119 121h-105l-118 -121h63l108 61l108 -61h63z" />
    <glyph glyph-name="ccircumflex" unicode="&#x109;" horiz-adv-x="539" 
d="M301 550q60 0 104 -19.5t69 -54.5t25 -82q0 -40 -18.5 -61t-50.5 -21t-48 18.5t-16 45.5q0 25 13 43t37 25q-14 25 -42 37.5t-67 12.5q-76 0 -112.5 -51t-36.5 -166q0 -51 6.5 -85t19.5 -58q19 -34 49 -53t73 -19q45 0 88 20t73 58l38 -30q-42 -62 -97.5 -91t-125.5 -29
q-71 0 -122.5 28.5t-80.5 83.5q-36 67 -36 162q0 87 31.5 151t90 99.5t136.5 35.5zM445 639l-89 151h-105l-88 -151h63l78 86l78 -86h63z" />
    <glyph glyph-name="Cdotaccent" unicode="&#x10a;" horiz-adv-x="689" 
d="M373 671q-45 0 -79.5 -15.5t-57.5 -46.5q-29 -39 -46.5 -101t-17.5 -136q0 -71 15 -133t42 -104q25 -39 63 -57.5t93 -18.5q176 0 205 169h65q-47 -238 -284 -238q-138 0 -220 80q-49 48 -75 121t-26 162q0 101 33 183t93 131q76 63 201 63q62 0 101 -16t77 -57l20 63h65
v-226h-71q-14 88 -64 132.5t-132 44.5zM317 834q0 31 18.5 49.5t48.5 18.5q31 0 49.5 -18.5t18.5 -49.5t-18.5 -49t-49.5 -18t-49 17.5t-18 49.5z" />
    <glyph glyph-name="cdotaccent" unicode="&#x10b;" horiz-adv-x="539" 
d="M301 550q60 0 104 -19.5t69 -54.5t25 -82q0 -40 -18.5 -61t-50.5 -21t-48 18.5t-16 45.5q0 25 13 43t37 25q-14 25 -42 37.5t-67 12.5q-76 0 -112.5 -51t-36.5 -166q0 -51 6.5 -85t19.5 -58q19 -34 49 -53t73 -19q45 0 88 20t73 58l38 -30q-42 -62 -97.5 -91t-125.5 -29
q-71 0 -122.5 28.5t-80.5 83.5q-36 67 -36 162q0 87 31.5 151t90 99.5t136.5 35.5zM237 696q0 31 18.5 49.5t48.5 18.5q31 0 49.5 -18.5t18.5 -49.5q0 -30 -18.5 -48.5t-49.5 -18.5t-49 18t-18 49z" />
    <glyph glyph-name="Ccaron" unicode="&#x10c;" horiz-adv-x="689" 
d="M373 671q-45 0 -79.5 -15.5t-57.5 -46.5q-29 -39 -46.5 -101t-17.5 -136q0 -71 15 -133t42 -104q25 -39 63 -57.5t93 -18.5q176 0 205 169h65q-47 -238 -284 -238q-138 0 -220 80q-49 48 -75 121t-26 162q0 101 33 183t93 131q76 63 201 63q62 0 101 -16t77 -57l20 63h65
v-226h-71q-14 88 -64 132.5t-132 44.5zM436 769l119 121h-63l-108 -61l-108 61h-63l118 -121h105z" />
    <glyph glyph-name="ccaron" unicode="&#x10d;" horiz-adv-x="539" 
d="M301 550q60 0 104 -19.5t69 -54.5t25 -82q0 -40 -18.5 -61t-50.5 -21t-48 18.5t-16 45.5q0 25 13 43t37 25q-14 25 -42 37.5t-67 12.5q-76 0 -112.5 -51t-36.5 -166q0 -51 6.5 -85t19.5 -58q19 -34 49 -53t73 -19q45 0 88 20t73 58l38 -30q-42 -62 -97.5 -91t-125.5 -29
q-71 0 -122.5 28.5t-80.5 83.5q-36 67 -36 162q0 87 31.5 151t90 99.5t136.5 35.5zM360 636l85 144h-63l-78 -86l-76 86h-65l85 -144h112z" />
    <glyph glyph-name="Dcaron" unicode="&#x10e;" horiz-adv-x="770" 
d="M240 65h145q54 0 92 16t64 50q27 35 41 90.5t14 132.5q0 151 -55 227q-27 38 -67.5 56t-98.5 18h-135v-590zM46 720h346q149 0 232 -84q47 -48 72 -118t25 -150q0 -84 -26.5 -157.5t-73.5 -123.5q-83 -87 -238 -87h-337v48l84 21v582l-84 21v48zM417 769l119 121h-63
l-108 -61l-108 61h-63l118 -121h105z" />
    <glyph glyph-name="dcaron" unicode="&#x10f;" horiz-adv-x="625" 
d="M43 266q0 66 17.5 124.5t50.5 94.5q29 32 69 48.5t92 16.5q45 0 81 -17t65 -61v243l-77 19v46h184v-715l77 -19v-46l-165 -10l-8 82q-31 -46 -70 -64t-88 -18q-52 0 -92 15.5t-67 47.5q-31 38 -50 93t-19 120zM418 266q0 60 -9 104.5t-25 70.5q-16 25 -39 38.5t-59 13.5
q-30 0 -55.5 -11.5t-40.5 -35.5q-17 -25 -24.5 -70t-7.5 -101q0 -60 9 -104t24 -71q16 -25 40 -39t58 -14q31 0 56 11t39 35q16 27 25 71t9 102zM660 600h-50q0 33 -5 57t-9.5 44t-4.5 41q0 15 8.5 31.5t36.5 16.5q26 0 35 -16t9 -32q0 -21 -5 -41t-10 -44t-5 -57z" />
    <glyph glyph-name="Dcroat" unicode="&#x110;" horiz-adv-x="775" 
d="M56 329v70h329v-70h-329zM245 65h145q54 0 92 16t64 50q27 35 41 90.5t14 132.5q0 151 -55 227q-27 38 -67.5 56t-98.5 18h-135v-590zM51 720h346q149 0 232 -84q47 -48 72 -118t25 -150q0 -84 -26.5 -157.5t-73.5 -123.5q-83 -87 -238 -87h-337v48l84 21v582l-84 21v48z
" />
    <glyph glyph-name="dcroat" unicode="&#x111;" horiz-adv-x="625" 
d="M316 607v67h281v-67h-281zM43 266q0 66 17.5 124.5t50.5 94.5q29 32 69 48.5t92 16.5q45 0 81 -17t65 -61v243l-77 19v46h184v-715l77 -19v-46l-165 -10l-8 82q-31 -46 -70 -64t-88 -18q-52 0 -92 15.5t-67 47.5q-31 38 -50 93t-19 120zM418 266q0 60 -9 104.5t-25 70.5
q-16 25 -39 38.5t-59 13.5q-30 0 -55.5 -11.5t-40.5 -35.5q-17 -25 -24.5 -70t-7.5 -101q0 -60 9 -104t24 -71q16 -25 40 -39t58 -14q31 0 56 11t39 35q16 27 25 71t9 102z" />
    <glyph glyph-name="Emacron" unicode="&#x112;" horiz-adv-x="689" 
d="M480 238h-61l-18 99h-156v-272h293l30 158h68v-223h-595v48l94 21v582l-94 21v48h573v-212h-62l-31 149h-276v-255h156l18 100h61v-264zM210 786v75h279v-75h-279z" />
    <glyph glyph-name="emacron" unicode="&#x113;" horiz-adv-x="548" 
d="M504 261h-349q0 -71 20 -118q19 -42 52.5 -61.5t75.5 -19.5q46 0 86.5 19.5t71.5 55.5l39 -30q-35 -48 -88 -82.5t-135 -34.5q-70 0 -123 29.5t-81 86.5q-15 31 -22 69t-7 81q0 140 64.5 217t177.5 77q105 0 163 -63.5t58 -175.5q0 -10 -0.5 -19.5t-2.5 -30.5zM282 491
q-115 0 -126 -176h240v31q0 70 -30 107.5t-84 37.5zM142 655v75h279v-75h-279z" />
    <glyph glyph-name="Ebreve" unicode="&#x114;" horiz-adv-x="689" 
d="M480 238h-61l-18 99h-156v-272h293l30 158h68v-223h-595v48l94 21v582l-94 21v48h573v-212h-62l-31 149h-276v-255h156l18 100h61v-264zM504 918h-53q-1 -40 -30.5 -57.5t-68.5 -17.5t-67.5 17.5t-30.5 57.5h-53q0 -69 40.5 -111.5t110.5 -42.5t111 42.5t41 111.5z" />
    <glyph glyph-name="ebreve" unicode="&#x115;" horiz-adv-x="548" 
d="M504 261h-349q0 -71 20 -118q19 -42 52.5 -61.5t75.5 -19.5q46 0 86.5 19.5t71.5 55.5l39 -30q-35 -48 -88 -82.5t-135 -34.5q-70 0 -123 29.5t-81 86.5q-15 31 -22 69t-7 81q0 140 64.5 217t177.5 77q105 0 163 -63.5t58 -175.5q0 -10 -0.5 -19.5t-2.5 -30.5zM282 491
q-115 0 -126 -176h240v31q0 70 -30 107.5t-84 37.5zM440 780h-53q0 -43 -27.5 -62.5t-77.5 -19.5q-39 0 -65 19.5t-28 62.5h-53q0 -72 38 -116.5t108 -44.5q67 0 111.5 42.5t46.5 118.5z" />
    <glyph glyph-name="Edotaccent" unicode="&#x116;" horiz-adv-x="689" 
d="M480 238h-61l-18 99h-156v-272h293l30 158h68v-223h-595v48l94 21v582l-94 21v48h573v-212h-62l-31 149h-276v-255h156l18 100h61v-264zM284 834q0 31 18.5 49.5t48.5 18.5q31 0 49.5 -18.5t18.5 -49.5t-18.5 -49t-49.5 -18t-49 17.5t-18 49.5z" />
    <glyph glyph-name="edotaccent" unicode="&#x117;" horiz-adv-x="548" 
d="M504 261h-349q0 -71 20 -118q19 -42 52.5 -61.5t75.5 -19.5q46 0 86.5 19.5t71.5 55.5l39 -30q-35 -48 -88 -82.5t-135 -34.5q-70 0 -123 29.5t-81 86.5q-15 31 -22 69t-7 81q0 140 64.5 217t177.5 77q105 0 163 -63.5t58 -175.5q0 -10 -0.5 -19.5t-2.5 -30.5zM282 491
q-115 0 -126 -176h240v31q0 70 -30 107.5t-84 37.5zM215 696q0 31 18.5 49.5t48.5 18.5q31 0 49.5 -18.5t18.5 -49.5q0 -30 -18.5 -48.5t-49.5 -18.5t-49 18t-18 49z" />
    <glyph glyph-name="Eogonek" unicode="&#x118;" horiz-adv-x="689" 
d="M480 238h-61l-18 99h-156v-272h293l30 158h68v-223h-595v48l94 21v582l-94 21v48h573v-212h-62l-31 149h-276v-255h156l18 100h61v-264zM337 -210q-49 0 -76.5 23.5t-27.5 61.5q0 75 114 139h51q-23 -15 -42 -34.5t-30 -41t-11 -41.5q0 -21 13 -32.5t37 -11.5
q17 0 35 4.5t30 14.5l18 -26q-17 -26 -44.5 -41t-66.5 -15z" />
    <glyph glyph-name="eogonek" unicode="&#x119;" horiz-adv-x="548" 
d="M504 261h-349q0 -71 20 -118q19 -42 52.5 -61.5t75.5 -19.5q46 0 86.5 19.5t71.5 55.5l39 -30q-35 -48 -88 -82.5t-135 -34.5q-70 0 -123 29.5t-81 86.5q-15 31 -22 69t-7 81q0 140 64.5 217t177.5 77q105 0 163 -63.5t58 -175.5q0 -10 -0.5 -19.5t-2.5 -30.5zM282 491
q-115 0 -126 -176h240v31q0 70 -30 107.5t-84 37.5zM260 -210q-49 0 -76.5 23.5t-27.5 61.5q0 75 114 139h51q-23 -15 -42 -34.5t-30 -41t-11 -41.5q0 -21 13 -32.5t37 -11.5q17 0 35 4.5t30 14.5l18 -26q-17 -26 -44.5 -41t-66.5 -15z" />
    <glyph glyph-name="Ecaron" unicode="&#x11a;" horiz-adv-x="689" 
d="M480 238h-61l-18 99h-156v-272h293l30 158h68v-223h-595v48l94 21v582l-94 21v48h573v-212h-62l-31 149h-276v-255h156l18 100h61v-264zM420 769l119 121h-63l-108 -61l-108 61h-63l118 -121h105z" />
    <glyph glyph-name="ecaron" unicode="&#x11b;" horiz-adv-x="548" 
d="M504 261h-349q0 -71 20 -118q19 -42 52.5 -61.5t75.5 -19.5q46 0 86.5 19.5t71.5 55.5l39 -30q-35 -48 -88 -82.5t-135 -34.5q-70 0 -123 29.5t-81 86.5q-15 31 -22 69t-7 81q0 140 64.5 217t177.5 77q105 0 163 -63.5t58 -175.5q0 -10 -0.5 -19.5t-2.5 -30.5zM282 491
q-115 0 -126 -176h240v31q0 70 -30 107.5t-84 37.5zM338 636l85 144h-63l-78 -86l-76 86h-65l85 -144h112z" />
    <glyph glyph-name="Gcircumflex" unicode="&#x11c;" horiz-adv-x="757" 
d="M376 60q85 0 125.5 42.5t40.5 125.5v60l-84 21v50h278v-50l-84 -21v-288h-62l-25 79q-43 -48 -89.5 -68.5t-109.5 -20.5q-137 0 -219 84q-46 47 -71.5 119t-25.5 159q0 89 26.5 165.5t74.5 126.5q41 43 96 64.5t126 21.5q60 0 101.5 -17.5t78.5 -59.5l22 67h65v-226h-71
q-14 85 -63.5 131t-133.5 46q-49 0 -82 -16t-57 -49q-28 -42 -45 -105t-17 -135q0 -73 17.5 -136.5t49.5 -107.5q24 -32 57.5 -47t80.5 -15zM547 769l-119 121h-105l-118 -121h63l108 61l108 -61h63z" />
    <glyph glyph-name="gcircumflex" unicode="&#x11d;" horiz-adv-x="565" 
d="M514 -9q0 -81 -65 -128t-190 -47q-72 0 -124 14t-80 42t-28 69q0 47 28.5 73.5t79.5 31.5v4q-69 20 -69 77q0 21 10 40.5t31.5 36t54.5 25.5q-50 16 -78 55t-28 94q0 80 55 126t151 46q53 0 90.5 -11.5t64.5 -34.5l34 12l92 44h17v-93h-17l-70 8h-31q26 -37 26 -91
q0 -80 -53.5 -126t-149.5 -46q-10 0 -20 0.5t-20 1.5q-39 -6 -60 -20t-21 -37q0 -22 18.5 -29.5t69.5 -7.5h116q82 0 124 -31.5t42 -97.5zM294 38h-55q-67 0 -97 -22.5t-30 -58.5q0 -86 152 -86q82 0 125 25t43 72q0 39 -30.5 54.5t-107.5 15.5zM154 382q0 -59 26.5 -89.5
t79.5 -30.5q57 0 83.5 30.5t26.5 89.5q0 58 -26.5 87.5t-83.5 29.5q-53 0 -79.5 -29.5t-26.5 -87.5zM404 639l-89 151h-105l-88 -151h63l78 86l78 -86h63z" />
    <glyph glyph-name="Gbreve" unicode="&#x11e;" horiz-adv-x="757" 
d="M376 60q85 0 125.5 42.5t40.5 125.5v60l-84 21v50h278v-50l-84 -21v-288h-62l-25 79q-43 -48 -89.5 -68.5t-109.5 -20.5q-137 0 -219 84q-46 47 -71.5 119t-25.5 159q0 89 26.5 165.5t74.5 126.5q41 43 96 64.5t126 21.5q60 0 101.5 -17.5t78.5 -59.5l22 67h65v-226h-71
q-14 85 -63.5 131t-133.5 46q-49 0 -82 -16t-57 -49q-28 -42 -45 -105t-17 -135q0 -73 17.5 -136.5t49.5 -107.5q24 -32 57.5 -47t80.5 -15zM528 918h-53q-1 -40 -30.5 -57.5t-68.5 -17.5t-67.5 17.5t-30.5 57.5h-53q0 -69 40.5 -111.5t110.5 -42.5t111 42.5t41 111.5z" />
    <glyph glyph-name="gbreve" unicode="&#x11f;" horiz-adv-x="565" 
d="M514 -9q0 -81 -65 -128t-190 -47q-72 0 -124 14t-80 42t-28 69q0 47 28.5 73.5t79.5 31.5v4q-69 20 -69 77q0 21 10 40.5t31.5 36t54.5 25.5q-50 16 -78 55t-28 94q0 80 55 126t151 46q53 0 90.5 -11.5t64.5 -34.5l34 12l92 44h17v-93h-17l-70 8h-31q26 -37 26 -91
q0 -80 -53.5 -126t-149.5 -46q-10 0 -20 0.5t-20 1.5q-39 -6 -60 -20t-21 -37q0 -22 18.5 -29.5t69.5 -7.5h116q82 0 124 -31.5t42 -97.5zM294 38h-55q-67 0 -97 -22.5t-30 -58.5q0 -86 152 -86q82 0 125 25t43 72q0 39 -30.5 54.5t-107.5 15.5zM154 382q0 -59 26.5 -89.5
t79.5 -30.5q57 0 83.5 30.5t26.5 89.5q0 58 -26.5 87.5t-83.5 29.5q-53 0 -79.5 -29.5t-26.5 -87.5zM421 780h-53q0 -43 -27.5 -62.5t-77.5 -19.5q-39 0 -65 19.5t-28 62.5h-53q0 -72 38 -116.5t108 -44.5q67 0 111.5 42.5t46.5 118.5z" />
    <glyph glyph-name="Gdotaccent" unicode="&#x120;" horiz-adv-x="757" 
d="M376 60q85 0 125.5 42.5t40.5 125.5v60l-84 21v50h278v-50l-84 -21v-288h-62l-25 79q-43 -48 -89.5 -68.5t-109.5 -20.5q-137 0 -219 84q-46 47 -71.5 119t-25.5 159q0 89 26.5 165.5t74.5 126.5q41 43 96 64.5t126 21.5q60 0 101.5 -17.5t78.5 -59.5l22 67h65v-226h-71
q-14 85 -63.5 131t-133.5 46q-49 0 -82 -16t-57 -49q-28 -42 -45 -105t-17 -135q0 -73 17.5 -136.5t49.5 -107.5q24 -32 57.5 -47t80.5 -15zM309 834q0 31 18.5 49.5t48.5 18.5q31 0 49.5 -18.5t18.5 -49.5t-18.5 -49t-49.5 -18t-49 17.5t-18 49.5z" />
    <glyph glyph-name="gdotaccent" unicode="&#x121;" horiz-adv-x="565" 
d="M514 -9q0 -81 -65 -128t-190 -47q-72 0 -124 14t-80 42t-28 69q0 47 28.5 73.5t79.5 31.5v4q-69 20 -69 77q0 21 10 40.5t31.5 36t54.5 25.5q-50 16 -78 55t-28 94q0 80 55 126t151 46q53 0 90.5 -11.5t64.5 -34.5l34 12l92 44h17v-93h-17l-70 8h-31q26 -37 26 -91
q0 -80 -53.5 -126t-149.5 -46q-10 0 -20 0.5t-20 1.5q-39 -6 -60 -20t-21 -37q0 -22 18.5 -29.5t69.5 -7.5h116q82 0 124 -31.5t42 -97.5zM294 38h-55q-67 0 -97 -22.5t-30 -58.5q0 -86 152 -86q82 0 125 25t43 72q0 39 -30.5 54.5t-107.5 15.5zM154 382q0 -59 26.5 -89.5
t79.5 -30.5q57 0 83.5 30.5t26.5 89.5q0 58 -26.5 87.5t-83.5 29.5q-53 0 -79.5 -29.5t-26.5 -87.5zM196 696q0 31 18.5 49.5t48.5 18.5q31 0 49.5 -18.5t18.5 -49.5q0 -30 -18.5 -48.5t-49.5 -18.5t-49 18t-18 49z" />
    <glyph glyph-name="uni0122" unicode="&#x122;" horiz-adv-x="757" 
d="M376 60q85 0 125.5 42.5t40.5 125.5v60l-84 21v50h278v-50l-84 -21v-288h-62l-25 79q-43 -48 -89.5 -68.5t-109.5 -20.5q-137 0 -219 84q-46 47 -71.5 119t-25.5 159q0 89 26.5 165.5t74.5 126.5q41 43 96 64.5t126 21.5q60 0 101.5 -17.5t78.5 -59.5l22 67h65v-226h-71
q-14 85 -63.5 131t-133.5 46q-49 0 -82 -16t-57 -49q-28 -42 -45 -105t-17 -135q0 -73 17.5 -136.5t49.5 -107.5q24 -32 57.5 -47t80.5 -15zM379 -44q28 0 44 -17t16 -48q0 -39 -21 -70t-66 -58l-25 29q28 22 40 38.5t13 32.5l-3 2q-4 -6 -18 -6q-17 0 -28 13.5t-11 31.5
q0 23 16 37.5t43 14.5z" />
    <glyph glyph-name="uni0123" unicode="&#x123;" horiz-adv-x="565" 
d="M514 -9q0 -81 -65 -128t-190 -47q-72 0 -124 14t-80 42t-28 69q0 47 28.5 73.5t79.5 31.5v4q-69 20 -69 77q0 21 10 40.5t31.5 36t54.5 25.5q-50 16 -78 55t-28 94q0 80 55 126t151 46q53 0 90.5 -11.5t64.5 -34.5l34 12l92 44h17v-93h-17l-70 8h-31q26 -37 26 -91
q0 -80 -53.5 -126t-149.5 -46q-10 0 -20 0.5t-20 1.5q-39 -6 -60 -20t-21 -37q0 -22 18.5 -29.5t69.5 -7.5h116q82 0 124 -31.5t42 -97.5zM294 38h-55q-67 0 -97 -22.5t-30 -58.5q0 -86 152 -86q82 0 125 25t43 72q0 39 -30.5 54.5t-107.5 15.5zM154 382q0 -59 26.5 -89.5
t79.5 -30.5q57 0 83.5 30.5t26.5 89.5q0 58 -26.5 87.5t-83.5 29.5q-53 0 -79.5 -29.5t-26.5 -87.5zM260 638q-28 0 -44 17t-16 48q0 39 21 70t66 58l25 -29q-28 -22 -40 -38.5t-13 -32.5l3 -2q4 6 18 6q17 0 28 -13.5t11 -31.5q0 -23 -16 -37.5t-43 -14.5z" />
    <glyph glyph-name="Hcircumflex" unicode="&#x124;" horiz-adv-x="808" 
d="M679 651v-582l84 -21v-48h-278v48l84 21v269h-329v-269l84 -21v-48h-278v48l84 21v582l-84 21v48h278v-48l-84 -21v-250h329v250l-84 21v48h278v-48zM579 769l-119 121h-105l-118 -121h63l108 61l108 -61h63z" />
    <glyph glyph-name="hcircumflex" unicode="&#x125;" horiz-adv-x="649" 
d="M446 65v213q0 65 -3.5 97t-12.5 50q-24 49 -88 49q-28 0 -54 -11.5t-44 -31.5q-18 -17 -27 -42.5t-10 -62.5v-261l67 -19v-46h-251v46l77 19v650l-77 19v46h184v-334q29 48 76 76t102 28q41 0 72 -13t51 -38q24 -29 34.5 -80.5t10.5 -137.5v-216l77 -19v-46h-251v46z
M506 639l-89 151h-105l-88 -151h63l78 86l78 -86h63z" />
    <glyph glyph-name="Hbar" unicode="&#x126;" horiz-adv-x="818" 
d="M57 493v70h706v-70h-706zM684 651v-582l84 -21v-48h-278v48l84 21v269h-329v-269l84 -21v-48h-278v48l84 21v582l-84 21v48h278v-48l-84 -21v-250h329v250l-84 21v48h278v-48z" />
    <glyph glyph-name="hbar" unicode="&#x127;" horiz-adv-x="649" 
d="M27 607v67h281v-67h-281zM446 65v213q0 65 -3.5 97t-12.5 50q-24 49 -88 49q-28 0 -54 -11.5t-44 -31.5q-18 -17 -27 -42.5t-10 -62.5v-261l67 -19v-46h-251v46l77 19v650l-77 19v46h184v-334q29 48 76 76t102 28q41 0 72 -13t51 -38q24 -29 34.5 -80.5t10.5 -137.5v-216
l77 -19v-46h-251v46z" />
    <glyph glyph-name="Itilde" unicode="&#x128;" horiz-adv-x="379" 
d="M245 651v-582l94 -21v-48h-298v48l94 21v582l-94 21v48h298v-48zM1 769q6 63 36.5 94t80.5 31q26 0 44.5 -8.5t34.5 -19t32 -19t35 -8.5q30 0 45 13t20 37h50q-19 -131 -117 -131q-25 0 -44 8.5t-35 19.5t-31.5 19.5t-35.5 8.5q-30 0 -45 -12t-20 -33h-50z" />
    <glyph glyph-name="itilde" unicode="&#x129;" horiz-adv-x="318" 
d="M111 475l-77 19v46h184v-475l77 -19v-46h-261v46l77 19v410zM-25 634q6 63 36.5 94t80.5 31q26 0 44.5 -8.5t34.5 -19t32 -19t35 -8.5q30 0 45 13t20 37h50q-19 -131 -117 -131q-25 0 -44 8.5t-35 19.5t-31.5 19.5t-35.5 8.5q-30 0 -45 -12t-20 -33h-50z" />
    <glyph glyph-name="Imacron" unicode="&#x12a;" horiz-adv-x="379" 
d="M245 651v-582l94 -21v-48h-298v48l94 21v582l-94 21v48h298v-48zM48 786v75h279v-75h-279z" />
    <glyph glyph-name="imacron" unicode="&#x12b;" horiz-adv-x="318" 
d="M111 475l-77 19v46h184v-475l77 -19v-46h-261v46l77 19v410zM24 655v75h279v-75h-279z" />
    <glyph glyph-name="Ibreve" unicode="&#x12c;" horiz-adv-x="379" 
d="M245 651v-582l94 -21v-48h-298v48l94 21v582l-94 21v48h298v-48zM335 918h-53q-1 -40 -30.5 -57.5t-68.5 -17.5t-67.5 17.5t-30.5 57.5h-53q0 -69 40.5 -111.5t110.5 -42.5t111 42.5t41 111.5z" />
    <glyph glyph-name="ibreve" unicode="&#x12d;" horiz-adv-x="318" 
d="M111 475l-77 19v46h184v-475l77 -19v-46h-261v46l77 19v410zM322 780h-53q0 -43 -27.5 -62.5t-77.5 -19.5q-39 0 -65 19.5t-28 62.5h-53q0 -72 38 -116.5t108 -44.5q67 0 111.5 42.5t46.5 118.5z" />
    <glyph glyph-name="Iogonek" unicode="&#x12e;" horiz-adv-x="379" 
d="M245 651v-582l94 -21v-48h-298v48l94 21v582l-94 21v48h298v-48zM172 -210q-49 0 -76.5 23.5t-27.5 61.5q0 75 114 139h51q-23 -15 -42 -34.5t-30 -41t-11 -41.5q0 -21 13 -32.5t37 -11.5q17 0 35 4.5t30 14.5l18 -26q-17 -26 -44.5 -41t-66.5 -15z" />
    <glyph glyph-name="iogonek" unicode="&#x12f;" horiz-adv-x="318" 
d="M111 475l-77 19v46h184v-475l77 -19v-46h-261v46l77 19v410zM98 698q0 30 18 48t48 18q31 0 49 -18t18 -48q0 -29 -17.5 -47t-49.5 -18q-31 0 -48.5 17.5t-17.5 47.5zM147 -210q-49 0 -76.5 23.5t-27.5 61.5q0 75 114 139h51q-23 -15 -42 -34.5t-30 -41t-11 -41.5
q0 -21 13 -32.5t37 -11.5q17 0 35 4.5t30 14.5l18 -26q-17 -26 -44.5 -41t-66.5 -15z" />
    <glyph glyph-name="Idotaccent" unicode="&#x130;" horiz-adv-x="379" 
d="M245 651v-582l94 -21v-48h-298v48l94 21v582l-94 21v48h298v-48zM123 834q0 31 18.5 49.5t48.5 18.5q31 0 49.5 -18.5t18.5 -49.5t-18.5 -49t-49.5 -18t-49 17.5t-18 49.5z" />
    <glyph glyph-name="dotlessi" unicode="&#x131;" horiz-adv-x="318" 
d="M111 475l-77 19v46h184v-475l77 -19v-46h-261v46l77 19v410z" />
    <glyph glyph-name="IJ" unicode="&#x132;" horiz-adv-x="967" 
d="M245 651v-582l94 -21v-48h-298v48l94 21v582l-94 21v48h298v-48zM741 207v444l-99 21v48h288v-48l-79 -21v-433q0 -69 -29.5 -120.5t-82.5 -80t-124 -28.5q-65 0 -115.5 23.5t-78 65t-27.5 95.5q0 43 17.5 67t52.5 24q31 0 50 -17.5t19 -45.5q0 -23 -13 -46.5t-30 -31.5
q1 -30 34 -50.5t87 -20.5q66 0 98 38.5t32 116.5z" />
    <glyph glyph-name="ij" unicode="&#x133;" horiz-adv-x="608" 
d="M111 475l-77 19v46h184v-475l77 -19v-46h-261v46l77 19v410zM98 698q0 30 18 48t48 18q31 0 49 -18t18 -48q0 -29 -17.5 -47t-49.5 -18q-31 0 -48.5 17.5t-17.5 47.5zM527 540v-455q0 -74 -5 -116.5t-17 -69.5q-20 -44 -56.5 -66.5t-85.5 -22.5q-57 0 -93.5 26t-36.5 69
q0 27 15.5 44.5t43.5 17.5q25 0 39.5 -15.5t14.5 -41.5q0 -13 -4.5 -24.5t-12.5 -18.5q2 -8 12.5 -11.5t22.5 -3.5q31 0 43.5 28t12.5 101v494l-77 19v46h184zM408 698q0 30 18 48t48 18q31 0 49 -18t18 -48q0 -29 -18 -47t-49 -18t-48.5 17.5t-17.5 47.5z" />
    <glyph glyph-name="Jcircumflex" unicode="&#x134;" horiz-adv-x="588" 
d="M362 207v444l-99 21v48h288v-48l-79 -21v-433q0 -69 -29.5 -120.5t-82.5 -80t-124 -28.5q-65 0 -115.5 23.5t-78 65t-27.5 95.5q0 43 17.5 67t52.5 24q31 0 50 -17.5t19 -45.5q0 -23 -13 -46.5t-30 -31.5q1 -30 34 -50.5t87 -20.5q66 0 98 38.5t32 116.5zM590 769
l-119 121h-105l-118 -121h63l108 61l108 -61h63z" />
    <glyph glyph-name="jcircumflex" unicode="&#x135;" horiz-adv-x="289" 
d="M209 540v-455q0 -74 -5 -116.5t-17 -69.5q-19 -43 -55.5 -66t-85.5 -23q-34 0 -64 12t-48.5 33.5t-18.5 50.5q0 27 15.5 44t42.5 17q25 0 39.5 -14.5t14.5 -41.5q0 -13 -4 -24.5t-12 -19.5q2 -8 12 -11.5t23 -3.5q23 0 35 14.5t16.5 42.5t4.5 67v499l-77 19v46h184z
M296 639l-89 151h-105l-88 -151h63l78 86l78 -86h63z" />
    <glyph glyph-name="uni0136" unicode="&#x136;" horiz-adv-x="743" 
d="M245 651v-275l265 275l-91 21v48h273v-48l-88 -21l-229 -227l295 -357l84 -19v-48h-289v48l66 20l-229 283l-57 -55v-227l84 -21v-48h-288v48l94 21v582l-94 21v48h288v-48zM392 -44q28 0 44 -17t16 -48q0 -39 -21 -70t-66 -58l-25 29q28 22 40 38.5t13 32.5l-3 2
q-4 -6 -18 -6q-17 0 -28 13.5t-11 31.5q0 23 16 37.5t43 14.5z" />
    <glyph glyph-name="uni0137" unicode="&#x137;" horiz-adv-x="600" 
d="M364 46l59 19l-147 197l-69 -58v-139l77 -19v-46h-261v46l77 19v650l-77 19v46h184v-519l199 214l-62 19v46h225v-46l-78 -19l-146 -150l195 -262l53 -17v-46h-229v46zM322 -44q28 0 44 -17t16 -48q0 -39 -21 -70t-66 -58l-25 29q28 22 40 38.5t13 32.5l-3 2
q-4 -6 -18 -6q-17 0 -28 13.5t-11 31.5q0 23 16 37.5t43 14.5z" />
    <glyph glyph-name="kgreenlandic" unicode="&#x138;" horiz-adv-x="610" 
d="M376 46l59 19l-146 198l-71 -59v-139l77 -19v-46h-261v46l77 19v410l-77 19v46h184v-277l198 212l-66 19v46h225v-46l-73 -19l-146 -150l196 -262l53 -17v-46h-229v46z" />
    <glyph glyph-name="Lacute" unicode="&#x139;" horiz-adv-x="634" 
d="M245 651v-586h262l34 173h65v-238h-565v48l94 21v582l-94 21v48h308v-48zM157 767l61 76q16 22 29.5 33.5t26 16t26.5 4.5q20 0 30.5 -9.5t10.5 -23.5q0 -11 -7 -20.5t-23 -20.5t-44 -28l-47 -28h-63z" />
    <glyph glyph-name="lacute" unicode="&#x13a;" horiz-adv-x="302" 
d="M114 770l61 77q21 27 38.5 37.5t36.5 10.5q37 0 37 -30q0 -16 -17.5 -29.5t-55.5 -36.5l-47 -29h-53zM102 60v600l-77 19v41h174v-660l77 -19v-41h-251v41z" />
    <glyph glyph-name="uni013B" unicode="&#x13b;" horiz-adv-x="634" 
d="M245 651v-586h262l34 173h65v-238h-565v48l94 21v582l-94 21v48h308v-48zM341 -44q28 0 44 -17t16 -48q0 -39 -21 -70t-66 -58l-25 29q28 22 40 38.5t13 32.5l-3 2q-4 -6 -18 -6q-17 0 -28 13.5t-11 31.5q0 23 16 37.5t43 14.5z" />
    <glyph glyph-name="uni013C" unicode="&#x13c;" horiz-adv-x="314" 
d="M103 65v650l-77 19v46h184v-715l77 -19v-46h-261v46zM159 -44q28 0 44 -17t16 -48q0 -39 -21 -70t-66 -58l-25 29q28 22 40 38.5t13 32.5l-3 2q-4 -6 -18 -6q-17 0 -28 13.5t-11 31.5q0 23 16 37.5t43 14.5z" />
    <glyph glyph-name="Lcaron" unicode="&#x13d;" horiz-adv-x="634" 
d="M245 651v-586h262l34 173h65v-238h-565v48l94 21v582l-94 21v48h308v-48zM241 769l119 121h-63l-108 -61l-108 61h-63l118 -121h105z" />
    <glyph glyph-name="lcaron" unicode="&#x13e;" horiz-adv-x="314" 
d="M103 65v650l-77 19v46h184v-715l77 -19v-46h-261v46zM328 600h-50q0 33 -5 57t-9.5 44t-4.5 41q0 15 8.5 31.5t36.5 16.5q26 0 35 -16t9 -32q0 -21 -5 -41t-10 -44t-5 -57z" />
    <glyph glyph-name="Ldot" unicode="&#x13f;" horiz-adv-x="634" 
d="M245 651v-586h262l34 173h65v-238h-565v48l94 21v582l-94 21v48h308v-48zM329 360q0 32 18 51t50 19q31 0 50 -19.5t19 -50.5t-19 -49.5t-50 -18.5q-33 0 -50.5 18t-17.5 50z" />
    <glyph glyph-name="ldot" unicode="&#x140;" horiz-adv-x="353" 
d="M103 65v650l-77 19v46h184v-715l77 -19v-46h-261v46zM271 358q0 32 18 51t50 19q31 0 50 -19.5t19 -50.5t-19 -49.5t-50 -18.5q-33 0 -50.5 18t-17.5 50z" />
    <glyph glyph-name="Lslash" unicode="&#x141;" horiz-adv-x="635" 
d="M60 256v73l288 170v-74zM245 651v-586h262l34 173h65v-238h-565v48l94 21v582l-94 21v48h308v-48z" />
    <glyph glyph-name="lslash" unicode="&#x142;" horiz-adv-x="319" 
d="M27 286v73l268 170v-74zM105 65v650l-77 19v46h184v-715l77 -19v-46h-261v46z" />
    <glyph glyph-name="Nacute" unicode="&#x143;" horiz-adv-x="806" 
d="M130 69v582l-84 21v48h204l361 -545v476l-84 21v48h243v-48l-84 -21v-651h-85l-396 591v-522l84 -21v-48h-243v48zM371 767l61 76q16 22 29.5 33.5t26 16t26.5 4.5q20 0 30.5 -9.5t10.5 -23.5q0 -11 -7 -20.5t-23 -20.5t-44 -28l-47 -28h-63z" />
    <glyph glyph-name="nacute" unicode="&#x144;" horiz-adv-x="661" 
d="M111 65v410l-77 19v46h154l22 -100h4q30 51 81 80.5t109 29.5q83 0 123 -54q20 -28 28.5 -78.5t8.5 -136.5v-216l77 -19v-46h-251v46l67 19v213q0 63 -3.5 95.5t-12.5 51.5q-11 25 -32.5 36.5t-50.5 11.5q-55 0 -95 -35q-41 -38 -45 -116v-257l67 -19v-46h-251v46z
M293 639l49 76q30 46 48.5 63t41.5 17q25 0 37 -9.5t12 -27.5q0 -15 -20 -35.5t-67 -55.5l-38 -28h-63z" />
    <glyph glyph-name="uni0145" unicode="&#x145;" horiz-adv-x="806" 
d="M130 69v582l-84 21v48h204l361 -545v476l-84 21v48h243v-48l-84 -21v-651h-85l-396 591v-522l84 -21v-48h-243v48zM407 -44q28 0 44 -17t16 -48q0 -39 -21 -70t-66 -58l-25 29q28 22 40 38.5t13 32.5l-3 2q-4 -6 -18 -6q-17 0 -28 13.5t-11 31.5q0 23 16 37.5t43 14.5z
" />
    <glyph glyph-name="uni0146" unicode="&#x146;" horiz-adv-x="661" 
d="M111 65v410l-77 19v46h154l22 -100h4q30 51 81 80.5t109 29.5q83 0 123 -54q20 -28 28.5 -78.5t8.5 -136.5v-216l77 -19v-46h-251v46l67 19v213q0 63 -3.5 95.5t-12.5 51.5q-11 25 -32.5 36.5t-50.5 11.5q-55 0 -95 -35q-41 -38 -45 -116v-257l67 -19v-46h-251v46z
M341 -44q28 0 44 -17t16 -48q0 -39 -21 -70t-66 -58l-25 29q28 22 40 38.5t13 32.5l-3 2q-4 -6 -18 -6q-17 0 -28 13.5t-11 31.5q0 23 16 37.5t43 14.5z" />
    <glyph glyph-name="Ncaron" unicode="&#x147;" horiz-adv-x="806" 
d="M130 69v582l-84 21v48h204l361 -545v476l-84 21v48h243v-48l-84 -21v-651h-85l-396 591v-522l84 -21v-48h-243v48zM455 769l119 121h-63l-108 -61l-108 61h-63l118 -121h105z" />
    <glyph glyph-name="ncaron" unicode="&#x148;" horiz-adv-x="661" 
d="M111 65v410l-77 19v46h154l22 -100h4q30 51 81 80.5t109 29.5q83 0 123 -54q20 -28 28.5 -78.5t8.5 -136.5v-216l77 -19v-46h-251v46l67 19v213q0 63 -3.5 95.5t-12.5 51.5q-11 25 -32.5 36.5t-50.5 11.5q-55 0 -95 -35q-41 -38 -45 -116v-257l67 -19v-46h-251v46z
M406 636l85 144h-63l-78 -86l-76 86h-65l85 -144h112z" />
    <glyph glyph-name="napostrophe" unicode="&#x149;" horiz-adv-x="757" 
d="M206 65v410l-77 19v46h154l22 -100h4q30 51 81 80.5t109 29.5q83 0 123 -54q20 -28 28.5 -78.5t8.5 -136.5v-216l77 -19v-46h-251v46l67 19v213q0 63 -3.5 95.5t-12.5 51.5q-11 25 -32.5 36.5t-50.5 11.5q-55 0 -95 -35q-41 -38 -45 -116v-257l67 -19v-46h-251v46z
M84 793q28 0 43 -18.5t15 -49.5q0 -39 -26 -76t-72 -65l-27 32q35 26 50.5 46.5t16.5 34.5l-3 2q-2 -3 -7 -4.5t-12 -1.5q-17 0 -28.5 13.5t-11.5 33.5q0 21 16.5 37t45.5 16z" />
    <glyph glyph-name="Eng" unicode="&#x14a;" horiz-adv-x="806" 
d="M130 69v582l-84 21v48h204l360 -545v476l-83 21v48h243v-48l-84 -21v-566q0 -74 -5 -116.5t-17 -69.5q-19 -43 -51.5 -66t-79.5 -23q-35 0 -66.5 12.5t-50.5 34.5t-19 50q0 27 14 43.5t39 16.5q23 0 37.5 -14t14.5 -41q0 -15 -5.5 -25.5t-13.5 -17.5q2 -8 15 -12.5
t34 -4.5q36 0 55 32t19 92v17l-401 598v-522l84 -21v-48h-243v48z" />
    <glyph glyph-name="eng" unicode="&#x14b;" horiz-adv-x="634" 
d="M457 -24v302q0 65 -3.5 97t-12.5 50q-10 24 -32.5 36t-49.5 12q-28 0 -52 -9.5t-44 -26.5q-22 -19 -32.5 -46.5t-12.5 -68.5v-257l67 -19v-46h-251v46l77 19v410l-77 19v46h154l22 -100h4q30 51 81 80.5t109 29.5q83 0 123 -54q20 -28 28.5 -78.5t8.5 -136.5v-196
q0 -74 -5 -116.5t-17 -69.5q-19 -43 -57 -66t-86 -23q-57 0 -93 27t-36 68q0 26 15 42.5t43 16.5q26 0 40 -14.5t14 -37.5q0 -28 -16 -44q2 -7 12.5 -11.5t24.5 -4.5q21 0 32.5 11t16.5 38t5 75z" />
    <glyph glyph-name="Omacron" unicode="&#x14c;" horiz-adv-x="767" 
d="M718 368q0 -86 -26 -162.5t-74 -128.5q-42 -44 -100.5 -65.5t-136.5 -21.5t-137 21t-98 63q-45 47 -70.5 119.5t-25.5 158.5q0 87 26.5 163.5t73.5 127.5q42 45 98.5 66t135.5 21q77 0 135.5 -20.5t101.5 -63.5q48 -49 72.5 -122.5t24.5 -155.5zM175 372q0 -82 14 -145
t40 -103q25 -37 63.5 -55.5t94.5 -18.5q102 0 151 66q27 36 41 96t14 142t-14.5 143.5t-40.5 99.5t-65.5 56t-92.5 18q-51 0 -88 -17t-62 -49q-55 -73 -55 -233zM242 786v75h279v-75h-279z" />
    <glyph glyph-name="omacron" unicode="&#x14d;" horiz-adv-x="586" 
d="M543 273q0 -64 -19 -122t-54 -96q-31 -34 -76 -49.5t-103 -15.5q-57 0 -101.5 15.5t-75.5 48.5q-34 37 -52.5 92t-18.5 119q0 65 19 123.5t54 96.5q33 34 76.5 49.5t101.5 15.5q57 0 102 -15.5t76 -48.5q35 -37 53 -93t18 -120zM171 215q4 -47 18 -80t36 -53
q22 -16 45.5 -22t52.5 0q57 17 80 89q12 39 15 84t-3 93q-4 46 -18 79.5t-36 52.5q-21 17 -45 22.5t-54 -0.5q-57 -17 -78 -89q-24 -78 -13 -176zM153 655v75h279v-75h-279z" />
    <glyph glyph-name="Obreve" unicode="&#x14e;" horiz-adv-x="767" 
d="M718 368q0 -86 -26 -162.5t-74 -128.5q-42 -44 -100.5 -65.5t-136.5 -21.5t-137 21t-98 63q-45 47 -70.5 119.5t-25.5 158.5q0 87 26.5 163.5t73.5 127.5q42 45 98.5 66t135.5 21q77 0 135.5 -20.5t101.5 -63.5q48 -49 72.5 -122.5t24.5 -155.5zM175 372q0 -82 14 -145
t40 -103q25 -37 63.5 -55.5t94.5 -18.5q102 0 151 66q27 36 41 96t14 142t-14.5 143.5t-40.5 99.5t-65.5 56t-92.5 18q-51 0 -88 -17t-62 -49q-55 -73 -55 -233zM536 918h-53q-1 -40 -30.5 -57.5t-68.5 -17.5t-67.5 17.5t-30.5 57.5h-53q0 -69 40.5 -111.5t110.5 -42.5
t111 42.5t41 111.5z" />
    <glyph glyph-name="obreve" unicode="&#x14f;" horiz-adv-x="586" 
d="M543 273q0 -64 -19 -122t-54 -96q-31 -34 -76 -49.5t-103 -15.5q-57 0 -101.5 15.5t-75.5 48.5q-34 37 -52.5 92t-18.5 119q0 65 19 123.5t54 96.5q33 34 76.5 49.5t101.5 15.5q57 0 102 -15.5t76 -48.5q35 -37 53 -93t18 -120zM171 215q4 -47 18 -80t36 -53
q22 -16 45.5 -22t52.5 0q57 17 80 89q12 39 15 84t-3 93q-4 46 -18 79.5t-36 52.5q-21 17 -45 22.5t-54 -0.5q-57 -17 -78 -89q-24 -78 -13 -176zM451 780h-53q0 -43 -27.5 -62.5t-77.5 -19.5q-39 0 -65 19.5t-28 62.5h-53q0 -72 38 -116.5t108 -44.5q67 0 111.5 42.5
t46.5 118.5z" />
    <glyph glyph-name="Ohungarumlaut" unicode="&#x150;" horiz-adv-x="767" 
d="M718 368q0 -86 -26 -162.5t-74 -128.5q-42 -44 -100.5 -65.5t-136.5 -21.5t-137 21t-98 63q-45 47 -70.5 119.5t-25.5 158.5q0 87 26.5 163.5t73.5 127.5q42 45 98.5 66t135.5 21q77 0 135.5 -20.5t101.5 -63.5q48 -49 72.5 -122.5t24.5 -155.5zM175 372q0 -82 14 -145
t40 -103q25 -37 63.5 -55.5t94.5 -18.5q102 0 151 66q27 36 41 96t14 142t-14.5 143.5t-40.5 99.5t-65.5 56t-92.5 18q-51 0 -88 -17t-62 -49q-55 -73 -55 -233zM263 767l61 76q16 22 29.5 33.5t26 16t26.5 4.5q20 0 30.5 -9.5t10.5 -23.5q0 -11 -7 -20.5t-23 -20.5t-44 -28
l-47 -28h-63zM443 767l61 76q16 22 29.5 33.5t26 16t26.5 4.5q20 0 30.5 -9.5t10.5 -23.5q0 -11 -7 -20.5t-23 -20.5t-44 -28l-47 -28h-63z" />
    <glyph glyph-name="ohungarumlaut" unicode="&#x151;" horiz-adv-x="586" 
d="M543 273q0 -64 -19 -122t-54 -96q-31 -34 -76 -49.5t-103 -15.5q-57 0 -101.5 15.5t-75.5 48.5q-34 37 -52.5 92t-18.5 119q0 65 19 123.5t54 96.5q33 34 76.5 49.5t101.5 15.5q57 0 102 -15.5t76 -48.5q35 -37 53 -93t18 -120zM171 215q4 -47 18 -80t36 -53
q22 -16 45.5 -22t52.5 0q57 17 80 89q12 39 15 84t-3 93q-4 46 -18 79.5t-36 52.5q-21 17 -45 22.5t-54 -0.5q-57 -17 -78 -89q-24 -78 -13 -176zM169 639l49 76q30 46 48.5 63t41.5 17q25 0 37 -9.5t12 -27.5q0 -15 -20 -35.5t-67 -55.5l-38 -28h-63zM345 639l49 76
q29 46 47.5 63t42.5 17t36 -9.5t12 -27.5q0 -15 -19.5 -35.5t-66.5 -55.5l-38 -28h-63z" />
    <glyph glyph-name="OE" unicode="&#x152;" horiz-adv-x="1075" 
d="M866 238h-61l-18 99h-156v-272h292l31 158h68v-223h-634q-155 0 -238 87q-47 50 -73.5 123.5t-26.5 157.5q0 80 25.5 150t71.5 118q83 84 232 84h621v-212h-62l-31 149h-276v-255h156l18 100h61v-264zM521 65v590h-125q-58 0 -99 -18t-67 -56q-55 -76 -55 -227
q0 -77 13.5 -132.5t41.5 -90.5q26 -34 64 -50t92 -16h135z" />
    <glyph glyph-name="oe" unicode="&#x153;" horiz-adv-x="924" 
d="M293 550q39 0 76.5 -11t67 -33t42.5 -57h4q25 49 70 75t111 26q106 0 162.5 -63.5t56.5 -175.5q0 -10 -0.5 -20t-2.5 -30h-349q0 -37 5 -66t15 -52q18 -43 52.5 -62t74.5 -19q47 0 86 19.5t70 53.5l42 -29q-24 -32 -54.5 -58.5t-70.5 -42t-96 -15.5q-36 0 -72 10.5
t-63 32t-37 52.5h-4q-24 -46 -78 -70.5t-115 -24.5q-55 0 -98.5 15.5t-73.5 47.5q-34 37 -52.5 91.5t-18.5 118.5q0 65 19 124.5t55 97.5q32 34 76.5 49.5t99.5 15.5zM160 274q0 -59 10 -102.5t26 -71.5q16 -25 39.5 -39t57.5 -14q64 0 98 47q18 25 26.5 70t8.5 103
t-9.5 102t-26.5 71q-16 26 -39.5 39.5t-58.5 13.5q-32 0 -57 -11.5t-39 -34.5q-17 -27 -26.5 -70.5t-9.5 -102.5zM658 491q-55 0 -87.5 -43.5t-38.5 -132.5h240v31q0 70 -31 107.5t-83 37.5z" />
    <glyph glyph-name="Racute" unicode="&#x154;" horiz-adv-x="710" 
d="M551 382q-18 -14 -41.5 -25t-58.5 -18q7 -8 18 -21.5t21 -30.5l130 -220l89 -19v-48h-216v48l-140 272h-113v-251l95 -21v-48h-289v48l84 21v582l-84 21v48h354q48 0 84 -9t65 -29q36 -24 57 -66t21 -84t-20.5 -82.5t-55.5 -67.5zM240 383h133q55 0 91 31q20 18 31.5 48
t11.5 64q0 33 -12 60.5t-32 44.5q-17 14 -39.5 20t-54.5 6h-129v-274zM280 767l61 76q16 22 29.5 33.5t26 16t26.5 4.5q20 0 30.5 -9.5t10.5 -23.5q0 -11 -7 -20.5t-23 -20.5t-44 -28l-47 -28h-63z" />
    <glyph glyph-name="racute" unicode="&#x155;" horiz-adv-x="463" 
d="M335 477q-3 2 -6.5 3t-7.5 1q-11 0 -25 -12t-26.5 -30t-21.5 -39q-14 -34 -22 -73t-8 -85v-177l108 -19v-46h-292v46l77 19v415l-77 19v41h154l22 -132h4q23 68 62 105t86 37q39 0 65 -24.5t26 -65.5q0 -30 -16.5 -50t-44.5 -20q-31 0 -46.5 17.5t-15.5 42.5q0 6 0.5 11
t4.5 16zM215 639l49 76q30 46 48.5 63t41.5 17q25 0 37 -9.5t12 -27.5q0 -15 -20 -35.5t-67 -55.5l-38 -28h-63z" />
    <glyph glyph-name="uni0156" unicode="&#x156;" horiz-adv-x="710" 
d="M551 382q-18 -14 -41.5 -25t-58.5 -18q7 -8 18 -21.5t21 -30.5l130 -220l89 -19v-48h-216v48l-140 272h-113v-251l95 -21v-48h-289v48l84 21v582l-84 21v48h354q48 0 84 -9t65 -29q36 -24 57 -66t21 -84t-20.5 -82.5t-55.5 -67.5zM240 383h133q55 0 91 31q20 18 31.5 48
t11.5 64q0 33 -12 60.5t-32 44.5q-17 14 -39.5 20t-54.5 6h-129v-274zM388 -44q28 0 44 -17t16 -48q0 -39 -21 -70t-66 -58l-25 29q28 22 40 38.5t13 32.5l-3 2q-4 -6 -18 -6q-17 0 -28 13.5t-11 31.5q0 23 16 37.5t43 14.5z" />
    <glyph glyph-name="uni0157" unicode="&#x157;" horiz-adv-x="463" 
d="M335 477q-3 2 -6.5 3t-7.5 1q-11 0 -25 -12t-26.5 -30t-21.5 -39q-14 -34 -22 -73t-8 -85v-177l108 -19v-46h-292v46l77 19v415l-77 19v41h154l22 -132h4q23 68 62 105t86 37q39 0 65 -24.5t26 -65.5q0 -30 -16.5 -50t-44.5 -20q-31 0 -46.5 17.5t-15.5 42.5q0 6 0.5 11
t4.5 16zM168 -44q28 0 44 -17t16 -48q0 -39 -21 -70t-66 -58l-25 29q28 22 40 38.5t13 32.5l-3 2q-4 -6 -18 -6q-17 0 -28 13.5t-11 31.5q0 23 16 37.5t43 14.5z" />
    <glyph glyph-name="Rcaron" unicode="&#x158;" horiz-adv-x="710" 
d="M551 382q-18 -14 -41.5 -25t-58.5 -18q7 -8 18 -21.5t21 -30.5l130 -220l89 -19v-48h-216v48l-140 272h-113v-251l95 -21v-48h-289v48l84 21v582l-84 21v48h354q48 0 84 -9t65 -29q36 -24 57 -66t21 -84t-20.5 -82.5t-55.5 -67.5zM240 383h133q55 0 91 31q20 18 31.5 48
t11.5 64q0 33 -12 60.5t-32 44.5q-17 14 -39.5 20t-54.5 6h-129v-274zM400 769l119 121h-63l-108 -61l-108 61h-63l118 -121h105z" />
    <glyph glyph-name="rcaron" unicode="&#x159;" horiz-adv-x="463" 
d="M335 477q-3 2 -6.5 3t-7.5 1q-11 0 -25 -12t-26.5 -30t-21.5 -39q-14 -34 -22 -73t-8 -85v-177l108 -19v-46h-292v46l77 19v415l-77 19v41h154l22 -132h4q23 68 62 105t86 37q39 0 65 -24.5t26 -65.5q0 -30 -16.5 -50t-44.5 -20q-31 0 -46.5 17.5t-15.5 42.5q0 6 0.5 11
t4.5 16zM303 636l85 144h-63l-78 -86l-76 86h-65l85 -144h112z" />
    <glyph glyph-name="Sacute" unicode="&#x15a;" horiz-adv-x="604" 
d="M321 -11q-58 0 -103.5 17.5t-77.5 51.5l-11 -58h-66v232h71q6 -97 48.5 -140t122.5 -43q67 0 102 26.5t35 78.5q0 43 -21.5 71t-62 50t-96.5 44q-62 26 -106 52t-67 63t-23 95q0 96 59.5 149t159.5 53q99 0 161 -56l8 45h66v-232h-67q0 95 -35.5 139.5t-111.5 44.5
q-129 0 -129 -119q0 -34 13 -55t44.5 -39t89.5 -43q83 -36 133.5 -69t73 -71t22.5 -90q0 -63 -30 -107t-82 -67t-120 -23zM258 767l61 76q16 22 29.5 33.5t26 16t26.5 4.5q20 0 30.5 -9.5t10.5 -23.5q0 -11 -7 -20.5t-23 -20.5t-44 -28l-47 -28h-63z" />
    <glyph glyph-name="sacute" unicode="&#x15b;" horiz-adv-x="507" 
d="M244 41q54 0 89.5 21.5t35.5 60.5q0 31 -22 50.5t-54.5 31.5t-65.5 22q-41 13 -79 31t-62 50t-24 83q0 72 52.5 115.5t146.5 43.5q84 0 133.5 -35t49.5 -94q0 -32 -15.5 -50.5t-43.5 -18.5q-26 0 -42 14.5t-16 35.5q0 19 10 34.5t26 22.5q-15 20 -38.5 30t-59.5 10
q-56 0 -83.5 -21t-27.5 -60q0 -29 13.5 -46.5t39.5 -29t63 -23.5q36 -11 70.5 -23.5t63 -31t45.5 -45.5t17 -67q0 -51 -29.5 -87.5t-80.5 -55.5t-116 -19q-90 0 -144 36t-54 96q0 35 17 55t46 20q24 0 42 -14t18 -37q0 -19 -11 -36t-25 -25q12 -18 42 -31t73 -13zM233 639
l49 76q30 46 48.5 63t41.5 17q25 0 37 -9.5t12 -27.5q0 -15 -20 -35.5t-67 -55.5l-38 -28h-63z" />
    <glyph glyph-name="Scircumflex" unicode="&#x15c;" horiz-adv-x="604" 
d="M321 -11q-58 0 -103.5 17.5t-77.5 51.5l-11 -58h-66v232h71q6 -97 48.5 -140t122.5 -43q67 0 102 26.5t35 78.5q0 43 -21.5 71t-62 50t-96.5 44q-62 26 -106 52t-67 63t-23 95q0 96 59.5 149t159.5 53q99 0 161 -56l8 45h66v-232h-67q0 95 -35.5 139.5t-111.5 44.5
q-129 0 -129 -119q0 -34 13 -55t44.5 -39t89.5 -43q83 -36 133.5 -69t73 -71t22.5 -90q0 -63 -30 -107t-82 -67t-120 -23zM461 769l-119 121h-105l-118 -121h63l108 61l108 -61h63z" />
    <glyph glyph-name="scircumflex" unicode="&#x15d;" horiz-adv-x="507" 
d="M244 41q54 0 89.5 21.5t35.5 60.5q0 31 -22 50.5t-54.5 31.5t-65.5 22q-41 13 -79 31t-62 50t-24 83q0 72 52.5 115.5t146.5 43.5q84 0 133.5 -35t49.5 -94q0 -32 -15.5 -50.5t-43.5 -18.5q-26 0 -42 14.5t-16 35.5q0 19 10 34.5t26 22.5q-15 20 -38.5 30t-59.5 10
q-56 0 -83.5 -21t-27.5 -60q0 -29 13.5 -46.5t39.5 -29t63 -23.5q36 -11 70.5 -23.5t63 -31t45.5 -45.5t17 -67q0 -51 -29.5 -87.5t-80.5 -55.5t-116 -19q-90 0 -144 36t-54 96q0 35 17 55t46 20q24 0 42 -14t18 -37q0 -19 -11 -36t-25 -25q12 -18 42 -31t73 -13zM406 639
l-89 151h-105l-88 -151h63l78 86l78 -86h63z" />
    <glyph glyph-name="uni015E" unicode="&#x15e;" horiz-adv-x="604" 
d="M321 -11q-58 0 -103.5 17.5t-77.5 51.5l-11 -58h-66v232h71q6 -97 48.5 -140t122.5 -43q67 0 102 26.5t35 78.5q0 43 -21.5 71t-62 50t-96.5 44q-62 26 -106 52t-67 63t-23 95q0 96 59.5 149t159.5 53q99 0 161 -56l8 45h66v-232h-67q0 95 -35.5 139.5t-111.5 44.5
q-129 0 -129 -119q0 -34 13 -55t44.5 -39t89.5 -43q83 -36 133.5 -69t73 -71t22.5 -90q0 -63 -30 -107t-82 -67t-120 -23zM295 -210q-53 0 -91 28l28 39q29 -20 59 -20q21 0 33.5 9t12.5 23q0 15 -13.5 22.5t-37.5 7.5q-11 0 -22 -1.5t-22 -4.5l-14 24l77 100h54l-45 -74
l1 -3q56 0 79.5 -17t23.5 -49q0 -40 -36 -62t-87 -22z" />
    <glyph glyph-name="uni015F" unicode="&#x15f;" horiz-adv-x="507" 
d="M244 41q54 0 89.5 21.5t35.5 60.5q0 31 -22 50.5t-54.5 31.5t-65.5 22q-41 13 -79 31t-62 50t-24 83q0 72 52.5 115.5t146.5 43.5q84 0 133.5 -35t49.5 -94q0 -32 -15.5 -50.5t-43.5 -18.5q-26 0 -42 14.5t-16 35.5q0 19 10 34.5t26 22.5q-15 20 -38.5 30t-59.5 10
q-56 0 -83.5 -21t-27.5 -60q0 -29 13.5 -46.5t39.5 -29t63 -23.5q36 -11 70.5 -23.5t63 -31t45.5 -45.5t17 -67q0 -51 -29.5 -87.5t-80.5 -55.5t-116 -19q-90 0 -144 36t-54 96q0 35 17 55t46 20q24 0 42 -14t18 -37q0 -19 -11 -36t-25 -25q12 -18 42 -31t73 -13zM227 -210
q-53 0 -91 28l28 39q29 -20 59 -20q21 0 33.5 9t12.5 23q0 15 -13.5 22.5t-37.5 7.5q-11 0 -22 -1.5t-22 -4.5l-14 24l77 100h54l-45 -74l1 -3q56 0 79.5 -17t23.5 -49q0 -40 -36 -62t-87 -22z" />
    <glyph glyph-name="Scaron" unicode="&#x160;" horiz-adv-x="604" 
d="M321 -11q-58 0 -103.5 17.5t-77.5 51.5l-11 -58h-66v232h71q6 -97 48.5 -140t122.5 -43q67 0 102 26.5t35 78.5q0 43 -21.5 71t-62 50t-96.5 44q-62 26 -106 52t-67 63t-23 95q0 96 59.5 149t159.5 53q99 0 161 -56l8 45h66v-232h-67q0 95 -35.5 139.5t-111.5 44.5
q-129 0 -129 -119q0 -34 13 -55t44.5 -39t89.5 -43q83 -36 133.5 -69t73 -71t22.5 -90q0 -63 -30 -107t-82 -67t-120 -23zM360 769l119 121h-63l-108 -61l-108 61h-63l118 -121h105z" />
    <glyph glyph-name="scaron" unicode="&#x161;" horiz-adv-x="507" 
d="M244 41q54 0 89.5 21.5t35.5 60.5q0 31 -22 50.5t-54.5 31.5t-65.5 22q-41 13 -79 31t-62 50t-24 83q0 72 52.5 115.5t146.5 43.5q84 0 133.5 -35t49.5 -94q0 -32 -15.5 -50.5t-43.5 -18.5q-26 0 -42 14.5t-16 35.5q0 19 10 34.5t26 22.5q-15 20 -38.5 30t-59.5 10
q-56 0 -83.5 -21t-27.5 -60q0 -29 13.5 -46.5t39.5 -29t63 -23.5q36 -11 70.5 -23.5t63 -31t45.5 -45.5t17 -67q0 -51 -29.5 -87.5t-80.5 -55.5t-116 -19q-90 0 -144 36t-54 96q0 35 17 55t46 20q24 0 42 -14t18 -37q0 -19 -11 -36t-25 -25q12 -18 42 -31t73 -13zM321 636
l85 144h-63l-78 -86l-76 86h-65l85 -144h112z" />
    <glyph glyph-name="uni0162" unicode="&#x162;" horiz-adv-x="663" 
d="M29 720h606v-215h-56l-32 150h-160v-583l106 -24v-48h-322v48l106 24v583h-161l-31 -150h-56v215zM302 -210q-53 0 -91 28l28 39q29 -20 59 -20q21 0 33.5 9t12.5 23q0 15 -13.5 22.5t-37.5 7.5q-11 0 -22 -1.5t-22 -4.5l-14 24l77 100h54l-45 -74l1 -3q56 0 79.5 -17
t23.5 -49q0 -40 -36 -62t-87 -22z" />
    <glyph glyph-name="uni0163" unicode="&#x163;" horiz-adv-x="349" 
d="M8 485v41l97 14l13 125l94 14v-139h128v-55h-128v-347q0 -34 1 -46.5t4 -20.5q3 -7 11 -9.5t26 -2.5h70v-34q-52 -18 -91 -26.5t-62 -8.5q-45 0 -58 37q-4 12 -6 31t-2 56v371h-97zM175 -210q-53 0 -91 28l28 39q29 -20 59 -20q21 0 33.5 9t12.5 23q0 15 -13.5 22.5
t-37.5 7.5q-11 0 -22 -1.5t-22 -4.5l-14 24l77 100h54l-45 -74l1 -3q56 0 79.5 -17t23.5 -49q0 -40 -36 -62t-87 -22z" />
    <glyph glyph-name="Tcaron" unicode="&#x164;" horiz-adv-x="663" 
d="M29 720h606v-215h-56l-32 150h-160v-583l106 -24v-48h-322v48l106 24v583h-161l-31 -150h-56v215zM386 769l119 121h-63l-108 -61l-108 61h-63l118 -121h105z" />
    <glyph glyph-name="tcaron" unicode="&#x165;" horiz-adv-x="349" 
d="M8 485v41l97 14l13 125l94 14v-139h128v-55h-128v-347q0 -34 1 -46.5t4 -20.5q3 -7 11 -9.5t26 -2.5h70v-34q-52 -18 -91 -26.5t-62 -8.5q-45 0 -58 37q-4 12 -6 31t-2 56v371h-97zM334 600h-50q0 33 -5 57t-9.5 44t-4.5 41q0 15 8.5 31.5t36.5 16.5q26 0 35 -16t9 -32
q0 -21 -5 -41t-10 -44t-5 -57z" />
    <glyph glyph-name="Tbar" unicode="&#x166;" horiz-adv-x="669" 
d="M106 351v70h456v-70h-456zM31 720h606v-215h-56l-32 150h-160v-583l106 -24v-48h-322v48l106 24v583h-161l-31 -150h-56v215z" />
    <glyph glyph-name="tbar" unicode="&#x167;" horiz-adv-x="355" 
d="M16 326v65h321v-65h-321zM11 485v41l97 14l13 125l94 14v-139h128v-55h-128v-347q0 -34 1 -46.5t4 -20.5q3 -7 11 -9.5t26 -2.5h70v-34q-51 -18 -90.5 -26.5t-62.5 -8.5q-45 0 -58 37q-4 12 -6 31t-2 56v371h-97z" />
    <glyph glyph-name="Utilde" unicode="&#x168;" horiz-adv-x="776" 
d="M589 264v387l-84 21v48h241v-48l-84 -21v-408q0 -124 -69.5 -189t-203.5 -65q-133 0 -204.5 66.5t-71.5 188.5v407l-84 21v48h278v-48l-84 -21v-385q0 -217 188 -217q94 0 136 51t42 164zM218 769q6 63 36.5 94t80.5 31q26 0 44.5 -8.5t34.5 -19t32 -19t35 -8.5
q30 0 45 13t20 37h50q-19 -131 -117 -131q-25 0 -44 8.5t-35 19.5t-31.5 19.5t-35.5 8.5q-30 0 -45 -12t-20 -33h-50z" />
    <glyph glyph-name="utilde" unicode="&#x169;" horiz-adv-x="639" 
d="M201 540v-278q0 -64 3.5 -96.5t11.5 -50.5q10 -24 31 -36.5t46 -12.5q27 0 51 10t43 27q41 37 45 115v257l-87 19v46h194v-475l77 -19v-46l-165 -10l-11 110h-4q-29 -51 -79 -80.5t-107 -29.5q-38 0 -69.5 14.5t-49.5 39.5q-19 28 -28 79t-9 136v216l-67 19v46h174z
M125 634q6 63 36.5 94t80.5 31q26 0 44.5 -8.5t34.5 -19t32 -19t35 -8.5q30 0 45 13t20 37h50q-19 -131 -117 -131q-25 0 -44 8.5t-35 19.5t-31.5 19.5t-35.5 8.5q-30 0 -45 -12t-20 -33h-50z" />
    <glyph glyph-name="Umacron" unicode="&#x16a;" horiz-adv-x="776" 
d="M589 264v387l-84 21v48h241v-48l-84 -21v-408q0 -124 -69.5 -189t-203.5 -65q-133 0 -204.5 66.5t-71.5 188.5v407l-84 21v48h278v-48l-84 -21v-385q0 -217 188 -217q94 0 136 51t42 164zM266 786v75h279v-75h-279z" />
    <glyph glyph-name="umacron" unicode="&#x16b;" horiz-adv-x="639" 
d="M201 540v-278q0 -64 3.5 -96.5t11.5 -50.5q10 -24 31 -36.5t46 -12.5q27 0 51 10t43 27q41 37 45 115v257l-87 19v46h194v-475l77 -19v-46l-165 -10l-11 110h-4q-29 -51 -79 -80.5t-107 -29.5q-38 0 -69.5 14.5t-49.5 39.5q-19 28 -28 79t-9 136v216l-67 19v46h174z
M174 655v75h279v-75h-279z" />
    <glyph glyph-name="Ubreve" unicode="&#x16c;" horiz-adv-x="776" 
d="M589 264v387l-84 21v48h241v-48l-84 -21v-408q0 -124 -69.5 -189t-203.5 -65q-133 0 -204.5 66.5t-71.5 188.5v407l-84 21v48h278v-48l-84 -21v-385q0 -217 188 -217q94 0 136 51t42 164zM559 918h-53q-1 -40 -30.5 -57.5t-68.5 -17.5t-67.5 17.5t-30.5 57.5h-53
q0 -69 40.5 -111.5t110.5 -42.5t111 42.5t41 111.5z" />
    <glyph glyph-name="ubreve" unicode="&#x16d;" horiz-adv-x="639" 
d="M201 540v-278q0 -64 3.5 -96.5t11.5 -50.5q10 -24 31 -36.5t46 -12.5q27 0 51 10t43 27q41 37 45 115v257l-87 19v46h194v-475l77 -19v-46l-165 -10l-11 110h-4q-29 -51 -79 -80.5t-107 -29.5q-38 0 -69.5 14.5t-49.5 39.5q-19 28 -28 79t-9 136v216l-67 19v46h174z
M472 780h-53q0 -43 -27.5 -62.5t-77.5 -19.5q-39 0 -65 19.5t-28 62.5h-53q0 -72 38 -116.5t108 -44.5q67 0 111.5 42.5t46.5 118.5z" />
    <glyph glyph-name="Uring" unicode="&#x16e;" horiz-adv-x="776" 
d="M589 264v387l-84 21v48h241v-48l-84 -21v-408q0 -124 -69.5 -189t-203.5 -65q-133 0 -204.5 66.5t-71.5 188.5v407l-84 21v48h278v-48l-84 -21v-385q0 -217 188 -217q94 0 136 51t42 164zM327 824q0 34 23.5 55t56.5 21q34 0 57.5 -21t23.5 -55q0 -33 -23.5 -53.5
t-57.5 -20.5q-33 0 -56.5 20.5t-23.5 53.5zM383 824q0 -11 6.5 -17.5t17.5 -6.5q12 0 19 6.5t7 17.5q0 12 -7 19t-19 7q-11 0 -17.5 -7t-6.5 -19z" />
    <glyph glyph-name="uring" unicode="&#x16f;" horiz-adv-x="639" 
d="M201 540v-278q0 -64 3.5 -96.5t11.5 -50.5q10 -24 31 -36.5t46 -12.5q27 0 51 10t43 27q41 37 45 115v257l-87 19v46h194v-475l77 -19v-46l-165 -10l-11 110h-4q-29 -51 -79 -80.5t-107 -29.5q-38 0 -69.5 14.5t-49.5 39.5q-19 28 -28 79t-9 136v216l-67 19v46h174z
M225 713q0 38 25.5 64.5t63.5 26.5t64.5 -26.5t26.5 -64.5t-26.5 -63.5t-64.5 -25.5t-63.5 25.5t-25.5 63.5zM277 713q0 -16 10.5 -26.5t26.5 -10.5q17 0 28 10.5t11 26.5q0 17 -11 28t-28 11q-16 0 -26.5 -11t-10.5 -28z" />
    <glyph glyph-name="Uhungarumlaut" unicode="&#x170;" horiz-adv-x="776" 
d="M589 264v387l-84 21v48h241v-48l-84 -21v-408q0 -124 -69.5 -189t-203.5 -65q-133 0 -204.5 66.5t-71.5 188.5v407l-84 21v48h278v-48l-84 -21v-385q0 -217 188 -217q94 0 136 51t42 164zM287 767l61 76q16 22 29.5 33.5t26 16t26.5 4.5q20 0 30.5 -9.5t10.5 -23.5
q0 -11 -7 -20.5t-23 -20.5t-44 -28l-47 -28h-63zM467 767l61 76q16 22 29.5 33.5t26 16t26.5 4.5q20 0 30.5 -9.5t10.5 -23.5q0 -11 -7 -20.5t-23 -20.5t-44 -28l-47 -28h-63z" />
    <glyph glyph-name="uhungarumlaut" unicode="&#x171;" horiz-adv-x="639" 
d="M201 540v-278q0 -64 3.5 -96.5t11.5 -50.5q10 -24 31 -36.5t46 -12.5q27 0 51 10t43 27q41 37 45 115v257l-87 19v46h194v-475l77 -19v-46l-165 -10l-11 110h-4q-29 -51 -79 -80.5t-107 -29.5q-38 0 -69.5 14.5t-49.5 39.5q-19 28 -28 79t-9 136v216l-67 19v46h174z
M190 639l49 76q30 46 48.5 63t41.5 17q25 0 37 -9.5t12 -27.5q0 -15 -20 -35.5t-67 -55.5l-38 -28h-63zM366 639l49 76q29 46 47.5 63t42.5 17t36 -9.5t12 -27.5q0 -15 -19.5 -35.5t-66.5 -55.5l-38 -28h-63z" />
    <glyph glyph-name="Uogonek" unicode="&#x172;" horiz-adv-x="776" 
d="M589 264v387l-84 21v48h241v-48l-84 -21v-408q0 -124 -69.5 -189t-203.5 -65q-133 0 -204.5 66.5t-71.5 188.5v407l-84 21v48h278v-48l-84 -21v-385q0 -217 188 -217q94 0 136 51t42 164zM388 -210q-49 0 -76.5 23.5t-27.5 61.5q0 75 114 139h51q-23 -15 -42 -34.5
t-30 -41t-11 -41.5q0 -21 13 -32.5t37 -11.5q17 0 35 4.5t30 14.5l18 -26q-17 -26 -44.5 -41t-66.5 -15z" />
    <glyph glyph-name="uogonek" unicode="&#x173;" horiz-adv-x="639" 
d="M201 540v-278q0 -64 3.5 -96.5t11.5 -50.5q10 -24 31 -36.5t46 -12.5q27 0 51 10t43 27q41 37 45 115v257l-87 19v46h194v-475l77 -19v-46l-165 -10l-11 110h-4q-29 -51 -79 -80.5t-107 -29.5q-38 0 -69.5 14.5t-49.5 39.5q-19 28 -28 79t-9 136v216l-67 19v46h174z
M480 -210q-49 0 -76.5 23.5t-27.5 61.5q0 75 114 139h51q-23 -15 -42 -34.5t-30 -41t-11 -41.5q0 -21 13 -32.5t37 -11.5q17 0 35 4.5t30 14.5l18 -26q-17 -26 -44.5 -41t-66.5 -15z" />
    <glyph glyph-name="Wcircumflex" unicode="&#x174;" horiz-adv-x="1044" 
d="M737 105l150 547l-79 20v48h239v-48l-83 -21l-188 -651h-114l-142 464l-128 -464h-114l-207 651l-78 21v48h294v-48l-96 -21l157 -546h4l133 491l-12 55l-78 21v48h274v-48l-92 -21l156 -546h4zM696 769l-119 121h-105l-118 -121h63l108 61l108 -61h63z" />
    <glyph glyph-name="wcircumflex" unicode="&#x175;" horiz-adv-x="881" 
d="M176 475l97 -345l12 -59h5l11 59l113 420h82l116 -420l12 -59h4l12 59l93 345l-65 19v46h200v-46l-54 -19l-147 -485h-113l-114 380l-111 -380h-113l-152 485l-53 19v46h234v-46zM596 639l-89 151h-105l-88 -151h63l78 86l78 -86h63z" />
    <glyph glyph-name="Ycircumflex" unicode="&#x176;" horiz-adv-x="679" 
d="M359 345l167 306l-81 21v48h237v-48l-82 -21l-201 -369v-213l94 -21v-48h-298v48l94 21v197l-213 385l-83 21v48h286v-48l-84 -21zM531 770l-119 121h-105l-118 -121h63l108 61l108 -61h63z" />
    <glyph glyph-name="ycircumflex" unicode="&#x177;" horiz-adv-x="593" 
d="M519 475l-164 -451q-30 -77 -54.5 -124.5t-54 -68.5t-75.5 -21q-47 0 -80.5 25t-33.5 63q0 30 17.5 50t45.5 20q25 0 39 -12.5t14 -36.5q0 -12 -7 -26.5t-21 -21.5q2 -10 12 -13.5t17 -3.5q14 0 26 6.5t25.5 28t29.5 67.5l12 37l-205 482l-60 19v46h234l8 -46l-71 -19
l140 -377h4l121 377l-58 19v46h200v-46zM456 639l-89 151h-105l-88 -151h63l78 86l78 -86h63z" />
    <glyph glyph-name="Ydieresis" unicode="&#x178;" horiz-adv-x="679" 
d="M359 345l167 306l-81 21v48h237v-48l-82 -21l-201 -369v-213l94 -21v-48h-298v48l94 21v197l-213 385l-83 21v48h286v-48l-84 -21zM181 833q0 31 17 48t47 17t47.5 -17.5t17.5 -47.5t-17 -47t-48 -17q-30 0 -47 17t-17 47zM411 833q0 31 17 48t47 17t47.5 -17.5
t17.5 -47.5t-17 -47t-48 -17q-30 0 -47 17t-17 47z" />
    <glyph glyph-name="Zacute" unicode="&#x179;" horiz-adv-x="651" 
d="M508 65l32 163h67v-228h-573v61l422 594h-297l-32 -152h-62v217h519v-61l-422 -594h346zM299 767l61 76q16 22 29.5 33.5t26 16t26.5 4.5q20 0 30.5 -9.5t10.5 -23.5q0 -11 -7 -20.5t-23 -20.5t-44 -28l-47 -28h-63z" />
    <glyph glyph-name="zacute" unicode="&#x17a;" horiz-adv-x="545" 
d="M408 61l20 136h67v-197h-453v61l323 418h-219l-24 -131h-67v192h436v-61l-322 -418h239zM241 639l49 76q30 46 48.5 63t41.5 17q25 0 37 -9.5t12 -27.5q0 -15 -20 -35.5t-67 -55.5l-38 -28h-63z" />
    <glyph glyph-name="Zdotaccent" unicode="&#x17b;" horiz-adv-x="651" 
d="M508 65l32 163h67v-228h-573v61l422 594h-297l-32 -152h-62v217h519v-61l-422 -594h346zM264 834q0 31 18.5 49.5t48.5 18.5q31 0 49.5 -18.5t18.5 -49.5t-18.5 -49t-49.5 -18t-49 17.5t-18 49.5z" />
    <glyph glyph-name="zdotaccent" unicode="&#x17c;" horiz-adv-x="545" 
d="M408 61l20 136h67v-197h-453v61l323 418h-219l-24 -131h-67v192h436v-61l-322 -418h239zM206 696q0 31 18.5 49.5t48.5 18.5q31 0 49.5 -18.5t18.5 -49.5q0 -30 -18.5 -48.5t-49.5 -18.5t-49 18t-18 49z" />
    <glyph glyph-name="Zcaron" unicode="&#x17d;" horiz-adv-x="651" 
d="M508 65l32 163h67v-228h-573v61l422 594h-297l-32 -152h-62v217h519v-61l-422 -594h346zM383 769l119 121h-63l-108 -61l-108 61h-63l118 -121h105z" />
    <glyph glyph-name="zcaron" unicode="&#x17e;" horiz-adv-x="545" 
d="M408 61l20 136h67v-197h-453v61l323 418h-219l-24 -131h-67v192h436v-61l-322 -418h239zM329 636l85 144h-63l-78 -86l-76 86h-65l85 -144h112z" />
    <glyph glyph-name="uni018F" unicode="&#x18f;" horiz-adv-x="702" 
d="M47 371h480q0 51 -9 101t-26 87q-26 58 -69 85t-110 27q-66 0 -116.5 -28t-87.5 -82l-39 35q49 71 107 102.5t144 31.5q202 0 284 -153q23 -44 35 -98.5t12 -116.5q0 -114 -38 -197.5t-110 -129t-173 -45.5q-139 0 -213.5 84t-74.5 232q0 15 1 28.5t3 36.5zM340 49
q83 0 130 65.5t56 186.5h-359v-41q0 -65 22 -112t61 -73t90 -26z" />
    <glyph glyph-name="uni01C4" unicode="&#x1c4;" horiz-adv-x="1421" 
d="M240 65h145q54 0 92 16t64 50q27 35 41 90.5t14 132.5q0 151 -55 227q-27 38 -67.5 56t-98.5 18h-135v-590zM46 720h346q149 0 232 -84q47 -48 72 -118t25 -150q0 -84 -26.5 -157.5t-73.5 -123.5q-83 -87 -238 -87h-337v48l84 21v582l-84 21v48zM1278 65l32 163h67v-228
h-573v61l422 594h-297l-32 -152h-62v217h519v-61l-422 -594h346zM1153 769l119 121h-63l-108 -61l-108 61h-63l118 -121h105z" />
    <glyph glyph-name="uni01C5" unicode="&#x1c5;" horiz-adv-x="1315" 
d="M240 65h145q54 0 92 16t64 50q27 35 41 90.5t14 132.5q0 151 -55 227q-27 38 -67.5 56t-98.5 18h-135v-590zM46 720h346q149 0 232 -84q47 -48 72 -118t25 -150q0 -84 -26.5 -157.5t-73.5 -123.5q-83 -87 -238 -87h-337v48l84 21v582l-84 21v48zM1178 61l20 136h67v-197
h-453v61l323 418h-219l-24 -131h-67v192h436v-61l-322 -418h239zM1100 636l85 144h-63l-78 -86l-76 86h-65l85 -144h112z" />
    <glyph glyph-name="uni01C6" unicode="&#x1c6;" horiz-adv-x="1170" 
d="M43 266q0 66 17.5 124.5t50.5 94.5q29 32 69 48.5t92 16.5q45 0 81 -17t65 -61v243l-77 19v46h184v-715l77 -19v-46l-165 -10l-8 82q-31 -46 -70 -64t-88 -18q-52 0 -92 15.5t-67 47.5q-31 38 -50 93t-19 120zM418 266q0 60 -9 104.5t-25 70.5q-16 25 -39 38.5t-59 13.5
q-30 0 -55.5 -11.5t-40.5 -35.5q-17 -25 -24.5 -70t-7.5 -101q0 -60 9 -104t24 -71q16 -25 40 -39t58 -14q31 0 56 11t39 35q16 27 25 71t9 102zM1033 61l20 136h67v-197h-453v61l323 418h-219l-24 -131h-67v192h436v-61l-322 -418h239zM955 636l85 144h-63l-78 -86l-76 86
h-65l85 -144h112z" />
    <glyph glyph-name="uni01C7" unicode="&#x1c7;" horiz-adv-x="1222" 
d="M245 651v-586h262l34 173h65v-238h-565v48l94 21v582l-94 21v48h308v-48zM996 207v444l-99 21v48h288v-48l-79 -21v-433q0 -69 -29.5 -120.5t-82.5 -80t-124 -28.5q-65 0 -115.5 23.5t-78 65t-27.5 95.5q0 43 17.5 67t52.5 24q31 0 50 -17.5t19 -45.5q0 -23 -13 -46.5
t-30 -31.5q1 -30 34 -50.5t87 -20.5q66 0 98 38.5t32 116.5z" />
    <glyph glyph-name="uni01C8" unicode="&#x1c8;" horiz-adv-x="917" 
d="M245 651v-586h262l34 173h65v-238h-565v48l94 21v582l-94 21v48h308v-48zM837 540v-455q0 -74 -5 -116.5t-17 -69.5q-20 -44 -56.5 -66.5t-85.5 -22.5q-57 0 -93.5 26t-36.5 69q0 27 15.5 44.5t43.5 17.5q25 0 39.5 -15.5t14.5 -41.5q0 -13 -4.5 -24.5t-12.5 -18.5
q2 -8 12.5 -11.5t22.5 -3.5q31 0 43.5 28t12.5 101v494l-77 19v46h184zM718 698q0 30 18 48t48 18q31 0 49 -18t18 -48q0 -29 -18 -47t-49 -18t-48.5 17.5t-17.5 47.5z" />
    <glyph glyph-name="uni01C9" unicode="&#x1c9;" horiz-adv-x="603" 
d="M103 65v650l-77 19v46h184v-715l77 -19v-46h-261v46zM523 540v-455q0 -74 -5 -116.5t-17 -69.5q-20 -44 -56.5 -66.5t-85.5 -22.5q-57 0 -93.5 26t-36.5 69q0 27 15.5 44.5t43.5 17.5q25 0 39.5 -15.5t14.5 -41.5q0 -13 -4.5 -24.5t-12.5 -18.5q2 -8 12.5 -11.5
t22.5 -3.5q31 0 43.5 28t12.5 101v494l-77 19v46h184zM404 698q0 30 18 48t48 18q31 0 49 -18t18 -48q0 -29 -18 -47t-49 -18t-48.5 17.5t-17.5 47.5z" />
    <glyph glyph-name="uni01CA" unicode="&#x1ca;" horiz-adv-x="1386" 
d="M130 69v582l-84 21v48h204l361 -545v476l-84 21v48h243v-48l-84 -21v-651h-85l-396 591v-522l84 -21v-48h-243v48zM1160 207v444l-99 21v48h288v-48l-79 -21v-433q0 -69 -29.5 -120.5t-82.5 -80t-124 -28.5q-65 0 -115.5 23.5t-78 65t-27.5 95.5q0 43 17.5 67t52.5 24
q31 0 50 -17.5t19 -45.5q0 -23 -13 -46.5t-30 -31.5q1 -30 34 -50.5t87 -20.5q66 0 98 38.5t32 116.5z" />
    <glyph glyph-name="uni01CB" unicode="&#x1cb;" horiz-adv-x="1084" 
d="M130 69v582l-84 21v48h204l361 -545v476l-84 21v48h243v-48l-84 -21v-651h-85l-396 591v-522l84 -21v-48h-243v48zM1004 540v-455q0 -74 -5 -116.5t-17 -69.5q-20 -44 -56.5 -66.5t-85.5 -22.5q-57 0 -93.5 26t-36.5 69q0 27 15.5 44.5t43.5 17.5q25 0 39.5 -15.5
t14.5 -41.5q0 -13 -4.5 -24.5t-12.5 -18.5q2 -8 12.5 -11.5t22.5 -3.5q31 0 43.5 28t12.5 101v494l-77 19v46h184zM885 698q0 30 18 48t48 18q31 0 49 -18t18 -48q0 -29 -18 -47t-49 -18t-48.5 17.5t-17.5 47.5z" />
    <glyph glyph-name="uni01CC" unicode="&#x1cc;" horiz-adv-x="951" 
d="M111 65v410l-77 19v46h154l22 -100h4q30 51 81 80.5t109 29.5q83 0 123 -54q20 -28 28.5 -78.5t8.5 -136.5v-216l77 -19v-46h-251v46l67 19v213q0 63 -3.5 95.5t-12.5 51.5q-11 25 -32.5 36.5t-50.5 11.5q-55 0 -95 -35q-41 -38 -45 -116v-257l67 -19v-46h-251v46z
M870 540v-455q0 -74 -5 -116.5t-17 -69.5q-20 -44 -56.5 -66.5t-85.5 -22.5q-57 0 -93.5 26t-36.5 69q0 27 15.5 44.5t43.5 17.5q25 0 39.5 -15.5t14.5 -41.5q0 -13 -4.5 -24.5t-12.5 -18.5q2 -8 12.5 -11.5t22.5 -3.5q31 0 43.5 28t12.5 101v494l-77 19v46h184zM751 698
q0 30 18 48t48 18q31 0 49 -18t18 -48q0 -29 -18 -47t-49 -18t-48.5 17.5t-17.5 47.5z" />
    <glyph glyph-name="uni01EA" unicode="&#x1ea;" horiz-adv-x="767" 
d="M718 368q0 -86 -26 -162.5t-74 -128.5q-42 -44 -100.5 -65.5t-136.5 -21.5t-137 21t-98 63q-45 47 -70.5 119.5t-25.5 158.5q0 87 26.5 163.5t73.5 127.5q42 45 98.5 66t135.5 21q77 0 135.5 -20.5t101.5 -63.5q48 -49 72.5 -122.5t24.5 -155.5zM175 372q0 -82 14 -145
t40 -103q25 -37 63.5 -55.5t94.5 -18.5q102 0 151 66q27 36 41 96t14 142t-14.5 143.5t-40.5 99.5t-65.5 56t-92.5 18q-51 0 -88 -17t-62 -49q-55 -73 -55 -233zM363 -210q-49 0 -76.5 23.5t-27.5 61.5q0 75 114 139h51q-23 -15 -42 -34.5t-30 -41t-11 -41.5q0 -21 13 -32.5
t37 -11.5q17 0 35 4.5t30 14.5l18 -26q-17 -26 -44.5 -41t-66.5 -15z" />
    <glyph glyph-name="uni01EB" unicode="&#x1eb;" horiz-adv-x="586" 
d="M543 273q0 -64 -19 -122t-54 -96q-31 -34 -76 -49.5t-103 -15.5q-57 0 -101.5 15.5t-75.5 48.5q-34 37 -52.5 92t-18.5 119q0 65 19 123.5t54 96.5q33 34 76.5 49.5t101.5 15.5q57 0 102 -15.5t76 -48.5q35 -37 53 -93t18 -120zM171 215q4 -47 18 -80t36 -53
q22 -16 45.5 -22t52.5 0q57 17 80 89q12 39 15 84t-3 93q-4 46 -18 79.5t-36 52.5q-21 17 -45 22.5t-54 -0.5q-57 -17 -78 -89q-24 -78 -13 -176zM272 -210q-49 0 -76.5 23.5t-27.5 61.5q0 75 114 139h51q-23 -15 -42 -34.5t-30 -41t-11 -41.5q0 -21 13 -32.5t37 -11.5
q17 0 35 4.5t30 14.5l18 -26q-17 -26 -44.5 -41t-66.5 -15z" />
    <glyph glyph-name="uni01F1" unicode="&#x1f1;" horiz-adv-x="1416" 
d="M240 65h145q54 0 92 16t64 50q27 35 41 90.5t14 132.5q0 151 -55 227q-27 38 -67.5 56t-98.5 18h-135v-590zM46 720h346q149 0 232 -84q47 -48 72 -118t25 -150q0 -84 -26.5 -157.5t-73.5 -123.5q-83 -87 -238 -87h-337v48l84 21v582l-84 21v48zM1273 65l32 163h67v-228
h-573v61l422 594h-297l-32 -152h-62v217h519v-61l-422 -594h346z" />
    <glyph glyph-name="uni01F2" unicode="&#x1f2;" horiz-adv-x="1315" 
d="M240 65h145q54 0 92 16t64 50q27 35 41 90.5t14 132.5q0 151 -55 227q-27 38 -67.5 56t-98.5 18h-135v-590zM46 720h346q149 0 232 -84q47 -48 72 -118t25 -150q0 -84 -26.5 -157.5t-73.5 -123.5q-83 -87 -238 -87h-337v48l84 21v582l-84 21v48zM1178 61l20 136h67v-197
h-453v61l323 418h-219l-24 -131h-67v192h436v-61l-322 -418h239z" />
    <glyph glyph-name="uni01F3" unicode="&#x1f3;" horiz-adv-x="1170" 
d="M43 266q0 66 17.5 124.5t50.5 94.5q29 32 69 48.5t92 16.5q45 0 81 -17t65 -61v243l-77 19v46h184v-715l77 -19v-46l-165 -10l-8 82q-31 -46 -70 -64t-88 -18q-52 0 -92 15.5t-67 47.5q-31 38 -50 93t-19 120zM418 266q0 60 -9 104.5t-25 70.5q-16 25 -39 38.5t-59 13.5
q-30 0 -55.5 -11.5t-40.5 -35.5q-17 -25 -24.5 -70t-7.5 -101q0 -60 9 -104t24 -71q16 -25 40 -39t58 -14q31 0 56 11t39 35q16 27 25 71t9 102zM1033 61l20 136h67v-197h-453v61l323 418h-219l-24 -131h-67v192h436v-61l-322 -418h239z" />
    <glyph glyph-name="Aringacute" unicode="&#x1fa;" horiz-adv-x="723" 
d="M281 762q0 33 23.5 54t57.5 22h1.5h1.5q18 23 31 35.5t25.5 18t26.5 5.5q17 0 27 -9.5t10 -22.5q0 -14 -13.5 -25.5t-45.5 -32.5q16 -19 16 -45q0 -37 -28 -57l235 -636l80 -21v-48h-285v48l82 21l-56 170h-260l-58 -170l83 -21v-48h-244v48l82 21l237 634q-13 10 -21 25
t-8 34zM342 608l-110 -306h217l-103 306h-4zM337 762q0 -11 6.5 -17.5t17.5 -6.5q12 0 19 6.5t7 17.5t-7 18.5t-19 7.5q-11 0 -17.5 -7.5t-6.5 -18.5z" />
    <glyph glyph-name="aringacute" unicode="&#x1fb;" horiz-adv-x="541" 
d="M202 652l38 -33l-31 -29h-53zM320 698l-50 46q24 32 36.5 41.5t28.5 9.5q34 0 34 -31q0 -14 -9.5 -27t-39.5 -39zM35 117q0 80 74 125t241 70q-4 56 -11 87t-18 51q-13 25 -36 38t-52 13q-26 0 -47 -9.5t-28 -25.5q14 -9 20 -24.5t6 -28.5q0 -25 -18 -41t-45 -16
q-26 0 -42.5 17.5t-16.5 46.5q0 42 29 71t74 44t90 15q43 0 78.5 -13t59.5 -35q67 -65 67 -221v-140q0 -49 6.5 -68t28.5 -19h45v-35q-78 -29 -121 -29q-31 0 -42 22.5t-11 86.5h-4q-31 -51 -82 -80t-110 -29q-63 0 -99 34t-36 93zM219 53q25 0 54 14.5t49 39.5q15 18 23 45
t8 64q0 15 -1 31t-3 31q-77 -16 -120.5 -34t-62 -43t-18.5 -61q0 -43 20 -65t51 -22zM172 681q0 38 26 64.5t63 26.5q39 0 65 -26.5t26 -64.5t-26 -63.5t-65 -25.5q-37 0 -63 25.5t-26 63.5zM224 681q0 -16 10.5 -26.5t26.5 -10.5q17 0 28.5 10.5t11.5 26.5q0 17 -11.5 28
t-28.5 11q-16 0 -26.5 -11t-10.5 -28z" />
    <glyph glyph-name="AEacute" unicode="&#x1fc;" horiz-adv-x="1062" 
d="M852 238h-61l-17 99h-157v-272h293l30 158h68v-223h-595v48l94 21v170h-243l-94 -170l76 -21v-48h-257v48l97 21l331 592l-81 11v48h650v-212h-62l-31 149h-276v-255h157l17 100h61v-264zM507 651l-17 2l-191 -351h208v349zM597 767l61 76q16 22 29.5 33.5t26 16
t26.5 4.5q20 0 30.5 -9.5t10.5 -23.5q0 -11 -7 -20.5t-23 -20.5t-44 -28l-47 -28h-63z" />
    <glyph glyph-name="aeacute" unicode="&#x1fd;" horiz-adv-x="841" 
d="M36 117q0 78 73 124t242 71q-4 57 -11 88t-18 50q-15 26 -38.5 38.5t-52.5 12.5q-25 0 -45.5 -10t-27.5 -27q13 -10 20 -25.5t7 -29.5q0 -25 -17.5 -40t-44.5 -15t-43.5 17t-16.5 49q0 42 29 71t73.5 44t89.5 15q53 0 96 -25.5t57 -77.5h5q20 51 65 77t102 26
q107 0 163.5 -63.5t56.5 -175.5q0 -10 -0.5 -20t-2.5 -30h-349q0 -37 5 -66t15 -52q18 -43 52.5 -62t74.5 -19q47 0 86 19.5t70 53.5l41 -30q-24 -32 -55 -58.5t-71 -41.5t-95 -15q-67 0 -117 27.5t-79 81.5h-7q-31 -51 -81.5 -80t-115.5 -29q-63 0 -99 34t-36 93zM571 491
q-56 0 -86.5 -43.5t-35.5 -132.5h240v31q0 70 -30.5 107.5t-87.5 37.5zM223 53q25 0 52.5 14.5t47.5 40.5q15 19 23 45.5t8 61.5q0 17 -1 32t-3 30q-77 -16 -121 -33.5t-62 -42.5t-18 -63q0 -41 19.5 -63t54.5 -22zM379 639l49 76q30 46 48.5 63t41.5 17q25 0 37 -9.5
t12 -27.5q0 -15 -20 -35.5t-67 -55.5l-38 -28h-63z" />
    <glyph glyph-name="Oslashacute" unicode="&#x1fe;" horiz-adv-x="764" 
d="M68 -10l526 740h81l-526 -740h-81zM716 368q0 -86 -26 -162.5t-74 -128.5q-42 -44 -100.5 -65.5t-136.5 -21.5t-137 21t-98 63q-45 47 -70.5 119.5t-25.5 158.5q0 87 26.5 163.5t73.5 127.5q42 45 98.5 66t135.5 21q77 0 135.5 -20.5t101.5 -63.5q48 -49 72.5 -122.5
t24.5 -155.5zM173 372q0 -82 14 -145t40 -103q25 -37 63.5 -55.5t94.5 -18.5q102 0 151 66q27 36 41 96t14 142t-14.5 143.5t-40.5 99.5t-65.5 56t-92.5 18q-51 0 -88 -17t-62 -49q-55 -73 -55 -233zM348 767l60 76q17 22 30.5 33.5t26 16t26.5 4.5q19 0 29.5 -9.5
t10.5 -23.5q0 -11 -7 -20.5t-23 -20.5t-43 -28l-47 -28h-63z" />
    <glyph glyph-name="oslashacute" unicode="&#x1ff;" horiz-adv-x="586" 
d="M93 -60l334 642h74l-334 -642h-74zM543 273q0 -64 -19 -122t-54 -96q-31 -34 -76 -49.5t-103 -15.5q-57 0 -101.5 15.5t-75.5 48.5q-34 37 -52.5 92t-18.5 119q0 65 19 123.5t54 96.5q33 34 76.5 49.5t101.5 15.5q57 0 102 -15.5t76 -48.5q35 -37 53 -93t18 -120z
M171 215q4 -47 18 -80t36 -53q22 -16 45.5 -22t52.5 0q57 17 80 89q12 39 15 84t-3 93q-4 46 -18 79.5t-36 52.5q-21 17 -45 22.5t-54 -0.5q-57 -17 -78 -89q-24 -78 -13 -176zM258 639l49 76q30 46 48.5 63t41.5 17q25 0 37 -9.5t12 -27.5q0 -15 -20 -35.5t-67 -55.5
l-38 -28h-63z" />
    <glyph glyph-name="uni0218" unicode="&#x218;" horiz-adv-x="604" 
d="M321 -11q-58 0 -103.5 17.5t-77.5 51.5l-11 -58h-66v232h71q6 -97 48.5 -140t122.5 -43q67 0 102 26.5t35 78.5q0 43 -21.5 71t-62 50t-96.5 44q-62 26 -106 52t-67 63t-23 95q0 96 59.5 149t159.5 53q99 0 161 -56l8 45h66v-232h-67q0 95 -35.5 139.5t-111.5 44.5
q-129 0 -129 -119q0 -34 13 -55t44.5 -39t89.5 -43q83 -36 133.5 -69t73 -71t22.5 -90q0 -63 -30 -107t-82 -67t-120 -23zM327 -44q28 0 44 -17t16 -48q0 -39 -21 -70t-66 -58l-25 29q28 22 40 38.5t13 32.5l-3 2q-4 -6 -18 -6q-17 0 -28 13.5t-11 31.5q0 23 16 37.5
t43 14.5z" />
    <glyph glyph-name="uni0219" unicode="&#x219;" horiz-adv-x="507" 
d="M244 41q54 0 89.5 21.5t35.5 60.5q0 31 -22 50.5t-54.5 31.5t-65.5 22q-41 13 -79 31t-62 50t-24 83q0 72 52.5 115.5t146.5 43.5q84 0 133.5 -35t49.5 -94q0 -32 -15.5 -50.5t-43.5 -18.5q-26 0 -42 14.5t-16 35.5q0 19 10 34.5t26 22.5q-15 20 -38.5 30t-59.5 10
q-56 0 -83.5 -21t-27.5 -60q0 -29 13.5 -46.5t39.5 -29t63 -23.5q36 -11 70.5 -23.5t63 -31t45.5 -45.5t17 -67q0 -51 -29.5 -87.5t-80.5 -55.5t-116 -19q-90 0 -144 36t-54 96q0 35 17 55t46 20q24 0 42 -14t18 -37q0 -19 -11 -36t-25 -25q12 -18 42 -31t73 -13zM255 -44
q28 0 44 -17t16 -48q0 -39 -21 -70t-66 -58l-25 29q28 22 40 38.5t13 32.5l-3 2q-4 -6 -18 -6q-17 0 -28 13.5t-11 31.5q0 23 16 37.5t43 14.5z" />
    <glyph glyph-name="uni021A" unicode="&#x21a;" horiz-adv-x="663" 
d="M29 720h606v-215h-56l-32 150h-160v-583l106 -24v-48h-322v48l106 24v583h-161l-31 -150h-56v215zM334 -44q28 0 44 -17t16 -48q0 -39 -21 -70t-66 -58l-25 29q28 22 40 38.5t13 32.5l-3 2q-4 -6 -18 -6q-17 0 -28 13.5t-11 31.5q0 23 16 37.5t43 14.5z" />
    <glyph glyph-name="uni021B" unicode="&#x21b;" horiz-adv-x="349" 
d="M8 485v41l97 14l13 125l94 14v-139h128v-55h-128v-347q0 -34 1 -46.5t4 -20.5q3 -7 11 -9.5t26 -2.5h70v-34q-52 -18 -91 -26.5t-62 -8.5q-45 0 -58 37q-4 12 -6 31t-2 56v371h-97zM181 -44q28 0 44 -17t16 -48q0 -39 -21 -70t-66 -58l-25 29q28 22 40 38.5t13 32.5l-3 2
q-4 -6 -18 -6q-17 0 -28 13.5t-11 31.5q0 23 16 37.5t43 14.5z" />
    <glyph glyph-name="uni0237" unicode="&#x237;" horiz-adv-x="289" 
d="M209 540v-455q0 -74 -5 -116.5t-17 -69.5q-19 -43 -55.5 -66t-85.5 -23q-34 0 -64 12t-48.5 33.5t-18.5 50.5q0 27 15.5 44t42.5 17q25 0 39.5 -14.5t14.5 -41.5q0 -13 -4 -24.5t-12 -19.5q2 -8 12 -11.5t23 -3.5q23 0 35 14.5t16.5 42.5t4.5 67v499l-77 19v46h184z" />
    <glyph glyph-name="uni0259" unicode="&#x259;" horiz-adv-x="549" 
d="M44 279h349q0 35 -5 63t-15 50q-19 47 -56 66.5t-81 19.5t-83 -19.5t-68 -52.5l-37 28q24 32 53.5 58.5t70 42t95.5 15.5q72 0 126 -29.5t82 -86.5q16 -31 22.5 -68.5t6.5 -81.5q0 -140 -64 -217t-180 -77q-106 0 -162.5 63.5t-56.5 175.5q0 10 0.5 20t2.5 30zM265 49
q60 0 90.5 44.5t36.5 131.5h-240v-31q0 -69 30.5 -107t82.5 -38z" />
    <glyph glyph-name="apostrophe" unicode="&#x2bc;" horiz-adv-x="175" 
d="M92 793q28 0 43 -18.5t15 -49.5q0 -39 -26 -76t-72 -65l-27 32q35 26 50.5 46.5t16.5 34.5l-3 2q-2 -3 -7 -4.5t-12 -1.5q-17 0 -28.5 13.5t-11.5 33.5q0 21 16.5 37t45.5 16z" />
    <glyph glyph-name="circumflex" unicode="&#x2c6;" horiz-adv-x="352" 
d="M317 639l-89 151h-105l-88 -151h63l78 86l78 -86h63z" />
    <glyph glyph-name="caron" unicode="&#x2c7;" horiz-adv-x="352" 
d="M232 636l85 144h-63l-78 -86l-76 86h-65l85 -144h112z" />
    <glyph glyph-name="breve" unicode="&#x2d8;" horiz-adv-x="364" 
d="M334 780h-53q0 -43 -27.5 -62.5t-77.5 -19.5q-39 0 -65 19.5t-28 62.5h-53q0 -72 38 -116.5t108 -44.5q67 0 111.5 42.5t46.5 118.5z" />
    <glyph glyph-name="dotaccent" unicode="&#x2d9;" horiz-adv-x="185" 
d="M25 696q0 31 18.5 49.5t48.5 18.5q31 0 49.5 -18.5t18.5 -49.5q0 -30 -18.5 -48.5t-49.5 -18.5t-49 18t-18 49z" />
    <glyph glyph-name="ring" unicode="&#x2da;" horiz-adv-x="240" 
d="M30 713q0 38 25.5 64.5t63.5 26.5t64.5 -26.5t26.5 -64.5t-26.5 -63.5t-64.5 -25.5t-63.5 25.5t-25.5 63.5zM82 713q0 -16 10.5 -26.5t26.5 -10.5q17 0 28 10.5t11 26.5q0 17 -11 28t-28 11q-16 0 -26.5 -11t-10.5 -28z" />
    <glyph glyph-name="ogonek" unicode="&#x2db;" horiz-adv-x="275" 
d="M134 -210q-49 0 -76.5 23.5t-27.5 61.5q0 75 114 139h51q-23 -15 -42 -34.5t-30 -41t-11 -41.5q0 -21 13 -32.5t37 -11.5q17 0 35 4.5t30 14.5l18 -26q-17 -26 -44.5 -41t-66.5 -15z" />
    <glyph glyph-name="tilde" unicode="&#x2dc;" horiz-adv-x="398" 
d="M10 634q6 63 36.5 94t80.5 31q26 0 44.5 -8.5t34.5 -19t32 -19t35 -8.5q30 0 45 13t20 37h50q-19 -131 -117 -131q-25 0 -44 8.5t-35 19.5t-31.5 19.5t-35.5 8.5q-30 0 -45 -12t-20 -33h-50z" />
    <glyph glyph-name="hungarumlaut" unicode="&#x2dd;" horiz-adv-x="425" 
d="M30 639l49 76q30 46 48.5 63t41.5 17q25 0 37 -9.5t12 -27.5q0 -15 -20 -35.5t-67 -55.5l-38 -28h-63zM206 639l49 76q29 46 47.5 63t42.5 17t36 -9.5t12 -27.5q0 -15 -19.5 -35.5t-66.5 -55.5l-38 -28h-63z" />
    <glyph glyph-name="gravecomb" unicode="&#x300;" 
d="M175 715l49 -76h-63l-38 28q-47 35 -67 55.5t-20 35.5q0 18 12 27.5t37 9.5q24 0 42.5 -17t47.5 -63z" />
    <glyph glyph-name="acutecomb" unicode="&#x301;" 
d="M35 639l49 76q30 46 48.5 63t41.5 17q25 0 37 -9.5t12 -27.5q0 -15 -20 -35.5t-67 -55.5l-38 -28h-63z" />
    <glyph glyph-name="uni0302" unicode="&#x302;" 
d="M317 639l-89 151h-105l-88 -151h63l78 86l78 -86h63z" />
    <glyph glyph-name="tildecomb" unicode="&#x303;" 
d="M10 634q6 63 36.5 94t80.5 31q26 0 44.5 -8.5t34.5 -19t32 -19t35 -8.5q30 0 45 13t20 37h50q-19 -131 -117 -131q-25 0 -44 8.5t-35 19.5t-31.5 19.5t-35.5 8.5q-30 0 -45 -12t-20 -33h-50z" />
    <glyph glyph-name="uni0304" unicode="&#x304;" 
d="M25 655v75h279v-75h-279z" />
    <glyph glyph-name="uni0306" unicode="&#x306;" 
d="M334 780h-53q0 -43 -27.5 -62.5t-77.5 -19.5q-39 0 -65 19.5t-28 62.5h-53q0 -72 38 -116.5t108 -44.5q67 0 111.5 42.5t46.5 118.5z" />
    <glyph glyph-name="uni0307" unicode="&#x307;" 
d="M25 696q0 31 18.5 49.5t48.5 18.5q31 0 49.5 -18.5t18.5 -49.5q0 -30 -18.5 -48.5t-49.5 -18.5t-49 18t-18 49z" />
    <glyph glyph-name="uni0308" unicode="&#x308;" 
d="M25 700q0 30 17 47t46 17t46.5 -17.5t17.5 -46.5t-17 -46t-47 -17q-29 0 -46 17t-17 46zM255 700q0 30 17 47t46 17t46.5 -17.5t17.5 -46.5t-17 -46t-47 -17q-29 0 -46 17t-17 46z" />
    <glyph glyph-name="uni030A" unicode="&#x30a;" 
d="M30 713q0 38 25.5 64.5t63.5 26.5t64.5 -26.5t26.5 -64.5t-26.5 -63.5t-64.5 -25.5t-63.5 25.5t-25.5 63.5zM82 713q0 -16 10.5 -26.5t26.5 -10.5q17 0 28 10.5t11 26.5q0 17 -11 28t-28 11q-16 0 -26.5 -11t-10.5 -28z" />
    <glyph glyph-name="uni030B" unicode="&#x30b;" 
d="M30 639l49 76q30 46 48.5 63t41.5 17q25 0 37 -9.5t12 -27.5q0 -15 -20 -35.5t-67 -55.5l-38 -28h-63zM206 639l49 76q29 46 47.5 63t42.5 17t36 -9.5t12 -27.5q0 -15 -19.5 -35.5t-66.5 -55.5l-38 -28h-63z" />
    <glyph glyph-name="uni030C" unicode="&#x30c;" 
d="M232 636l85 144h-63l-78 -86l-76 86h-65l85 -144h112z" />
    <glyph glyph-name="dotbelowcomb" unicode="&#x323;" 
d="M25 -128q0 32 18.5 50.5t48.5 18.5q32 0 50.5 -19t18.5 -50t-18.5 -49t-50.5 -18q-31 0 -49 17.5t-18 49.5z" />
    <glyph glyph-name="commaaccentcomb" unicode="&#x326;" 
d="M94 -44q28 0 44 -17t16 -48q0 -39 -21 -70t-66 -58l-25 29q28 22 40 38.5t13 32.5l-3 2q-4 -6 -18 -6q-17 0 -28 13.5t-11 31.5q0 23 16 37.5t43 14.5z" />
    <glyph glyph-name="uni0327" unicode="&#x327;" 
d="M111 -210q-53 0 -91 28l28 39q29 -20 59 -20q21 0 33.5 9t12.5 23q0 15 -13.5 22.5t-37.5 7.5q-11 0 -22 -1.5t-22 -4.5l-14 24l77 100h54l-45 -74l1 -3q56 0 79.5 -17t23.5 -49q0 -40 -36 -62t-87 -22z" />
    <glyph glyph-name="uni0328" unicode="&#x328;" 
d="M134 -210q-49 0 -76.5 23.5t-27.5 61.5q0 75 114 139h51q-23 -15 -42 -34.5t-30 -41t-11 -41.5q0 -21 13 -32.5t37 -11.5q17 0 35 4.5t30 14.5l18 -26q-17 -26 -44.5 -41t-66.5 -15z" />
    <glyph glyph-name="uni03BC.1" unicode="&#x3bc;" horiz-adv-x="645" 
d="M97 -179v654l-67 19v46h174v-278q0 -64 3.5 -96.5t12.5 -50.5q23 -49 84 -49q24 0 46.5 10t40.5 27q20 20 30.5 46.5t13.5 68.5v257l-87 19v46h194v-475l77 -19v-46l-165 -10l-11 110h-4q-30 -52 -69 -81t-83 -29q-35 0 -58 17.5t-31 51.5h-4l10 -238h-107z" />
    <glyph glyph-name="uni1E0C" unicode="&#x1e0c;" horiz-adv-x="770" 
d="M240 65h145q54 0 92 16t64 50q27 35 41 90.5t14 132.5q0 151 -55 227q-27 38 -67.5 56t-98.5 18h-135v-590zM46 720h346q149 0 232 -84q47 -48 72 -118t25 -150q0 -84 -26.5 -157.5t-73.5 -123.5q-83 -87 -238 -87h-337v48l84 21v582l-84 21v48zM272 -128q0 32 18.5 50.5
t48.5 18.5q32 0 50.5 -19t18.5 -50t-18.5 -49t-50.5 -18q-31 0 -49 17.5t-18 49.5z" />
    <glyph glyph-name="uni1E0D" unicode="&#x1e0d;" horiz-adv-x="625" 
d="M43 266q0 66 17.5 124.5t50.5 94.5q29 32 69 48.5t92 16.5q45 0 81 -17t65 -61v243l-77 19v46h184v-715l77 -19v-46l-165 -10l-8 82q-31 -46 -70 -64t-88 -18q-52 0 -92 15.5t-67 47.5q-31 38 -50 93t-19 120zM418 266q0 60 -9 104.5t-25 70.5q-16 25 -39 38.5t-59 13.5
q-30 0 -55.5 -11.5t-40.5 -35.5q-17 -25 -24.5 -70t-7.5 -101q0 -60 9 -104t24 -71q16 -25 40 -39t58 -14q31 0 56 11t39 35q16 27 25 71t9 102zM227 -128q0 32 18.5 50.5t48.5 18.5q32 0 50.5 -19t18.5 -50t-18.5 -49t-50.5 -18q-31 0 -49 17.5t-18 49.5z" />
    <glyph glyph-name="uni1E24" unicode="&#x1e24;" horiz-adv-x="808" 
d="M679 651v-582l84 -21v-48h-278v48l84 21v269h-329v-269l84 -21v-48h-278v48l84 21v582l-84 21v48h278v-48l-84 -21v-250h329v250l-84 21v48h278v-48zM340 -128q0 32 18.5 50.5t48.5 18.5q32 0 50.5 -19t18.5 -50t-18.5 -49t-50.5 -18q-31 0 -49 17.5t-18 49.5z" />
    <glyph glyph-name="uni1E25" unicode="&#x1e25;" horiz-adv-x="649" 
d="M446 65v213q0 65 -3.5 97t-12.5 50q-24 49 -88 49q-28 0 -54 -11.5t-44 -31.5q-18 -17 -27 -42.5t-10 -62.5v-261l67 -19v-46h-251v46l77 19v650l-77 19v46h184v-334q29 48 76 76t102 28q41 0 72 -13t51 -38q24 -29 34.5 -80.5t10.5 -137.5v-216l77 -19v-46h-251v46z
M259 -128q0 32 18.5 50.5t48.5 18.5q32 0 50.5 -19t18.5 -50t-18.5 -49t-50.5 -18q-31 0 -49 17.5t-18 49.5z" />
    <glyph glyph-name="uni1E44" unicode="&#x1e44;" horiz-adv-x="806" 
d="M130 69v582l-84 21v48h204l361 -545v476l-84 21v48h243v-48l-84 -21v-651h-85l-396 591v-522l84 -21v-48h-243v48zM336 834q0 31 18.5 49.5t48.5 18.5q31 0 49.5 -18.5t18.5 -49.5t-18.5 -49t-49.5 -18t-49 17.5t-18 49.5z" />
    <glyph glyph-name="uni1E45" unicode="&#x1e45;" horiz-adv-x="661" 
d="M111 65v410l-77 19v46h154l22 -100h4q30 51 81 80.5t109 29.5q83 0 123 -54q20 -28 28.5 -78.5t8.5 -136.5v-216l77 -19v-46h-251v46l67 19v213q0 63 -3.5 95.5t-12.5 51.5q-11 25 -32.5 36.5t-50.5 11.5q-55 0 -95 -35q-41 -38 -45 -116v-257l67 -19v-46h-251v46z
M265 696q0 31 18.5 49.5t48.5 18.5q31 0 49.5 -18.5t18.5 -49.5q0 -30 -18.5 -48.5t-49.5 -18.5t-49 18t-18 49z" />
    <glyph glyph-name="uni1E5A" unicode="&#x1e5a;" horiz-adv-x="710" 
d="M551 382q-18 -14 -41.5 -25t-58.5 -18q7 -8 18 -21.5t21 -30.5l130 -220l89 -19v-48h-216v48l-140 272h-113v-251l95 -21v-48h-289v48l84 21v582l-84 21v48h354q48 0 84 -9t65 -29q36 -24 57 -66t21 -84t-20.5 -82.5t-55.5 -67.5zM240 383h133q55 0 91 31q20 18 31.5 48
t11.5 64q0 33 -12 60.5t-32 44.5q-17 14 -39.5 20t-54.5 6h-129v-274zM313 -128q0 32 18.5 50.5t48.5 18.5q32 0 50.5 -19t18.5 -50t-18.5 -49t-50.5 -18q-31 0 -49 17.5t-18 49.5z" />
    <glyph glyph-name="uni1E5B" unicode="&#x1e5b;" horiz-adv-x="463" 
d="M335 477q-3 2 -6.5 3t-7.5 1q-11 0 -25 -12t-26.5 -30t-21.5 -39q-14 -34 -22 -73t-8 -85v-177l108 -19v-46h-292v46l77 19v415l-77 19v41h154l22 -132h4q23 68 62 105t86 37q39 0 65 -24.5t26 -65.5q0 -30 -16.5 -50t-44.5 -20q-31 0 -46.5 17.5t-15.5 42.5q0 6 0.5 11
t4.5 16zM97 -128q0 32 18.5 50.5t48.5 18.5q32 0 50.5 -19t18.5 -50t-18.5 -49t-50.5 -18q-31 0 -49 17.5t-18 49.5z" />
    <glyph glyph-name="uni1E62" unicode="&#x1e62;" horiz-adv-x="604" 
d="M321 -11q-58 0 -103.5 17.5t-77.5 51.5l-11 -58h-66v232h71q6 -97 48.5 -140t122.5 -43q67 0 102 26.5t35 78.5q0 43 -21.5 71t-62 50t-96.5 44q-62 26 -106 52t-67 63t-23 95q0 96 59.5 149t159.5 53q99 0 161 -56l8 45h66v-232h-67q0 95 -35.5 139.5t-111.5 44.5
q-129 0 -129 -119q0 -34 13 -55t44.5 -39t89.5 -43q83 -36 133.5 -69t73 -71t22.5 -90q0 -63 -30 -107t-82 -67t-120 -23zM253 -128q0 32 18.5 50.5t48.5 18.5q32 0 50.5 -19t18.5 -50t-18.5 -49t-50.5 -18q-31 0 -49 17.5t-18 49.5z" />
    <glyph glyph-name="uni1E63" unicode="&#x1e63;" horiz-adv-x="507" 
d="M244 41q54 0 89.5 21.5t35.5 60.5q0 31 -22 50.5t-54.5 31.5t-65.5 22q-41 13 -79 31t-62 50t-24 83q0 72 52.5 115.5t146.5 43.5q84 0 133.5 -35t49.5 -94q0 -32 -15.5 -50.5t-43.5 -18.5q-26 0 -42 14.5t-16 35.5q0 19 10 34.5t26 22.5q-15 20 -38.5 30t-59.5 10
q-56 0 -83.5 -21t-27.5 -60q0 -29 13.5 -46.5t39.5 -29t63 -23.5q36 -11 70.5 -23.5t63 -31t45.5 -45.5t17 -67q0 -51 -29.5 -87.5t-80.5 -55.5t-116 -19q-90 0 -144 36t-54 96q0 35 17 55t46 20q24 0 42 -14t18 -37q0 -19 -11 -36t-25 -25q12 -18 42 -31t73 -13zM179 -128
q0 32 18.5 50.5t48.5 18.5q32 0 50.5 -19t18.5 -50t-18.5 -49t-50.5 -18q-31 0 -49 17.5t-18 49.5z" />
    <glyph glyph-name="uni1E6C" unicode="&#x1e6c;" horiz-adv-x="663" 
d="M29 720h606v-215h-56l-32 150h-160v-583l106 -24v-48h-322v48l106 24v583h-161l-31 -150h-56v215zM263 -128q0 32 18.5 50.5t48.5 18.5q32 0 50.5 -19t18.5 -50t-18.5 -49t-50.5 -18q-31 0 -49 17.5t-18 49.5z" />
    <glyph glyph-name="uni1E6D" unicode="&#x1e6d;" horiz-adv-x="349" 
d="M8 485v41l97 14l13 125l94 14v-139h128v-55h-128v-347q0 -34 1 -46.5t4 -20.5q3 -7 11 -9.5t26 -2.5h70v-34q-52 -18 -91 -26.5t-62 -8.5q-45 0 -58 37q-4 12 -6 31t-2 56v371h-97zM114 -128q0 32 18.5 50.5t48.5 18.5q32 0 50.5 -19t18.5 -50t-18.5 -49t-50.5 -18
q-31 0 -49 17.5t-18 49.5z" />
    <glyph glyph-name="Wgrave" unicode="&#x1e80;" horiz-adv-x="1044" 
d="M737 105l150 547l-79 20v48h239v-48l-83 -21l-188 -651h-114l-142 464l-128 -464h-114l-207 651l-78 21v48h294v-48l-96 -21l157 -546h4l133 491l-12 55l-78 21v48h274v-48l-92 -21l156 -546h4zM524 843l61 -76h-63l-47 28q-27 17 -43.5 28t-23.5 20.5t-7 20.5
q0 14 10.5 23.5t29.5 9.5q15 0 27.5 -4.5t25.5 -16t30 -33.5z" />
    <glyph glyph-name="wgrave" unicode="&#x1e81;" horiz-adv-x="881" 
d="M176 475l97 -345l12 -59h5l11 59l113 420h82l116 -420l12 -59h4l12 59l93 345l-65 19v46h200v-46l-54 -19l-147 -485h-113l-114 380l-111 -380h-113l-152 485l-53 19v46h234v-46zM455 715l49 -76h-63l-38 28q-47 35 -67 55.5t-20 35.5q0 18 12 27.5t37 9.5q24 0 42.5 -17
t47.5 -63z" />
    <glyph glyph-name="Wacute" unicode="&#x1e82;" horiz-adv-x="1044" 
d="M737 105l150 547l-79 20v48h239v-48l-83 -21l-188 -651h-114l-142 464l-128 -464h-114l-207 651l-78 21v48h294v-48l-96 -21l157 -546h4l133 491l-12 55l-78 21v48h274v-48l-92 -21l156 -546h4zM493 767l61 76q16 22 29.5 33.5t26 16t26.5 4.5q20 0 30.5 -9.5t10.5 -23.5
q0 -11 -7 -20.5t-23 -20.5t-44 -28l-47 -28h-63z" />
    <glyph glyph-name="wacute" unicode="&#x1e83;" horiz-adv-x="881" 
d="M176 475l97 -345l12 -59h5l11 59l113 420h82l116 -420l12 -59h4l12 59l93 345l-65 19v46h200v-46l-54 -19l-147 -485h-113l-114 380l-111 -380h-113l-152 485l-53 19v46h234v-46zM423 639l49 76q30 46 48.5 63t41.5 17q25 0 37 -9.5t12 -27.5q0 -15 -20 -35.5t-67 -55.5
l-38 -28h-63z" />
    <glyph glyph-name="Wdieresis" unicode="&#x1e84;" horiz-adv-x="1044" 
d="M737 105l150 547l-79 20v48h239v-48l-83 -21l-188 -651h-114l-142 464l-128 -464h-114l-207 651l-78 21v48h294v-48l-96 -21l157 -546h4l133 491l-12 55l-78 21v48h274v-48l-92 -21l156 -546h4zM347 833q0 31 17 48t47 17t47.5 -17.5t17.5 -47.5t-17 -47t-48 -17
q-30 0 -47 17t-17 47zM577 833q0 31 17 48t47 17t47.5 -17.5t17.5 -47.5t-17 -47t-48 -17q-30 0 -47 17t-17 47z" />
    <glyph glyph-name="wdieresis" unicode="&#x1e85;" horiz-adv-x="881" 
d="M176 475l97 -345l12 -59h5l11 59l113 420h82l116 -420l12 -59h4l12 59l93 345l-65 19v46h200v-46l-54 -19l-147 -485h-113l-114 380l-111 -380h-113l-152 485l-53 19v46h234v-46zM277 700q0 30 17 47t46 17t46.5 -17.5t17.5 -46.5t-17 -46t-47 -17q-29 0 -46 17t-17 46z
M507 700q0 30 17 47t46 17t46.5 -17.5t17.5 -46.5t-17 -46t-47 -17q-29 0 -46 17t-17 46z" />
    <glyph glyph-name="uni1E92" unicode="&#x1e92;" horiz-adv-x="651" 
d="M508 65l32 163h67v-228h-573v61l422 594h-297l-32 -152h-62v217h519v-61l-422 -594h346zM266 -128q0 32 18.5 50.5t48.5 18.5q32 0 50.5 -19t18.5 -50t-18.5 -49t-50.5 -18q-31 0 -49 17.5t-18 49.5z" />
    <glyph glyph-name="uni1E93" unicode="&#x1e93;" horiz-adv-x="545" 
d="M408 61l20 136h67v-197h-453v61l323 418h-219l-24 -131h-67v192h436v-61l-322 -418h239zM201 -128q0 32 18.5 50.5t48.5 18.5q32 0 50.5 -19t18.5 -50t-18.5 -49t-50.5 -18q-31 0 -49 17.5t-18 49.5z" />
    <glyph glyph-name="uni1EB8" unicode="&#x1eb8;" horiz-adv-x="689" 
d="M480 238h-61l-18 99h-156v-272h293l30 158h68v-223h-595v48l94 21v582l-94 21v48h573v-212h-62l-31 149h-276v-255h156l18 100h61v-264zM289 -128q0 32 18.5 50.5t48.5 18.5q32 0 50.5 -19t18.5 -50t-18.5 -49t-50.5 -18q-31 0 -49 17.5t-18 49.5z" />
    <glyph glyph-name="uni1EB9" unicode="&#x1eb9;" horiz-adv-x="548" 
d="M504 261h-349q0 -71 20 -118q19 -42 52.5 -61.5t75.5 -19.5q46 0 86.5 19.5t71.5 55.5l39 -30q-35 -48 -88 -82.5t-135 -34.5q-70 0 -123 29.5t-81 86.5q-15 31 -22 69t-7 81q0 140 64.5 217t177.5 77q105 0 163 -63.5t58 -175.5q0 -10 -0.5 -19.5t-2.5 -30.5zM282 491
q-115 0 -126 -176h240v31q0 70 -30 107.5t-84 37.5zM215 -128q0 32 18.5 50.5t48.5 18.5q32 0 50.5 -19t18.5 -50t-18.5 -49t-50.5 -18q-31 0 -49 17.5t-18 49.5z" />
    <glyph glyph-name="uni1EBC" unicode="&#x1ebc;" horiz-adv-x="689" 
d="M480 238h-61l-18 99h-156v-272h293l30 158h68v-223h-595v48l94 21v582l-94 21v48h573v-212h-62l-31 149h-276v-255h156l18 100h61v-264zM160 769q6 63 36.5 94t80.5 31q26 0 44.5 -8.5t34.5 -19t32 -19t35 -8.5q30 0 45 13t20 37h50q-19 -131 -117 -131q-25 0 -44 8.5
t-35 19.5t-31.5 19.5t-35.5 8.5q-30 0 -45 -12t-20 -33h-50z" />
    <glyph glyph-name="uni1EBD" unicode="&#x1ebd;" horiz-adv-x="548" 
d="M504 261h-349q0 -71 20 -118q19 -42 52.5 -61.5t75.5 -19.5q46 0 86.5 19.5t71.5 55.5l39 -30q-35 -48 -88 -82.5t-135 -34.5q-70 0 -123 29.5t-81 86.5q-15 31 -22 69t-7 81q0 140 64.5 217t177.5 77q105 0 163 -63.5t58 -175.5q0 -10 -0.5 -19.5t-2.5 -30.5zM282 491
q-115 0 -126 -176h240v31q0 70 -30 107.5t-84 37.5zM93 634q6 63 36.5 94t80.5 31q26 0 44.5 -8.5t34.5 -19t32 -19t35 -8.5q30 0 45 13t20 37h50q-19 -131 -117 -131q-25 0 -44 8.5t-35 19.5t-31.5 19.5t-35.5 8.5q-30 0 -45 -12t-20 -33h-50z" />
    <glyph glyph-name="uni1ECA" unicode="&#x1eca;" horiz-adv-x="379" 
d="M245 651v-582l94 -21v-48h-298v48l94 21v582l-94 21v48h298v-48zM124 -128q0 32 18.5 50.5t48.5 18.5q32 0 50.5 -19t18.5 -50t-18.5 -49t-50.5 -18q-31 0 -49 17.5t-18 49.5z" />
    <glyph glyph-name="uni1ECB" unicode="&#x1ecb;" horiz-adv-x="318" 
d="M111 475l-77 19v46h184v-475l77 -19v-46h-261v46l77 19v410zM98 698q0 30 18 48t48 18q31 0 49 -18t18 -48q0 -29 -17.5 -47t-49.5 -18q-31 0 -48.5 17.5t-17.5 47.5zM99 -128q0 32 18.5 50.5t48.5 18.5q32 0 50.5 -19t18.5 -50t-18.5 -49t-50.5 -18q-31 0 -49 17.5
t-18 49.5z" />
    <glyph glyph-name="uni1ECC" unicode="&#x1ecc;" horiz-adv-x="767" 
d="M718 368q0 -86 -26 -162.5t-74 -128.5q-42 -44 -100.5 -65.5t-136.5 -21.5t-137 21t-98 63q-45 47 -70.5 119.5t-25.5 158.5q0 87 26.5 163.5t73.5 127.5q42 45 98.5 66t135.5 21q77 0 135.5 -20.5t101.5 -63.5q48 -49 72.5 -122.5t24.5 -155.5zM175 372q0 -82 14 -145
t40 -103q25 -37 63.5 -55.5t94.5 -18.5q102 0 151 66q27 36 41 96t14 142t-14.5 143.5t-40.5 99.5t-65.5 56t-92.5 18q-51 0 -88 -17t-62 -49q-55 -73 -55 -233zM313 -128q0 32 18.5 50.5t48.5 18.5q32 0 50.5 -19t18.5 -50t-18.5 -49t-50.5 -18q-31 0 -49 17.5t-18 49.5z
" />
    <glyph glyph-name="uni1ECD" unicode="&#x1ecd;" horiz-adv-x="586" 
d="M543 273q0 -64 -19 -122t-54 -96q-31 -34 -76 -49.5t-103 -15.5q-57 0 -101.5 15.5t-75.5 48.5q-34 37 -52.5 92t-18.5 119q0 65 19 123.5t54 96.5q33 34 76.5 49.5t101.5 15.5q57 0 102 -15.5t76 -48.5q35 -37 53 -93t18 -120zM171 215q4 -47 18 -80t36 -53
q22 -16 45.5 -22t52.5 0q57 17 80 89q12 39 15 84t-3 93q-4 46 -18 79.5t-36 52.5q-21 17 -45 22.5t-54 -0.5q-57 -17 -78 -89q-24 -78 -13 -176zM224 -128q0 32 18.5 50.5t48.5 18.5q32 0 50.5 -19t18.5 -50t-18.5 -49t-50.5 -18q-31 0 -49 17.5t-18 49.5z" />
    <glyph glyph-name="uni1EE4" unicode="&#x1ee4;" horiz-adv-x="776" 
d="M589 264v387l-84 21v48h241v-48l-84 -21v-408q0 -124 -69.5 -189t-203.5 -65q-133 0 -204.5 66.5t-71.5 188.5v407l-84 21v48h278v-48l-84 -21v-385q0 -217 188 -217q94 0 136 51t42 164zM335 -128q0 32 18.5 50.5t48.5 18.5q32 0 50.5 -19t18.5 -50t-18.5 -49t-50.5 -18
q-31 0 -49 17.5t-18 49.5z" />
    <glyph glyph-name="uni1EE5" unicode="&#x1ee5;" horiz-adv-x="639" 
d="M201 540v-278q0 -64 3.5 -96.5t11.5 -50.5q10 -24 31 -36.5t46 -12.5q27 0 51 10t43 27q41 37 45 115v257l-87 19v46h194v-475l77 -19v-46l-165 -10l-11 110h-4q-29 -51 -79 -80.5t-107 -29.5q-38 0 -69.5 14.5t-49.5 39.5q-19 28 -28 79t-9 136v216l-67 19v46h174z
M240 -128q0 32 18.5 50.5t48.5 18.5q32 0 50.5 -19t18.5 -50t-18.5 -49t-50.5 -18q-31 0 -49 17.5t-18 49.5z" />
    <glyph glyph-name="Ygrave" unicode="&#x1ef2;" horiz-adv-x="679" 
d="M359 345l167 306l-81 21v48h237v-48l-82 -21l-201 -369v-213l94 -21v-48h-298v48l94 21v197l-213 385l-83 21v48h286v-48l-84 -21zM363 844l61 -76h-63l-47 28q-27 17 -43.5 28t-23.5 20.5t-7 20.5q0 14 10.5 23.5t29.5 9.5q15 0 27.5 -4.5t25.5 -16t30 -33.5z" />
    <glyph glyph-name="ygrave" unicode="&#x1ef3;" horiz-adv-x="593" 
d="M519 475l-164 -451q-30 -77 -54.5 -124.5t-54 -68.5t-75.5 -21q-47 0 -80.5 25t-33.5 63q0 30 17.5 50t45.5 20q25 0 39 -12.5t14 -36.5q0 -12 -7 -26.5t-21 -21.5q2 -10 12 -13.5t17 -3.5q14 0 26 6.5t25.5 28t29.5 67.5l12 37l-205 482l-60 19v46h234l8 -46l-71 -19
l140 -377h4l121 377l-58 19v46h200v-46zM321 715l49 -76h-63l-38 28q-47 35 -67 55.5t-20 35.5q0 18 12 27.5t37 9.5q24 0 42.5 -17t47.5 -63z" />
    <glyph glyph-name="uni1EF8" unicode="&#x1ef8;" horiz-adv-x="679" 
d="M359 345l167 306l-81 21v48h237v-48l-82 -21l-201 -369v-213l94 -21v-48h-298v48l94 21v197l-213 385l-83 21v48h286v-48l-84 -21zM171 770q6 63 36.5 94t80.5 31q26 0 44.5 -8.5t34.5 -19t32 -19t35 -8.5q30 0 45 13t20 37h50q-19 -131 -117 -131q-25 0 -44 8.5
t-35 19.5t-31.5 19.5t-35.5 8.5q-30 0 -45 -12t-20 -33h-50z" />
    <glyph glyph-name="uni1EF9" unicode="&#x1ef9;" horiz-adv-x="593" 
d="M519 475l-164 -451q-30 -77 -54.5 -124.5t-54 -68.5t-75.5 -21q-47 0 -80.5 25t-33.5 63q0 30 17.5 50t45.5 20q25 0 39 -12.5t14 -36.5q0 -12 -7 -26.5t-21 -21.5q2 -10 12 -13.5t17 -3.5q14 0 26 6.5t25.5 28t29.5 67.5l12 37l-205 482l-60 19v46h234l8 -46l-71 -19
l140 -377h4l121 377l-58 19v46h200v-46zM126 634q6 63 36.5 94t80.5 31q26 0 44.5 -8.5t34.5 -19t32 -19t35 -8.5q30 0 45 13t20 37h50q-19 -131 -117 -131q-25 0 -44 8.5t-35 19.5t-31.5 19.5t-35.5 8.5q-30 0 -45 -12t-20 -33h-50z" />
    <glyph glyph-name="endash" unicode="&#x2013;" horiz-adv-x="617" 
d="M62 244v68h494v-68h-494z" />
    <glyph glyph-name="emdash" unicode="&#x2014;" horiz-adv-x="926" 
d="M62 244v68h801v-68h-801z" />
    <glyph glyph-name="quoteleft" unicode="&#x2018;" horiz-adv-x="244" 
d="M119 485q-34 0 -54 24t-20 64q0 54 31.5 100t97.5 87l25 -29q-40 -33 -64.5 -62.5t-26.5 -52.5l4 -3q5 8 24 8q22 0 37.5 -18.5t15.5 -47.5q0 -31 -19.5 -50.5t-50.5 -19.5z" />
    <glyph glyph-name="quoteright" unicode="&#x2019;" horiz-adv-x="243" 
d="M130 760q34 0 54 -24t20 -64q0 -54 -31.5 -100t-97.5 -87l-25 29q40 33 64.5 62.5t26.5 52.5l-4 3q-5 -8 -24 -8q-22 0 -37.5 18.5t-15.5 47.5q0 31 19.5 50.5t50.5 19.5z" />
    <glyph glyph-name="quotesinglbase" unicode="&#x201a;" horiz-adv-x="249" 
d="M122 123q34 0 54 -24t20 -64q0 -54 -31.5 -100t-97.5 -87l-25 29q40 33 64.5 62.5t26.5 52.5l-4 3q-5 -8 -24 -8q-22 0 -37.5 18.5t-15.5 47.5q0 31 19.5 50.5t50.5 19.5z" />
    <glyph glyph-name="quotedblleft" unicode="&#x201c;" horiz-adv-x="444" 
d="M119 485q-34 0 -54 24t-20 64q0 54 31.5 100t97.5 87l25 -29q-40 -33 -64.5 -62.5t-26.5 -52.5l4 -3q5 8 24 8q22 0 37.5 -18.5t15.5 -47.5q0 -31 -19.5 -50.5t-50.5 -19.5zM319 485q-34 0 -54 24t-20 64q0 54 31.5 100t97.5 87l25 -29q-40 -33 -64.5 -62.5t-26.5 -52.5
l4 -3q5 8 24 8q22 0 37.5 -18.5t15.5 -47.5q0 -31 -19.5 -50.5t-50.5 -19.5z" />
    <glyph glyph-name="quotedblright" unicode="&#x201d;" horiz-adv-x="443" 
d="M130 760q34 0 54 -24t20 -64q0 -54 -31.5 -100t-97.5 -87l-25 29q40 33 64.5 62.5t26.5 52.5l-4 3q-5 -8 -24 -8q-22 0 -37.5 18.5t-15.5 47.5q0 31 19.5 50.5t50.5 19.5zM330 760q34 0 54 -24t20 -64q0 -54 -31.5 -100t-97.5 -87l-25 29q40 33 64.5 62.5t26.5 52.5l-4 3
q-5 -8 -24 -8q-22 0 -37.5 18.5t-15.5 47.5q0 31 19.5 50.5t50.5 19.5z" />
    <glyph glyph-name="quotedblbase" unicode="&#x201e;" horiz-adv-x="449" 
d="M122 119q34 0 54 -24t20 -64q0 -54 -31.5 -100t-97.5 -87l-25 29q40 33 64.5 62.5t26.5 52.5l-4 3q-5 -8 -24 -8q-22 0 -37.5 18.5t-15.5 47.5q0 31 19.5 50.5t50.5 19.5zM322 119q34 0 54 -24t20 -64q0 -54 -31.5 -100t-97.5 -87l-25 29q40 33 64.5 62.5t26.5 52.5l-4 3
q-5 -8 -24 -8q-22 0 -37.5 18.5t-15.5 47.5q0 31 19.5 50.5t50.5 19.5z" />
    <glyph glyph-name="dagger" unicode="&#x2020;" horiz-adv-x="444" 
d="M199 515l-5 5q-14 0 -36 -4t-43.5 -8.5t-37.5 -4.5q-22 0 -34.5 10t-12.5 30q0 21 13 30.5t34 9.5q16 0 37.5 -4t43.5 -8.5t36 -4.5l5 5q0 15 -3.5 39t-7.5 50.5t-7.5 48.5t-3.5 34q0 21 11 34t34 13q22 0 33.5 -12.5t11.5 -34.5q0 -12 -3.5 -34t-7.5 -48.5t-7.5 -50.5
t-3.5 -39l5 -5q14 0 35.5 4.5t44 8.5t37.5 4q21 0 34 -9.5t13 -30.5q0 -20 -12.5 -30t-34.5 -10q-15 0 -37.5 4.5t-44 8.5t-35.5 4l-5 -5v-232q0 -128 11 -201t11 -105q0 -22 -11.5 -34.5t-33.5 -12.5q-23 0 -34 13t-11 34q0 32 11 105t11 201v232z" />
    <glyph glyph-name="daggerdbl" unicode="&#x2021;" horiz-adv-x="465" 
d="M255 371q0 -42 1 -83t4 -83l5 -5q14 0 34 4.5t41.5 8.5t36.5 4q22 0 34.5 -10t12.5 -30t-13 -30t-34 -10q-15 0 -37.5 4.5t-44 8.5t-35.5 4l-5 -5q0 -15 3.5 -39t7.5 -50.5t7.5 -48.5t3.5 -34q0 -22 -11 -34.5t-34 -12.5q-22 0 -33.5 13t-11.5 34q0 12 3.5 34t7.5 48.5
t7.5 50.5t3.5 39l-5 5q-14 0 -36 -4t-43.5 -8.5t-37.5 -4.5q-21 0 -34 10t-13 30t12.5 30t34.5 10q16 0 36.5 -4t41 -8.5t34.5 -4.5l5 5q3 42 4 83t1 83q0 37 -1 72.5t-4 71.5l-5 5q-14 0 -34.5 -4t-41 -8.5t-36.5 -4.5q-22 0 -34.5 10t-12.5 30q0 21 13 30.5t34 9.5
q16 0 37.5 -4t43.5 -8.5t36 -4.5l5 5q0 15 -3.5 39t-7.5 50.5t-7.5 48.5t-3.5 34q0 21 11.5 34t33.5 13q23 0 34 -12.5t11 -34.5q0 -12 -3.5 -34t-7.5 -48.5t-7.5 -50.5t-3.5 -39l5 -5q14 0 35.5 4.5t44 8.5t37.5 4q21 0 34 -9.5t13 -30.5q0 -20 -12.5 -30t-34.5 -10
q-15 0 -36.5 4.5t-41.5 8.5t-34 4l-5 -5q-3 -36 -4 -71.5t-1 -72.5z" />
    <glyph glyph-name="bullet" unicode="&#x2022;" horiz-adv-x="402" 
d="M78 343q0 58 33 92t90 34t90.5 -34.5t33.5 -91.5t-33.5 -89.5t-90.5 -32.5q-59 0 -91 31.5t-32 90.5z" />
    <glyph glyph-name="ellipsis" unicode="&#x2026;" horiz-adv-x="719" 
d="M53 53q0 32 18.5 51t49.5 19t50 -19.5t19 -50.5t-18.5 -49.5t-50.5 -18.5t-50 17.5t-18 50.5zM296 53q0 32 18.5 51t49.5 19t50 -19.5t19 -50.5t-18.5 -49.5t-50.5 -18.5t-50 17.5t-18 50.5zM530 53q0 32 18.5 51t49.5 19t50 -19.5t19 -50.5t-18.5 -49.5t-50.5 -18.5
t-50 17.5t-18 50.5z" />
    <glyph glyph-name="perthousand" unicode="&#x2030;" horiz-adv-x="996" 
d="M119 -10l386 740h64l-386 -740h-64zM35 563q0 86 37 130q16 19 38.5 27.5t55.5 8.5q63 0 94 -36q37 -43 37 -129q0 -43 -9 -77t-27 -55q-31 -36 -96 -36q-30 0 -53.5 8t-40.5 28q-36 42 -36 131zM229 563q0 67 -18 102q-8 13 -18 20t-27 7q-15 0 -25.5 -6t-18.5 -21
q-10 -18 -14.5 -44.5t-4.5 -57.5q0 -32 4.5 -58t14.5 -44q7 -14 17.5 -20.5t26.5 -6.5t25.5 6t18.5 21q10 17 14.5 42t4.5 60zM389 157q0 86 36 130q17 19 39.5 27.5t55.5 8.5q63 0 94 -36q37 -43 37 -129q0 -43 -9 -77t-28 -55q-31 -36 -95 -36q-30 0 -53.5 8t-40.5 28
q-36 42 -36 131zM583 157q0 67 -19 102q-8 13 -18 20t-26 7q-15 0 -26 -6t-19 -21q-9 -18 -13.5 -44.5t-4.5 -57.5q0 -32 4.5 -58t13.5 -44q8 -14 18 -20.5t27 -6.5q15 0 25 6t19 21q9 17 14 42t5 60zM702 157q0 86 36 130q17 19 39.5 27.5t55.5 8.5q63 0 94 -36
q37 -43 37 -129q0 -43 -9 -77t-28 -55q-31 -36 -95 -36q-30 0 -53.5 8t-40.5 28q-36 42 -36 131zM896 157q0 67 -19 102q-8 13 -18 20t-26 7q-15 0 -26 -6t-19 -21q-9 -18 -13.5 -44.5t-4.5 -57.5q0 -32 4.5 -58t13.5 -44q8 -14 18 -20.5t27 -6.5q15 0 25 6t19 21
q9 17 14 42t5 60z" />
    <glyph glyph-name="guilsinglleft" unicode="&#x2039;" horiz-adv-x="329" 
d="M148 255l133 -201l-38 -38l-205 218v38l204 216l38 -30z" />
    <glyph glyph-name="guilsinglright" unicode="&#x203a;" horiz-adv-x="329" 
d="M48 54l133 201l-132 203l38 30l204 -216v-38l-205 -218z" />
    <glyph glyph-name="fraction" unicode="&#x2044;" horiz-adv-x="40" 
d="M-205 -10l386 740h64l-386 -740h-64z" />
    <glyph glyph-name="uni2070" unicode="&#x2070;" horiz-adv-x="370" 
d="M54 563q0 86 37 130q16 19 38.5 27.5t55.5 8.5q63 0 94 -36q37 -43 37 -129q0 -43 -9 -77t-27 -55q-31 -36 -96 -36q-30 0 -53.5 8t-40.5 28q-36 42 -36 131zM248 563q0 67 -18 102q-8 13 -18 20t-27 7q-15 0 -25.5 -6t-18.5 -21q-10 -18 -14.5 -44.5t-4.5 -57.5
q0 -32 4.5 -58t14.5 -44q7 -14 17.5 -20.5t26.5 -6.5t25.5 6t18.5 21q10 17 14.5 42t4.5 60z" />
    <glyph glyph-name="uni2074" unicode="&#x2074;" horiz-adv-x="316" 
d="M168 431v48h-131l-5 36l136 205h62v-203h49l-6 -38h-43v-48l35 -9v-30h-140v30zM168 652l-87 -135h87v135z" />
    <glyph glyph-name="uni2075" unicode="&#x2075;" horiz-adv-x="319" 
d="M237 666l22 68h-32l-8 -14h-130l-25 -161l33 -12q8 10 24 15t31 5q30 0 42.5 -19t12.5 -52q0 -39 -15 -55.5t-41 -16.5q-21 0 -36 9t-18 20q11 0 18.5 8t7.5 20q0 11 -8 20t-22 9q-19 0 -29.5 -13t-10.5 -31q0 -35 30 -54.5t73 -19.5q55 0 86 29.5t31 77.5q0 47 -28 74.5
t-75 27.5q-37 0 -63 -22l12 87h118z" />
    <glyph glyph-name="uni2076" unicode="&#x2076;" horiz-adv-x="347" 
d="M116 559h4q25 36 75 36q44 0 71.5 -27.5t27.5 -71.5q0 -46 -30 -72.5t-84 -26.5q-63 0 -94 38.5t-31 118.5q0 86 32.5 131t95.5 45q44 0 69.5 -21t25.5 -53q0 -20 -8.5 -30.5t-27.5 -10.5q-14 0 -23 8t-9 21q0 12 6.5 20t17.5 8q-2 12 -14.5 18t-31.5 6q-37 0 -55 -26.5
t-18 -89.5q0 -15 1 -21zM227 496q0 34 -13 49.5t-37 15.5t-37.5 -15.5t-13.5 -49.5t13.5 -50t37.5 -16q23 0 36.5 16t13.5 50z" />
    <glyph glyph-name="uni2077" unicode="&#x2077;" horiz-adv-x="294" 
d="M156 429q0 -15 -7.5 -26t-25.5 -11q-15 0 -23 8.5t-8 28.5q0 27 14 70t38 88t53 77h-112l-8 -44h-35v100h218v-32q-28 -31 -51.5 -75.5t-38 -92t-14.5 -91.5z" />
    <glyph glyph-name="uni2078" unicode="&#x2078;" horiz-adv-x="330" 
d="M265 658q0 -52 -53 -82q36 -19 52 -39.5t16 -47.5q0 -41 -32 -66.5t-90 -25.5q-50 0 -78 22t-28 62q0 55 65 90q-27 18 -38.5 35.5t-11.5 41.5q0 38 27 60t76 22q48 0 71.5 -19.5t23.5 -52.5zM143 555q-20 -14 -30.5 -30.5t-10.5 -40.5t13.5 -38.5t43.5 -14.5q25 0 42 11
t17 34q0 22 -16.5 38t-58.5 41zM186 593q14 9 24 24t10 36q0 23 -13 34t-36 11t-35.5 -10.5t-12.5 -29.5q0 -17 12.5 -32.5t50.5 -32.5z" />
    <glyph glyph-name="uni2079" unicode="&#x2079;" horiz-adv-x="346" 
d="M229 568h-4q-25 -36 -75 -36q-43 0 -71 28t-28 71q0 46 32 72.5t85 26.5q63 0 92.5 -38.5t29.5 -119.5q0 -85 -32 -130t-97 -45q-44 0 -70.5 21.5t-26.5 52.5q0 20 9 30.5t27 10.5q15 0 24 -8t9 -21q0 -12 -6.5 -20t-18.5 -8q3 -12 16.5 -18t31.5 -6q38 0 56 26t18 90
q0 16 -1 21zM118 631q0 -34 13.5 -49.5t36.5 -15.5q25 0 38 15.5t13 49.5q0 35 -13.5 50.5t-36.5 15.5q-24 0 -37.5 -15.5t-13.5 -50.5z" />
    <glyph glyph-name="uni2080" unicode="&#x2080;" horiz-adv-x="372" 
d="M55 157q0 86 36 130q17 19 39.5 27.5t55.5 8.5q63 0 94 -36q37 -43 37 -129q0 -43 -9 -77t-28 -55q-31 -36 -95 -36q-30 0 -53.5 8t-40.5 28q-36 42 -36 131zM249 157q0 67 -19 102q-8 13 -18 20t-26 7q-15 0 -26 -6t-19 -21q-9 -18 -13.5 -44.5t-4.5 -57.5
q0 -32 4.5 -58t13.5 -44q8 -14 18 -20.5t27 -6.5q15 0 25 6t19 21q9 17 14 42t5 60z" />
    <glyph glyph-name="uni2081" unicode="&#x2081;" horiz-adv-x="309" 
d="M129 40v232h-60v36q16 0 41 5t32 15h49v-288l48 -9v-31h-170v31z" />
    <glyph glyph-name="uni2082" unicode="&#x2082;" horiz-adv-x="327" 
d="M108 53h119l11 50h37v-103h-227v30q0 28 16 50.5t40 42.5t48 39.5t40 41.5t16 49q0 21 -16.5 31t-39.5 10q-14 0 -26.5 -3.5t-21 -10.5t-11.5 -19q14 0 21.5 -7.5t7.5 -21.5q0 -13 -8 -21t-25 -8q-19 0 -27.5 10.5t-8.5 29.5q0 39 29 62.5t78 23.5q52 0 81.5 -23.5
t29.5 -63.5q0 -31 -16.5 -54.5t-40.5 -41.5t-48.5 -32.5t-41 -29t-16.5 -31.5z" />
    <glyph glyph-name="uni2083" unicode="&#x2083;" horiz-adv-x="325" 
d="M268 239q0 -30 -18 -49.5t-50 -24.5v-4q73 -14 73 -77q0 -42 -33.5 -68t-88.5 -26q-46 0 -74.5 23t-28.5 61q0 20 8.5 30.5t25.5 10.5q18 0 26 -8.5t8 -21.5q0 -12 -6.5 -19.5t-17.5 -7.5q3 -17 18 -24.5t36 -7.5q29 0 44.5 12.5t15.5 39.5q0 31 -20.5 49t-56.5 18v33
q34 0 55 17.5t21 47.5q0 23 -14.5 35t-41.5 12q-21 0 -36.5 -8t-18.5 -22q13 0 21 -7t8 -20t-8.5 -22t-26.5 -9q-17 0 -26.5 12t-9.5 31q0 35 28.5 56.5t76.5 21.5q51 0 81 -23t30 -61z" />
    <glyph glyph-name="uni2084" unicode="&#x2084;" horiz-adv-x="316" 
d="M168 39v48h-131l-5 36l136 205h62v-203h49l-6 -38h-43v-48l35 -9v-30h-145v30zM168 260l-87 -135h87v135z" />
    <glyph glyph-name="uni2085" unicode="&#x2085;" horiz-adv-x="320" 
d="M237 264l22 68h-32l-8 -14h-130l-25 -161l33 -12q8 10 24 15t31 5q30 0 42.5 -19t12.5 -52q0 -39 -15 -55.5t-41 -16.5q-21 0 -36 9t-18 20q11 0 18.5 8t7.5 20q0 11 -8 20t-22 9q-19 0 -29.5 -13t-10.5 -31q0 -35 30 -54.5t73 -19.5q55 0 86 29.5t31 77.5q0 47 -28 74.5
t-75 27.5q-37 0 -63 -22l12 87h118z" />
    <glyph glyph-name="uni2086" unicode="&#x2086;" horiz-adv-x="346" 
d="M116 152h4q25 36 75 36q44 0 71.5 -27.5t27.5 -71.5q0 -46 -30.5 -72.5t-83.5 -26.5q-63 0 -94 38.5t-31 118.5q0 86 32.5 131t95.5 45q44 0 69 -21t25 -53q0 -20 -8.5 -30.5t-27.5 -10.5q-14 0 -23 8t-9 21q0 12 6.5 20t18.5 8q-3 12 -15.5 18t-31.5 6q-36 0 -54 -26.5
t-18 -89.5q0 -15 1 -21zM227 89q0 34 -13.5 49.5t-36.5 15.5q-25 0 -38 -15.5t-13 -49.5t13.5 -50t36.5 -16q24 0 37.5 16t13.5 50z" />
    <glyph glyph-name="uni2087" unicode="&#x2087;" horiz-adv-x="295" 
d="M156 27q0 -15 -7.5 -26t-25.5 -11q-15 0 -23 8.5t-8 28.5q0 27 14 70t38 88t53 77h-112l-8 -44h-35v100h218v-32q-27 -31 -51 -75t-38.5 -92t-14.5 -92z" />
    <glyph glyph-name="uni2088" unicode="&#x2088;" horiz-adv-x="329" 
d="M266 251q0 -52 -53 -82q36 -19 52 -39.5t16 -47.5q0 -41 -32.5 -66.5t-89.5 -25.5q-50 0 -78 22t-28 62q0 55 65 90q-27 18 -38.5 35.5t-11.5 41.5q0 38 26.5 60t75.5 22q48 0 72 -19.5t24 -52.5zM143 148q-20 -14 -30 -30.5t-10 -40.5t13 -38.5t43 -14.5q25 0 42.5 11
t17.5 34q0 22 -17 38t-59 41zM186 186q15 9 25 24t10 36q0 23 -13.5 34t-36.5 11t-35 -10.5t-12 -29.5q0 -17 12 -32.5t50 -32.5z" />
    <glyph glyph-name="uni2089" unicode="&#x2089;" horiz-adv-x="345" 
d="M229 161h-4q-25 -36 -75 -36q-43 0 -71 28t-28 71q0 46 32 72.5t85 26.5q63 0 92.5 -38.5t29.5 -119.5q0 -85 -32 -130t-97 -45q-44 0 -70.5 21.5t-26.5 52.5q0 20 9 30.5t27 10.5q15 0 24 -8t9 -21q0 -12 -6.5 -20t-18.5 -8q3 -12 16.5 -18t31.5 -6q38 0 56 26t18 90
q0 16 -1 21zM118 224q0 -34 13.5 -49.5t36.5 -15.5q25 0 38 15.5t13 49.5q0 35 -13.5 50.5t-36.5 15.5q-24 0 -37.5 -15.5t-13.5 -50.5z" />
    <glyph glyph-name="Euro" unicode="&#x20ac;" horiz-adv-x="731" 
d="M40 398v65h107q21 131 93.5 199t193.5 68q72 0 128 -22.5t88.5 -61t32.5 -86.5q0 -35 -18 -54.5t-49 -19.5q-25 0 -42.5 16.5t-17.5 40.5q0 40 36 58q-20 32 -59.5 50.5t-89.5 18.5q-76 0 -121 -51.5t-58 -155.5h194v-65h-199q-1 -10 -1 -20v-21v-23t1 -21h199v-66h-193
q13 -97 55 -143t116 -46q75 0 121.5 38.5t56.5 108.5h65q-21 -109 -84.5 -162t-172.5 -53q-238 0 -276 257h-106v66h100q-1 10 -1 19v19v24t1 23h-100z" />
    <glyph glyph-name="uni2120" unicode="&#x2120;" horiz-adv-x="785" 
d="M185 406q-53 0 -80 31l-5 -26h-30v107h32q2 -41 21 -59t55 -18q28 0 42.5 9.5t14.5 32.5t-16.5 40t-59.5 33q-51 20 -69.5 39.5t-18.5 53.5q0 42 26.5 66.5t72.5 24.5q44 0 72 -25l4 20h30v-107h-31q0 42 -15 60t-51 18q-27 0 -39.5 -10.5t-12.5 -36.5q0 -22 12.5 -32.5
t52.5 -27.5q57 -23 78 -46.5t21 -58.5q0 -40 -28.5 -64t-77.5 -24zM525 462l81 273h116v-24l-33 -10v-256l33 -10v-24h-121v24l32 10v254l-87 -288h-58l-87 288v-254l31 -10v-24h-105v24l35 10v256l-35 10v24h117l77 -273h4z" />
    <glyph glyph-name="trademark" unicode="&#x2122;" horiz-adv-x="845" 
d="M69 730h274v-100h-29l-14 63h-64v-252l43 -11v-24h-146v24l44 11v252h-65l-14 -63h-29v100zM582 457l81 273h116v-24l-33 -10v-256l33 -10v-24h-121v24l32 10v251l-87 -285h-58l-84 285v-251l28 -10v-24h-105v24l38 10v256l-38 10v24h117l77 -273h4z" />
    <glyph glyph-name="uni2153" unicode="&#x2153;" horiz-adv-x="643" 
d="M90 -10l386 740h64l-386 -740h-64zM106 432v232h-60v36q16 0 41 5t32 15h49v-288l48 -9v-31h-170v31zM600 239q0 -30 -18 -49.5t-50 -24.5v-4q73 -14 73 -77q0 -42 -33.5 -68t-88.5 -26q-46 0 -74.5 23t-28.5 61q0 20 8.5 30.5t25.5 10.5q18 0 26 -8.5t8 -21.5
q0 -12 -6.5 -19.5t-17.5 -7.5q3 -17 18 -24.5t36 -7.5q29 0 44.5 12.5t15.5 39.5q0 31 -20.5 49t-56.5 18v33q34 0 55 17.5t21 47.5q0 23 -14.5 35t-41.5 12q-21 0 -36.5 -8t-18.5 -22q13 0 21 -7t8 -20t-8.5 -22t-26.5 -9q-17 0 -26.5 12t-9.5 31q0 35 28.5 56.5t76.5 21.5
q51 0 81 -23t30 -61z" />
    <glyph glyph-name="uni2154" unicode="&#x2154;" horiz-adv-x="661" 
d="M107 -10l386 740h64l-386 -740h-64zM617 239q0 -30 -18 -49.5t-50 -24.5v-4q73 -14 73 -77q0 -42 -33.5 -68t-88.5 -26q-46 0 -74.5 23t-28.5 61q0 20 8.5 30.5t25.5 10.5q18 0 26 -8.5t8 -21.5q0 -12 -6.5 -19.5t-17.5 -7.5q3 -17 18 -24.5t36 -7.5q29 0 44.5 12.5
t15.5 39.5q0 31 -20.5 49t-56.5 18v33q34 0 55 17.5t21 47.5q0 23 -14.5 35t-41.5 12q-21 0 -36.5 -8t-18.5 -22q13 0 21 -7t8 -20t-8.5 -22t-26.5 -9q-17 0 -26.5 12t-9.5 31q0 35 28.5 56.5t76.5 21.5q51 0 81 -23t30 -61zM101 454h119l11 50h37v-103h-227v30
q0 28 16 50.5t40 42.5t48 39.5t40 41.5t16 49q0 21 -16.5 31t-39.5 10q-14 0 -26.5 -3.5t-21 -10.5t-11.5 -19q14 0 21.5 -7.5t7.5 -21.5q0 -13 -8 -21t-25 -8q-19 0 -27.5 10.5t-8.5 29.5q0 39 29 62.5t78 23.5q52 0 81.5 -23.5t29.5 -63.5q0 -31 -16.5 -54.5t-40.5 -41.5
t-48.5 -32.5t-41 -29t-16.5 -31.5z" />
    <glyph glyph-name="oneeighth" unicode="&#x215b;" horiz-adv-x="643" 
d="M90 -10l386 740h64l-386 -740h-64zM106 432v232h-60v36q16 0 41 5t32 15h49v-288l48 -9v-31h-170v31zM592 251q0 -52 -53 -82q36 -19 52 -39.5t16 -47.5q0 -41 -32.5 -66.5t-89.5 -25.5q-50 0 -78 22t-28 62q0 55 65 90q-27 18 -38.5 35.5t-11.5 41.5q0 38 26.5 60
t75.5 22q48 0 72 -19.5t24 -52.5zM469 148q-20 -14 -30 -30.5t-10 -40.5t13 -38.5t43 -14.5q25 0 42.5 11t17.5 34q0 22 -17 38t-59 41zM512 186q15 9 25 24t10 36q0 23 -13.5 34t-36.5 11t-35 -10.5t-12 -29.5q0 -17 12 -32.5t50 -32.5z" />
    <glyph glyph-name="threeeighths" unicode="&#x215c;" horiz-adv-x="654" 
d="M102 -10l386 740h64l-386 -740h-64zM260 646q0 -30 -18 -49.5t-50 -24.5v-4q73 -14 73 -77q0 -42 -33.5 -68t-88.5 -26q-46 0 -74.5 23t-28.5 61q0 20 8.5 30.5t25.5 10.5q18 0 26 -8.5t8 -21.5q0 -12 -6.5 -19.5t-17.5 -7.5q3 -17 18 -24.5t36 -7.5q29 0 44.5 12.5
t15.5 39.5q0 31 -20.5 49t-56.5 18v33q34 0 55 17.5t21 47.5q0 23 -14.5 35t-41.5 12q-21 0 -36.5 -8t-18.5 -22q13 0 21 -7t8 -20t-8.5 -22t-26.5 -9q-17 0 -26.5 12t-9.5 31q0 35 28.5 56.5t76.5 21.5q51 0 81 -23t30 -61zM603 251q0 -52 -53 -82q36 -19 52 -39.5
t16 -47.5q0 -41 -32.5 -66.5t-89.5 -25.5q-50 0 -78 22t-28 62q0 55 65 90q-27 18 -38.5 35.5t-11.5 41.5q0 38 26.5 60t75.5 22q48 0 72 -19.5t24 -52.5zM480 148q-20 -14 -30 -30.5t-10 -40.5t13 -38.5t43 -14.5q25 0 42.5 11t17.5 34q0 22 -17 38t-59 41zM523 186
q15 9 25 24t10 36q0 23 -13.5 34t-36.5 11t-35 -10.5t-12 -29.5q0 -17 12 -32.5t50 -32.5z" />
    <glyph glyph-name="fiveeighths" unicode="&#x215d;" horiz-adv-x="639" 
d="M96 -10l386 740h64l-386 -740h-64zM588 251q0 -52 -53 -82q36 -19 52 -39.5t16 -47.5q0 -41 -32.5 -66.5t-89.5 -25.5q-50 0 -78 22t-28 62q0 55 65 90q-27 18 -38.5 35.5t-11.5 41.5q0 38 26.5 60t75.5 22q48 0 72 -19.5t24 -52.5zM465 148q-20 -14 -30 -30.5t-10 -40.5
t13 -38.5t43 -14.5q25 0 42.5 11t17.5 34q0 22 -17 38t-59 41zM508 186q15 9 25 24t10 36q0 23 -13.5 34t-36.5 11t-35 -10.5t-12 -29.5q0 -17 12 -32.5t50 -32.5zM221 666l22 68h-32l-8 -14h-130l-25 -161l33 -12q8 10 24 15t31 5q30 0 42.5 -19t12.5 -52q0 -39 -15 -55.5
t-41 -16.5q-21 0 -36 9t-18 20q11 0 18.5 8t7.5 20q0 11 -8 20t-22 9q-19 0 -29.5 -13t-10.5 -31q0 -35 30 -54.5t73 -19.5q55 0 86 29.5t31 77.5q0 47 -28 74.5t-75 27.5q-37 0 -63 -22l12 87h118z" />
    <glyph glyph-name="seveneighths" unicode="&#x215e;" horiz-adv-x="623" 
d="M80 -10l386 740h64l-386 -740h-64zM571 251q0 -52 -53 -82q36 -19 52 -39.5t16 -47.5q0 -41 -32.5 -66.5t-89.5 -25.5q-50 0 -78 22t-28 62q0 55 65 90q-27 18 -38.5 35.5t-11.5 41.5q0 38 26.5 60t75.5 22q48 0 72 -19.5t24 -52.5zM448 148q-20 -14 -30 -30.5t-10 -40.5
t13 -38.5t43 -14.5q25 0 42.5 11t17.5 34q0 22 -17 38t-59 41zM491 186q15 9 25 24t10 36q0 23 -13.5 34t-36.5 11t-35 -10.5t-12 -29.5q0 -17 12 -32.5t50 -32.5zM150 429q0 -15 -7.5 -26t-25.5 -11q-15 0 -23 8.5t-8 28.5q0 27 14 70t38 88t53 77h-112l-8 -44h-35v100h218
v-32q-28 -31 -51.5 -75.5t-38 -92t-14.5 -91.5z" />
    <glyph glyph-name="minus" unicode="&#x2212;" horiz-adv-x="539" 
d="M71 326v72h398v-72h-398z" />
    <glyph glyph-name="uni2215" unicode="&#x2215;" horiz-adv-x="424" 
d="M-13 -10l386 740h64l-386 -740h-64z" />
    <glyph glyph-name="uni2219" unicode="&#x2219;" horiz-adv-x="261" 
d="M63 298q0 32 18 51t50 19q31 0 50 -19.5t19 -50.5t-19 -49.5t-50 -18.5q-33 0 -50.5 18t-17.5 50z" />
    <glyph glyph-name="dotbelow" horiz-adv-x="185" 
d="M25 -128q0 32 18.5 50.5t48.5 18.5q32 0 50.5 -19t18.5 -50t-18.5 -49t-50.5 -18q-31 0 -49 17.5t-18 49.5z" />
    <glyph glyph-name="caron.alt" horiz-adv-x="119" 
d="M84 600h-50q0 33 -5 57t-9.5 44t-4.5 41q0 15 8.5 31.5t36.5 16.5q26 0 35 -16t9 -32q0 -21 -5 -41t-10 -44t-5 -57z" />
    <glyph glyph-name="gravecomb.case" 
d="M158 843l61 -76h-63l-47 28q-27 17 -43.5 28t-23.5 20.5t-7 20.5q0 14 10.5 23.5t29.5 9.5q15 0 27.5 -4.5t25.5 -16t30 -33.5z" />
    <glyph glyph-name="acutecomb.case" 
d="M35 767l61 76q16 22 29.5 33.5t26 16t26.5 4.5q20 0 30.5 -9.5t10.5 -23.5q0 -11 -7 -20.5t-23 -20.5t-44 -28l-47 -28h-63z" />
    <glyph glyph-name="uni0302.case" 
d="M347 769l-119 121h-105l-118 -121h63l108 61l108 -61h63z" />
    <glyph glyph-name="tildecomb.case" 
d="M10 769q6 63 36.5 94t80.5 31q26 0 44.5 -8.5t34.5 -19t32 -19t35 -8.5q30 0 45 13t20 37h50q-19 -131 -117 -131q-25 0 -44 8.5t-35 19.5t-31.5 19.5t-35.5 8.5q-30 0 -45 -12t-20 -33h-50z" />
    <glyph glyph-name="uni0304.case" 
d="M25 786v75h279v-75h-279z" />
    <glyph glyph-name="uni0306.case" 
d="M328 918h-53q-1 -40 -30.5 -57.5t-68.5 -17.5t-67.5 17.5t-30.5 57.5h-53q0 -69 40.5 -111.5t110.5 -42.5t111 42.5t41 111.5z" />
    <glyph glyph-name="uni0307.case" 
d="M25 834q0 31 18.5 49.5t48.5 18.5q31 0 49.5 -18.5t18.5 -49.5t-18.5 -49t-49.5 -18t-49 17.5t-18 49.5z" />
    <glyph glyph-name="uni0308.case" 
d="M24 831q0 31 17 48t47 17t47.5 -17.5t17.5 -47.5t-17 -47t-48 -17q-30 0 -47 17t-17 47zM254 831q0 31 17 48t47 17t47.5 -17.5t17.5 -47.5t-17 -47t-48 -17q-30 0 -47 17t-17 47z" />
    <glyph glyph-name="uni030A.case" 
d="M39 824q0 34 23.5 55t56.5 21q34 0 57.5 -21t23.5 -55q0 -33 -23.5 -53.5t-57.5 -20.5q-33 0 -56.5 20.5t-23.5 53.5zM95 824q0 -11 6.5 -17.5t17.5 -6.5q12 0 19 6.5t7 17.5q0 12 -7 19t-19 7q-11 0 -17.5 -7t-6.5 -19z" />
    <glyph glyph-name="uni030B.case" 
d="M35 767l61 76q16 22 29.5 33.5t26 16t26.5 4.5q20 0 30.5 -9.5t10.5 -23.5q0 -11 -7 -20.5t-23 -20.5t-44 -28l-47 -28h-63zM215 767l61 76q16 22 29.5 33.5t26 16t26.5 4.5q20 0 30.5 -9.5t10.5 -23.5q0 -11 -7 -20.5t-23 -20.5t-44 -28l-47 -28h-63z" />
    <glyph glyph-name="uni030C.case" 
d="M228 769l119 121h-63l-108 -61l-108 61h-63l118 -121h105z" />
    </font>
</defs>
</svg>
