<?xml version="1.0" standalone="no"?>
<!DOCTYPE svg PUBLIC "-//W3C//DTD SVG 1.1//EN" "http://www.w3.org/Graphics/SVG/1.1/DTD/svg11.dtd" >
<svg xmlns="http://www.w3.org/2000/svg" xmlns:xlink="http://www.w3.org/1999/xlink" version="1.1">
<metadata>
Created by FontForge 20170731 at Thu Jun  4 21:15:17 2020
 By Aleksey,,,
Copyright 2020 The Domine Project Authors (https://github.com/googlefonts/domine)
</metadata>
<defs>
<font id="Domine-SemiBold" horiz-adv-x="0" >
  <font-face 
    font-family="Domine SemiBold"
    font-weight="600"
    font-stretch="normal"
    units-per-em="1000"
    panose-1="2 4 5 3 4 4 3 6 2 4"
    ascent="800"
    descent="-200"
    x-height="540"
    cap-height="720"
    bbox="-210 -240 1389 928"
    underline-thickness="50"
    underline-position="-150"
    unicode-range="U+000D-FB04"
  />
<missing-glyph horiz-adv-x="640" 
d="M70 -240v1140h500v-1140h-500zM187 820v-980h266v980h-266z" />
    <glyph glyph-name="f_f" unicode="ff" horiz-adv-x="691" 
d="M15 480v46l97 14v10q0 101 54 155.5t151 54.5q47 0 87.5 -12t63.5 -32q49 74 143 74q69 0 109.5 -28.5t40.5 -72.5q0 -33 -17.5 -50t-44.5 -17q-28 0 -44.5 15t-16.5 40q0 26 16 47q-17 18 -46 18q-11 0 -22 -5t-18 -13q-10 -10 -15.5 -31t-7.5 -47.5t-2 -55.5v-50h128
v-60h-128v-410l108 -19v-51h-282v51l57 19v410h-197v-410l68 -19v-51h-262v51l77 19v410h-97zM426 540v23q0 80 -21.5 114.5t-77.5 34.5q-47 0 -72.5 -31t-25.5 -91v-50h197z" />
    <glyph glyph-name="f_i" unicode="fi" horiz-adv-x="641" 
d="M15 480v46l97 14v10q0 111 65 175.5t176 64.5q87 0 139 -30.5t52 -81.5q0 -66 -65 -66q-24 0 -41 15t-17 42q0 22 16 45q-34 28 -86 28q-37 0 -65 -12q-31 -13 -44 -44.5t-13 -95.5v-50h314v-470l77 -19v-51h-261v51l67 19v410h-197v-410l78 -19v-51h-272v51l77 19v410
h-97z" />
    <glyph glyph-name="f_l" unicode="fl" horiz-adv-x="645" 
d="M339 790q45 0 80 -12.5t56 -37.5l18 40h50v-710l77 -19v-51h-261v51l67 19v410h-197v-410l78 -19v-51h-272v51l77 19v410h-97v46l97 14v10q0 111 60.5 175.5t166.5 64.5zM229 580v-40h197v95q0 50 -26 78.5t-67 28.5q-50 0 -77 -40.5t-27 -121.5z" />
    <glyph glyph-name="f_f_i" unicode="ffi" horiz-adv-x="954" 
d="M15 480v46l97 14v10q0 100 54 155t150 55q51 0 89 -14t66 -48q32 47 75.5 69.5t115.5 22.5q91 0 143 -30.5t52 -81.5q0 -32 -15 -49t-51 -17q-24 0 -40.5 14t-16.5 39q0 13 4 25.5t12 23.5q-16 13 -39 20.5t-49 7.5q-18 0 -35 -3t-32 -12q-27 -15 -39.5 -48t-12.5 -99
v-40h313v-470l77 -19v-51h-261v51l67 19v410h-196v-410l78 -19v-51h-262v51l67 19v410h-197v-410l78 -19v-51h-272v51l77 19v410h-97zM426 540v13q0 86 -23 122.5t-77 36.5q-46 0 -71.5 -33.5t-25.5 -98.5v-40h197z" />
    <glyph glyph-name="f_f_l" unicode="ffl" horiz-adv-x="958" 
d="M654 790q90 0 134 -50l18 40h50v-710l77 -19v-51h-261v51l67 19v410h-196v-410l78 -19v-51h-262v51l67 19v410h-197v-410l78 -19v-51h-272v51l77 19v410h-97v46l97 14v10q0 101 54.5 155.5t154.5 54.5q97 0 150 -62q57 92 183 92zM543 580v-40h196v95q0 50 -25.5 78.5
t-68.5 28.5q-53 0 -77.5 -40.5t-24.5 -121.5zM229 580v-40h197v13q0 85 -22 122t-76 37q-99 0 -99 -132z" />
    <glyph glyph-name="f_b" unicode="fb" horiz-adv-x="959" 
d="M918 275q0 -64 -19 -123t-53 -97q-56 -65 -159 -65q-53 0 -92.5 23.5t-71.5 87.5l-30 -101h-67v480h-197v-410l78 -19v-51h-272v51l77 19v410h-97v46l97 14v10q0 111 57.5 175.5t173.5 64.5q45 0 78 -12.5t54 -37.5l18 40h50v-298q30 38 67 53t85 15q51 0 91 -15t67 -48
q31 -37 48 -93t17 -119zM543 271q0 -59 9.5 -99t25.5 -67q16 -25 38.5 -39t53.5 -14q58 0 89 47q17 26 25.5 68t8.5 98q0 57 -9 100t-25 70q-15 26 -37 39.5t-55 13.5q-28 0 -50.5 -11t-38.5 -35q-16 -27 -25.5 -70t-9.5 -101zM229 580v-40h197v95q0 50 -22 78.5t-67 28.5
q-56 0 -82 -40.5t-26 -121.5z" />
    <glyph glyph-name="f_f_b" unicode="ffb" horiz-adv-x="1273" 
d="M1232 275q0 -65 -19 -123t-53 -97q-56 -65 -161 -65q-51 0 -91 23.5t-71 87.5l-30 -101h-67v480h-197v-410l78 -19v-51h-272v51l77 19v410h-197v-410l78 -19v-51h-272v51l77 19v410h-97v46l97 14v10q0 101 60 155.5t169 54.5q48 0 79 -15.5t57 -42.5q34 47 84 67.5
t112 20.5q39 0 69 -12.5t47 -37.5l18 40h50v-298q30 38 67 53t83 15q51 0 92.5 -15t67.5 -48q31 -38 48 -93t17 -119zM857 274q0 -116 35 -169q16 -25 36 -39t55 -14q33 0 54.5 13t35.5 34q17 26 25.5 68.5t8.5 99.5t-9.5 98.5t-25.5 69.5q-14 25 -34 39t-56 14
q-33 0 -54.5 -11.5t-35.5 -34.5q-16 -27 -25.5 -68.5t-9.5 -99.5zM543 580v-40h197v95q0 50 -23.5 78.5t-67.5 28.5q-56 0 -81 -40.5t-25 -121.5zM229 580v-40h197v13q0 82 -20 120.5t-72 38.5q-55 0 -80 -33.5t-25 -98.5z" />
    <glyph glyph-name="f_h" unicode="fh" horiz-adv-x="984" 
d="M772 70v203q0 65 -3.5 96.5t-12.5 50.5q-24 49 -87 49q-24 0 -47 -8t-40 -24q-21 -22 -30 -49.5t-9 -62.5v-255l67 -19v-51h-261v51l77 19v410h-197v-410l78 -19v-51h-272v51l77 19v410h-97v46l97 14v10q0 112 61 176t166 64q94 0 136 -50l18 40h50v-334q28 50 75 77
t98 27q47 0 81.5 -13t54.5 -41t28.5 -78.5t8.5 -136.5v-211l77 -19v-51h-261v51zM229 580v-40h197v100q0 48 -24.5 75t-68.5 27q-49 0 -76.5 -41t-27.5 -121z" />
    <glyph glyph-name="f_f_h" unicode="ffh" horiz-adv-x="1297" 
d="M1085 70v203q0 65 -3.5 96.5t-12.5 50.5q-10 24 -30 35.5t-46 11.5q-53 0 -92 -34q-45 -39 -45 -112v-251l67 -19v-51h-261v51l77 19v410h-196v-410l78 -19v-51h-262v51l67 19v410h-197v-410l78 -19v-51h-272v51l77 19v410h-97v46l97 14v10q0 101 60 155.5t169 54.5
q97 0 150 -62q57 92 183 92q76 0 114 -50l18 40h50v-334q30 49 80 76.5t106 27.5q83 0 123 -54q20 -28 28.5 -78.5t8.5 -136.5v-211l77 -19v-51h-261v51zM543 580v-40h196v95q0 50 -20.5 78.5t-60.5 28.5q-115 0 -115 -162zM229 580v-40h197v13q0 85 -19.5 122t-69.5 37
q-54 0 -81 -33.5t-27 -98.5z" />
    <glyph glyph-name="f_j" unicode="fj" horiz-adv-x="620" 
d="M543 540v-465q0 -74 -5 -116.5t-17 -69.5q-21 -43 -63 -66t-96 -23q-53 0 -88 27t-35 68q0 30 15.5 50t50.5 20q27 0 41.5 -15t14.5 -41q0 -14 -8.5 -26.5t-27.5 -20.5q2 -7 12.5 -11t26.5 -4q35 0 48.5 28t13.5 101v504h-197v-410l78 -19v-51h-272v51l77 19v410h-97v46
l97 14v10q0 111 65 175.5t176 64.5q86 0 138.5 -32t52.5 -82q0 -28 -14 -46t-48 -18q-25 0 -43 12.5t-18 37.5q0 13 4 26t12 26q-34 28 -88 28q-18 0 -34 -2.5t-29 -7.5q-30 -13 -43.5 -45.5t-13.5 -96.5v-50h314z" />
    <glyph glyph-name="f_f_j" unicode="ffj" horiz-adv-x="933" 
d="M15 480v46l97 14v10q0 100 54 155t150 55q51 0 89 -14t66 -48q32 47 75.5 69.5t115.5 22.5q91 0 143 -30.5t52 -81.5q0 -65 -64 -65q-24 0 -41.5 12t-17.5 37q0 23 16 52q-16 13 -39 20.5t-49 7.5q-18 0 -36 -3t-33 -12q-25 -13 -37.5 -47t-12.5 -100v-40h313v-465
q0 -74 -4.5 -116.5t-16.5 -69.5q-21 -43 -63 -66t-96 -23q-53 0 -88 27t-35 68q0 31 17.5 49.5t48.5 18.5q25 0 40.5 -15t15.5 -41q0 -29 -36 -45q2 -7 12.5 -11t26.5 -4q33 0 47.5 28t14.5 101v504h-197v-410l78 -19v-51h-262v51l67 19v410h-197v-410l78 -19v-51h-272v51
l77 19v410h-97zM426 540v13q0 86 -22 122.5t-78 36.5q-45 0 -71 -33.5t-26 -98.5v-40h197z" />
    <glyph glyph-name="f_k" unicode="fk" horiz-adv-x="930" 
d="M687 51l59 19l-139 188l-64 -55v-133l77 -19v-51h-271v51l77 19v410h-197v-410l78 -19v-51h-272v51l77 19v410h-97v46l97 14v10q0 112 61 176t166 64q94 0 136 -50l18 40h50v-508l184 198l-66 19v51h235v-51l-73 -19l-142 -145l192 -257l53 -17v-51h-239v51zM229 580v-40
h197v100q0 48 -23.5 75t-72.5 27q-48 0 -74.5 -41t-26.5 -121z" />
    <glyph glyph-name="f_f_k" unicode="ffk" horiz-adv-x="1243" 
d="M1000 51l59 19l-139 187l-64 -54v-133l77 -19v-51h-271v51l77 19v410h-196v-410l78 -19v-51h-262v51l67 19v410h-197v-410l78 -19v-51h-272v51l77 19v410h-97v46l97 14v10q0 101 54.5 155.5t154.5 54.5q97 0 150 -62q57 92 183 92q90 0 134 -50l18 40h50v-508l184 198
l-66 19v51h235v-51l-73 -19l-142 -145l192 -257l53 -17v-51h-239v51zM543 580v-40h196v100q0 48 -25.5 75t-66.5 27q-104 0 -104 -162zM229 580v-40h197v13q0 85 -23.5 122t-72.5 37q-101 0 -101 -132z" />
    <glyph glyph-name=".notdef" horiz-adv-x="640" 
d="M70 -240v1140h500v-1140h-500zM187 820v-980h266v980h-266z" />
    <glyph glyph-name=".null" 
 />
    <glyph glyph-name="nonmarkingreturn" horiz-adv-x="333" 
 />
    <glyph glyph-name="NULL" 
 />
    <glyph glyph-name="NULL" 
 />
    <glyph glyph-name="CR" unicode="&#xd;" horiz-adv-x="270" 
 />
    <glyph glyph-name="space" unicode=" " horiz-adv-x="242" 
 />
    <glyph glyph-name="exclam" unicode="!" horiz-adv-x="289" 
d="M183 205h-76q0 39 -2 82.5t-4.5 85.5t-5 75.5t-4.5 51.5q-3 37 -8 73t-5 77q0 35 17 57.5t52 22.5q36 0 50.5 -23.5t14.5 -55.5q0 -42 -4.5 -78t-8.5 -73q-1 -18 -3.5 -51.5t-5.5 -75.5t-5 -85.5t-2 -82.5zM217 53q0 -34 -19 -53.5t-54 -19.5q-34 0 -53.5 19t-19.5 53
q0 35 19.5 55t53.5 20t53.5 -20.5t19.5 -53.5z" />
    <glyph glyph-name="quotedbl" unicode="&#x22;" horiz-adv-x="408" 
d="M143 475h-67q0 45 -6.5 88t-13 77.5t-6.5 53.5q0 29 13 47.5t46 18.5q34 0 47 -18t13 -48q0 -19 -6.5 -53.5t-13 -77.5t-6.5 -88zM333 475h-67q0 45 -6.5 88t-13 77.5t-6.5 53.5q0 29 13 47.5t46 18.5q34 0 47 -18t13 -48q0 -19 -6.5 -53.5t-13 -77.5t-6.5 -88z" />
    <glyph glyph-name="numbersign" unicode="#" horiz-adv-x="753" 
d="M396 -10l41 202h-183l-41 -202h-77l41 202h-144v63h155l40 196h-146v63h157l43 216h77l-43 -216h183l43 216h77l-43 -216h143v-63h-154l-40 -196h145v-63h-156l-41 -202h-77zM305 451l-40 -196h183l40 196h-183z" />
    <glyph glyph-name="dollar" unicode="$" horiz-adv-x="581" 
d="M259 -130v120q-69 5 -119 30.5t-76.5 63t-26.5 78.5q0 35 19.5 58t54.5 23q32 0 50 -18t18 -45q0 -24 -13 -40.5t-29 -24.5q18 -24 48 -41.5t74 -19.5v252q-3 1 -5.5 2t-5.5 2q-49 20 -95 46t-75 67.5t-29 107.5q0 90 57.5 143t152.5 57v120h67v-122q61 -7 104.5 -32
t67 -60.5t23.5 -74.5q0 -35 -19 -57t-53 -22q-26 0 -45.5 14.5t-19.5 42.5q0 19 9.5 38t26.5 28q-30 53 -94 59v-250q74 -35 123 -66t73.5 -68.5t24.5 -93.5q0 -88 -59 -140t-162 -57v-120h-67zM419 156q0 47 -27 75t-66 49v-225q43 6 68 31.5t25 69.5zM170 558
q0 -44 21 -66.5t68 -48.5v222q-46 -4 -67.5 -32.5t-21.5 -74.5z" />
    <glyph glyph-name="percent" unicode="%" horiz-adv-x="694" 
d="M117 -10l386 740h74l-386 -740h-74zM33 561q0 89 36 131q17 20 41.5 28.5t59.5 8.5q66 0 99 -37q36 -41 36 -129q0 -42 -8 -75.5t-28 -54.5q-33 -37 -102 -37q-28 0 -54 8t-44 29q-36 41 -36 128zM227 562q0 65 -16 97q-6 13 -16 20.5t-25 7.5q-13 0 -24 -6t-19 -21
q-9 -19 -12.5 -45.5t-3.5 -51.5q0 -29 4 -54t12 -43q7 -14 16.5 -20.5t25.5 -6.5q14 0 24 6t18 21q7 15 11.5 39.5t4.5 56.5zM387 155q0 89 37 131q16 20 40.5 28.5t59.5 8.5q66 0 99 -37q36 -41 36 -129q0 -42 -8 -75.5t-27 -54.5q-33 -37 -103 -37q-28 0 -54 8t-44 29
q-36 41 -36 128zM581 156q0 65 -15 97q-6 13 -16 20.5t-26 7.5q-13 0 -23.5 -6t-18.5 -21q-10 -19 -13.5 -45.5t-3.5 -51.5q0 -29 4 -54t13 -43q6 -14 16 -20.5t25 -6.5t24.5 6t17.5 21t12 39.5t4 56.5z" />
    <glyph glyph-name="ampersand" unicode="&#x26;" horiz-adv-x="760" 
d="M716 334l-76 -19q-1 -58 -19 -116.5t-49 -103.5q10 -16 29.5 -27t37.5 -11q24 0 44.5 11.5t33.5 30.5l34 -48q-43 -61 -125 -61q-35 0 -67 12t-61 35q-37 -25 -81 -36t-100 -11q-121 0 -190.5 53t-69.5 145q0 62 35 107t118 91q-55 88 -55 167q0 52 22 91.5t64 61.5
t98 22q53 0 92 -18t60 -50t21 -73q0 -56 -40.5 -110t-124.5 -98l172 -223q17 28 30.5 69t14.5 90l-77 19v51h229v-51zM329 58q38 0 69 8.5t48 21.5l-191 245q-38 -21 -58 -59t-20 -85q0 -62 39.5 -96.5t112.5 -34.5zM260 576q0 -35 10 -66t35 -71q59 37 88.5 69.5t29.5 73.5
q0 37 -22.5 59.5t-63.5 22.5q-35 0 -56 -22t-21 -66z" />
    <glyph glyph-name="quotesingle" unicode="'" horiz-adv-x="218" 
d="M143 475h-67q0 45 -6.5 88t-13 77.5t-6.5 53.5q0 29 13 47.5t46 18.5q34 0 47 -18t13 -48q0 -19 -6.5 -53.5t-13 -77.5t-6.5 -88z" />
    <glyph glyph-name="parenleft" unicode="(" horiz-adv-x="378" 
d="M37 353q0 -104 22.5 -194.5t62.5 -161t93.5 -114.5t116.5 -57l36 70q-63 13 -110.5 73t-73.5 158t-26 224q0 125 27 224.5t75.5 162.5t112.5 78l-27 63q-66 -16 -122.5 -63t-98.5 -117.5t-65 -158t-23 -187.5z" />
    <glyph glyph-name="parenright" unicode=")" horiz-adv-x="378" 
d="M342 353q0 100 -23 187.5t-65 158t-98.5 117.5t-122.5 63l-27 -63q65 -15 113 -78t75 -162.5t27 -224.5q0 -126 -26.5 -224t-73.5 -158t-110 -73l35 -70q63 13 116.5 57t93.5 114.5t63 161t23 194.5z" />
    <glyph glyph-name="asterisk" unicode="*" horiz-adv-x="478" 
d="M287 752q0 -26 -9.5 -61t-18.5 -63q21 14 44 28.5t45.5 24.5t40.5 10q19 0 32.5 -14t13.5 -35q0 -23 -14 -33.5t-35.5 -13t-41.5 -3.5h-37.5t-38.5 1q20 -14 46 -33t46 -40.5t20 -43.5q0 -17 -14 -31.5t-34 -14.5q-24 0 -40.5 22.5t-29 55t-23.5 60.5q-14 -35 -26 -67
t-27 -52t-37 -20q-19 0 -34.5 15t-15.5 33q0 19 16.5 38.5t41.5 39.5t49 38q-16 0 -32.5 -0.5t-33.5 -0.5q-21 1 -44 3t-38 13t-15 34q0 21 13 35t32 14q18 0 40.5 -10t45.5 -24t43 -27q-9 32 -18.5 64.5t-9.5 57.5q0 22 14 36t35 14t35 -13.5t14 -36.5z" />
    <glyph glyph-name="plus" unicode="+" horiz-adv-x="496" 
d="M39 323v78h165v160h88v-160h165v-78h-165v-160h-88v160h-165z" />
    <glyph glyph-name="comma" unicode="," horiz-adv-x="252" 
d="M124 128q36 0 57.5 -25t21.5 -68q0 -54 -33.5 -101.5t-102.5 -88.5l-28 32q39 32 64 60t27 50l-4 3q-7 -7 -23 -7q-23 0 -38.5 19t-15.5 51q0 33 20.5 54t54.5 21z" />
    <glyph glyph-name="hyphen" unicode="-" horiz-adv-x="377" 
d="M63 234v87h251v-87h-251z" />
    <glyph glyph-name="hyphen" unicode="&#xad;" horiz-adv-x="377" 
d="M63 234v87h251v-87h-251z" />
    <glyph glyph-name="period" unicode="." horiz-adv-x="245" 
d="M49 53q0 34 19.5 54.5t53.5 20.5t54 -21t20 -54q0 -34 -20 -53.5t-55 -19.5q-34 0 -53 19t-19 54z" />
    <glyph glyph-name="slash" unicode="/" horiz-adv-x="317" 
d="M47 -10l146 740h77l-146 -740h-77z" />
    <glyph glyph-name="zero" unicode="0" horiz-adv-x="681" 
d="M50 360q0 192 83 292q36 44 87 61t120 17q50 0 86.5 -7.5t65.5 -24.5t55 -46q83 -100 83 -292q0 -96 -21 -169.5t-62 -122.5q-26 -29 -55 -46t-65.5 -24.5t-86.5 -7.5q-69 0 -120 17.5t-87 60.5q-83 100 -83 292zM498 360q0 84 -11 144.5t-34 98.5q-19 32 -43.5 47.5
t-69.5 15.5q-38 0 -67.5 -15.5t-45.5 -47.5q-22 -38 -33.5 -98.5t-11.5 -144.5t11 -144.5t34 -98.5q16 -31 45 -47t68 -16q45 0 69.5 16t43.5 47q23 38 34 98.5t11 144.5z" />
    <glyph glyph-name="one" unicode="1" horiz-adv-x="411" 
d="M167 70v553h-127v61q24 0 56 5.5t60.5 15.5t39.5 25h88v-660l107 -19v-51h-351v51z" />
    <glyph glyph-name="two" unicode="2" horiz-adv-x="596" 
d="M145 105h295l24 128h75v-233h-495v66q0 52 26.5 95.5t68 82t88 75t88 73t68 77t26.5 88.5q0 52 -35 81t-100 29q-57 0 -89 -24t-42 -73q32 0 49 -16.5t17 -43.5q0 -29 -19 -45t-51 -16q-35 0 -58.5 22t-23.5 73q0 55 28.5 97t81 66t123.5 24t125 -24t84.5 -68t30.5 -103
t-28 -106.5t-71.5 -85.5t-93 -69.5t-93 -59t-71.5 -54.5t-28 -56z" />
    <glyph glyph-name="three" unicode="3" horiz-adv-x="587" 
d="M524 542q0 -63 -37.5 -109t-104.5 -57v-4q79 -16 116 -61.5t37 -112.5q0 -65 -34 -111.5t-92.5 -71.5t-131.5 -25q-71 0 -123 24t-80 66t-28 96q0 45 20.5 71t61.5 26q34 0 52 -17.5t18 -44.5q0 -26 -18 -43t-48 -17q9 -48 41.5 -72.5t91.5 -24.5q68 0 105 33t37 98
q0 73 -48.5 116t-133.5 43v58q81 0 130 42t49 110q0 56 -34.5 84.5t-95.5 28.5q-113 0 -128 -87q31 0 48.5 -16t17.5 -43q0 -26 -17 -44t-52 -18q-43 0 -66 28t-23 71q0 52 29 90.5t81 60.5t121 22q70 0 124 -24t84.5 -66.5t30.5 -98.5z" />
    <glyph glyph-name="four" unicode="4" horiz-adv-x="568" 
d="M315 70v133h-289l-14 54l321 473h99v-460h109l-10 -67h-99v-133l77 -19v-51h-291v51zM315 598l-214 -328h214v328z" />
    <glyph glyph-name="five" unicode="5" horiz-adv-x="561" 
d="M455 615l43 137h-62l-18 -32h-288l-54 -357l65 -27q20 25 53 37.5t73 12.5q68 0 97.5 -44.5t29.5 -119.5q0 -76 -33 -123t-101 -47q-58 0 -90.5 24.5t-40.5 60.5q32 0 49.5 19t17.5 43t-15 42t-52 18q-34 0 -60.5 -28t-26.5 -78q0 -43 27.5 -80.5t78.5 -60t121 -22.5
q78 0 134.5 29.5t87.5 83t31 124.5q0 69 -29 119t-80.5 77.5t-121.5 27.5q-43 0 -77.5 -11t-63.5 -33l32 208h273z" />
    <glyph glyph-name="six" unicode="6" horiz-adv-x="609" 
d="M167 351h4q28 37 75 58t102 21q64 0 111.5 -27.5t74.5 -77t27 -115.5q0 -102 -64.5 -161t-174.5 -59q-137 0 -203.5 86t-66.5 264q0 191 69.5 291t207.5 100q61 0 107.5 -21t72.5 -59t26 -88q0 -41 -18.5 -64.5t-58.5 -23.5q-36 0 -55.5 18.5t-19.5 46.5t17.5 44.5
t48.5 16.5q-7 31 -36.5 48t-74.5 17q-91 0 -132 -63.5t-41 -204.5q0 -14 0.5 -24t1.5 -23zM434 210q0 153 -123 153q-59 0 -91 -38.5t-32 -114.5q0 -77 32 -116t91 -39q123 0 123 155z" />
    <glyph glyph-name="seven" unicode="7" horiz-adv-x="523" 
d="M277 57q0 -32 -13.5 -49.5t-51.5 -17.5q-32 0 -45 18.5t-13 49.5q0 42 12 97t34 116t52.5 122.5t66.5 118.5t75 103h-268l-19 -117h-72v222h479v-71q-50 -59 -93 -130.5t-75.5 -150t-50.5 -158t-18 -153.5z" />
    <glyph glyph-name="eight" unicode="8" horiz-adv-x="578" 
d="M499 570q0 -55 -28.5 -102.5t-80.5 -78.5q74 -40 108 -85.5t34 -106.5q0 -62 -32.5 -109t-90.5 -72.5t-135 -25.5q-108 0 -168 50t-60 139q0 63 32.5 111t102.5 88q-55 40 -78.5 78.5t-23.5 90.5q0 86 55.5 135t158.5 49q94 0 150 -42t56 -119zM241 341
q-52 -30 -78.5 -67.5t-26.5 -91.5q0 -64 36.5 -96t102.5 -32q65 0 102 29.5t37 84.5q0 30 -15.5 54.5t-53 52t-104.5 66.5zM341 423q35 21 56.5 59.5t21.5 81.5q0 51 -31.5 77t-88.5 26q-53 0 -84 -23.5t-31 -69.5q0 -41 33.5 -76.5t123.5 -74.5z" />
    <glyph glyph-name="nine" unicode="9" horiz-adv-x="608" 
d="M442 370h-4q-28 -37 -75 -58t-102 -21q-63 0 -111 27.5t-75 77t-27 115.5q0 68 29.5 117.5t84 76t127.5 26.5q138 0 203 -85.5t65 -264.5q0 -192 -70.5 -291.5t-210.5 -99.5q-61 0 -106.5 20.5t-71 58.5t-25.5 88q0 39 19.5 63.5t57.5 24.5q37 0 56 -18t19 -47
q0 -28 -18 -44.5t-48 -16.5q6 -30 34 -47t73 -17q94 0 136 63t42 205v25t-2 22zM175 511q0 -153 123 -153q58 0 90.5 38.5t32.5 114.5q0 77 -32.5 116t-90.5 39q-123 0 -123 -155z" />
    <glyph glyph-name="colon" unicode=":" horiz-adv-x="273" 
d="M63 44q0 34 19.5 54.5t53.5 20.5t54 -21t20 -54q0 -34 -20 -53.5t-55 -19.5q-34 0 -53 19t-19 54zM63 394q0 34 19.5 54.5t53.5 20.5t54 -21t20 -54q0 -34 -20 -53.5t-55 -19.5q-34 0 -53 19t-19 54z" />
    <glyph glyph-name="semicolon" unicode=";" horiz-adv-x="287" 
d="M70 393q0 34 19.5 54.5t53.5 20.5t54 -21t20 -54q0 -34 -20 -53.5t-55 -19.5q-34 0 -53 19t-19 54zM143 128q36 0 57.5 -25t21.5 -68q0 -54 -33.5 -101.5t-102.5 -88.5l-28 32q39 32 64 60t27 50l-4 3q-7 -7 -23 -7q-23 0 -38.5 19t-15.5 51q0 33 20.5 54t54.5 21z" />
    <glyph glyph-name="less" unicode="&#x3c;" horiz-adv-x="484" 
d="M421 135l-389 196v58l389 195v-87l-298 -137l298 -137v-88z" />
    <glyph glyph-name="equal" unicode="=" horiz-adv-x="563" 
d="M67 413v78h428v-78h-428zM67 225v79h428v-79h-428z" />
    <glyph glyph-name="greater" unicode="&#x3e;" horiz-adv-x="484" 
d="M453 331l-389 -196v88l298 137l-298 137v87l389 -195v-58z" />
    <glyph glyph-name="question" unicode="?" horiz-adv-x="498" 
d="M257 205h-76q0 41 9 72.5t31.5 63t62.5 71.5q35 35 50 67t15 72q0 55 -30.5 85t-86.5 30q-33 0 -58 -14.5t-25 -34.5q20 -11 31.5 -30.5t11.5 -41.5q0 -28 -21.5 -48.5t-56.5 -20.5t-58 30t-23 72q0 43 27.5 77.5t75 55t105.5 20.5q68 0 119.5 -22t80.5 -61.5t29 -90.5
q0 -45 -24 -86.5t-82 -94.5q-41 -39 -64.5 -66t-33 -51t-9.5 -54zM147 52q0 35 19.5 55t52.5 20q34 0 54 -20.5t20 -53.5q0 -34 -19.5 -53.5t-54.5 -19.5q-34 0 -53 19t-19 53z" />
    <glyph glyph-name="at" unicode="@" horiz-adv-x="814" 
d="M402 449q77 0 101 -55l32 37h60l-37 -246q-2 -12 -3 -22.5t-1 -20.5q0 -28 12.5 -42t30.5 -14q29 0 53 26t39 70.5t15 98.5q0 81 -35.5 141t-100 93t-152.5 33q-66 0 -123.5 -26.5t-100.5 -74t-67 -111t-24 -137.5q0 -136 76.5 -212t212.5 -76q139 0 246 69l19 -41
q-55 -37 -124 -56t-143 -19q-108 0 -186 40.5t-120.5 115.5t-42.5 178q0 84 29 156t81 126t121 84t149 30q105 0 183.5 -39t122 -108.5t43.5 -162.5q0 -70 -24.5 -125.5t-67 -87.5t-98.5 -32q-46 0 -67 18.5t-29 49.5q-23 -32 -60.5 -52.5t-82.5 -20.5q-76 0 -114 42
t-38 120q0 72 28.5 129.5t77 90.5t109.5 33zM407 400q-52 0 -87 -58.5t-35 -155.5q0 -54 17 -78.5t50 -24.5q57 0 92.5 56.5t35.5 156.5q0 56 -17.5 80t-55.5 24z" />
    <glyph glyph-name="A" unicode="A" horiz-adv-x="726" 
d="M521 74l-54 163h-252l-55 -163l83 -21v-53h-254v53l82 21l236 656h113l234 -656l80 -21v-53h-295v53zM343 612l-105 -307h207l-98 307h-4z" />
    <glyph glyph-name="B" unicode="B" horiz-adv-x="693" 
d="M616 547q0 -38 -17.5 -71t-47.5 -55t-69 -27v-4q78 -16 123 -66t45 -123q0 -56 -29.5 -103.5t-74.5 -70.5q-28 -14 -69 -20.5t-115 -6.5h-319v53l84 21v572l-84 21v53h356q105 0 162 -51q26 -24 40.5 -56t14.5 -66zM355 342h-108v-272h90q46 0 74 5t47 16q27 15 44 46
t17 72q0 36 -13 61.5t-33 42.5q-18 14 -46 21.5t-72 7.5zM247 652v-242h105q70 0 103 35q15 14 26 37t11 52q0 28 -11 51t-26 37q-30 30 -99 30h-109z" />
    <glyph glyph-name="C" unicode="C" horiz-adv-x="693" 
d="M375 666q-42 0 -76.5 -15.5t-56.5 -46.5q-28 -39 -46 -99t-18 -133q0 -71 15 -133t42 -104q24 -37 62 -54t88 -17q172 0 201 169h75q-47 -243 -294 -243q-138 0 -220 80q-49 48 -75 121t-26 162q0 101 33 183t93 131q76 63 201 63q62 0 101 -16t77 -57l20 63h75v-231h-81
q-14 88 -63 132.5t-127 44.5z" />
    <glyph glyph-name="D" unicode="D" horiz-adv-x="775" 
d="M247 70h135q54 0 92.5 16.5t63.5 49.5q28 34 41.5 88.5t13.5 129.5q0 147 -55 222q-26 37 -67 55.5t-99 18.5h-125v-580zM43 720h356q149 0 232 -84q47 -48 72 -118t25 -150q0 -84 -26.5 -157.5t-73.5 -123.5q-83 -87 -238 -87h-347v53l84 21v572l-84 21v53z" />
    <glyph glyph-name="E" unicode="E" horiz-adv-x="694" 
d="M487 238h-71l-17 97h-147v-265h284l29 153h78v-223h-605v53l94 21v572l-94 21v53h583v-212h-72l-30 144h-267v-247h147l17 97h71v-264z" />
    <glyph glyph-name="F" unicode="F" horiz-adv-x="645" 
d="M488 227h-71l-17 97h-147v-247l117 -19v-58h-331v53l94 24v569l-94 21v53h583v-214h-74l-32 146h-263v-258h147l17 97h71v-264z" />
    <glyph glyph-name="G" unicode="G" horiz-adv-x="761" 
d="M377 65q85 0 123 42.5t38 125.5v50l-84 21v55h288v-55l-84 -21v-283h-72l-25 79q-43 -48 -89.5 -68.5t-109.5 -20.5q-137 0 -219 84q-46 47 -71.5 119t-25.5 159q0 89 26.5 165.5t74.5 126.5q41 43 96.5 64.5t129.5 21.5q60 0 100.5 -17t77.5 -57l20 64h75v-231h-81
q-13 83 -61 130t-130 47q-46 0 -77.5 -15.5t-54.5 -45.5q-28 -42 -46.5 -104.5t-18.5 -134.5q0 -71 17.5 -135.5t49.5 -108.5q22 -30 56 -43.5t77 -13.5z" />
    <glyph glyph-name="H" unicode="H" horiz-adv-x="814" 
d="M686 646v-572l84 -21v-53h-288v53l84 21v262h-319v-262l84 -21v-53h-288v53l84 21v572l-84 21v53h288v-53l-84 -21v-242h319v242l-84 21v53h288v-53z" />
    <glyph glyph-name="I" unicode="I" horiz-adv-x="385" 
d="M252 646v-572l94 -21v-53h-308v53l94 21v572l-94 21v53h308v-53z" />
    <glyph glyph-name="J" unicode="J" horiz-adv-x="592" 
d="M358 207v439l-99 21v53h298v-53l-79 -21v-428q0 -69 -29.5 -120.5t-82.5 -80t-124 -28.5q-68 0 -120 23t-81.5 64t-29.5 96q0 44 19 70.5t57 26.5q33 0 53 -18.5t20 -49.5q0 -23 -13 -46.5t-30 -31.5q4 -28 34.5 -47t84.5 -19q60 0 91 37.5t31 112.5z" />
    <glyph glyph-name="K" unicode="K" horiz-adv-x="745" 
d="M252 646v-259l250 259l-91 21v53h283v-53l-88 -21l-224 -222l291 -352l84 -19v-53h-299v53l66 20l-220 272l-52 -49v-222l84 -21v-53h-298v53l94 21v572l-94 21v53h298v-53z" />
    <glyph glyph-name="L" unicode="L" horiz-adv-x="640" 
d="M252 646v-576h252l34 173h75v-243h-575v53l94 21v572l-94 21v53h318v-53z" />
    <glyph glyph-name="M" unicode="M" horiz-adv-x="972" 
d="M486 101l188 619h254v-53l-84 -21v-572l84 -21v-53h-277v53l73 21v571l-190 -645h-134l-188 645v-571l73 -21v-53h-242v53l84 21v572l-84 21v53h258l181 -619h4z" />
    <glyph glyph-name="N" unicode="N" horiz-adv-x="812" 
d="M127 74v572l-84 21v53h218l347 -536v462l-84 21v53h253v-53l-84 -21v-646h-97l-384 582v-508l84 -21v-53h-253v53z" />
    <glyph glyph-name="O" unicode="O" horiz-adv-x="771" 
d="M724 368q0 -84 -24.5 -161t-75.5 -130q-42 -44 -101 -65.5t-140 -21.5q-82 0 -141 21t-100 63q-44 46 -70 118.5t-26 159.5t26.5 163.5t73.5 127.5q42 45 100 66t139 21q79 0 139 -20t103 -64q51 -51 74 -124t23 -154zM181 371q0 -79 14.5 -140.5t39.5 -100.5
q25 -37 62 -56t91 -19q98 0 147 66q26 36 40 94.5t14 138.5t-14 140t-41 98q-26 38 -64.5 56t-87.5 18t-85 -17t-60 -49q-56 -74 -56 -229z" />
    <glyph glyph-name="P" unicode="P" horiz-adv-x="640" 
d="M247 346h104q28 0 52.5 8.5t38.5 22.5q20 20 34 50.5t14 67.5q0 35 -13.5 66.5t-34.5 54.5q-16 17 -41 26.5t-54 9.5h-100v-306zM393 278h-146v-204l95 -21v-53h-299v53l84 21v572l-84 21v53h351q47 0 86 -12.5t64 -35.5q35 -31 55.5 -74.5t20.5 -91.5q0 -49 -21.5 -98.5
t-56.5 -80.5q-26 -25 -65 -37t-84 -12z" />
    <glyph glyph-name="Q" unicode="Q" horiz-adv-x="771" 
d="M724 368q0 -87 -26 -163.5t-74 -127.5q-37 -40 -86.5 -60.5t-111.5 -25.5v-4l107 -71q37 -24 81 -24q18 0 30 6t28 20l20 -36q-20 -36 -54 -51.5t-81 -15.5q-55 0 -97.5 19t-65.5 57l-60 101q-122 9 -192 82q-46 48 -71 120.5t-25 157.5q0 87 26.5 164t73.5 127
q44 46 101.5 66.5t137.5 20.5t140 -20t102 -64q47 -47 72 -120.5t25 -157.5zM181 374q0 -81 14 -144t40 -101q46 -74 152 -74q101 0 147 66q55 72 55 233q0 162 -55 238q-48 74 -152 74q-97 0 -146 -66q-55 -68 -55 -226z" />
    <glyph glyph-name="R" unicode="R" horiz-adv-x="713" 
d="M558 382q-18 -14 -41 -26t-58 -20q7 -6 17.5 -19t20.5 -30l127 -215l89 -19v-53h-226v53l-135 265h-105v-244l95 -21v-53h-299v53l84 21v572l-84 21v53h364q48 0 84.5 -9t64.5 -29q37 -25 57.5 -66.5t20.5 -83.5t-20.5 -82.5t-55.5 -67.5zM247 386h123q55 0 91 31
q20 17 31.5 46t11.5 63q0 32 -11.5 57.5t-32.5 42.5q-17 14 -39.5 20t-54.5 6h-119v-266z" />
    <glyph glyph-name="S" unicode="S" horiz-adv-x="608" 
d="M322 -11q-58 0 -100.5 17t-73.5 52l-11 -58h-76v237h81q6 -98 48.5 -140.5t118.5 -42.5q61 0 96 25t35 77q0 41 -22.5 68.5t-63 49t-94.5 43.5q-63 26 -107 52.5t-66.5 64t-22.5 95.5q0 96 59.5 149t159.5 53q99 0 161 -56l8 45h76v-237h-77q0 95 -35.5 139.5
t-109.5 44.5q-121 0 -121 -113q0 -34 13 -55.5t45.5 -39.5t88.5 -43q84 -37 134.5 -70t72.5 -70t22 -87q0 -65 -31.5 -110t-85.5 -67.5t-122 -22.5z" />
    <glyph glyph-name="T" unicode="T" horiz-adv-x="669" 
d="M26 720h616v-220h-60l-32 150h-156v-573l106 -24v-53h-332v53l106 24v573h-157l-31 -150h-60v220z" />
    <glyph glyph-name="U" unicode="U" horiz-adv-x="780" 
d="M587 269v377l-84 21v53h251v-53l-84 -21v-403q0 -124 -72 -189t-211 -65q-133 0 -204.5 66.5t-71.5 188.5v402l-84 21v53h288v-53l-84 -21v-375q0 -217 178 -217q94 0 136 51t42 164z" />
    <glyph glyph-name="V" unicode="V" horiz-adv-x="721" 
d="M195 646l182 -540h4l175 540l-83 21v53h254v-53l-82 -21l-220 -646h-118l-240 646l-80 21v53h290v-53z" />
    <glyph glyph-name="W" unicode="W" horiz-adv-x="1048" 
d="M737 116l146 531l-79 20v53h249v-53l-83 -21l-187 -646h-124l-136 448l-124 -448h-124l-206 646l-78 21v53h304v-53l-96 -21l150 -529h4l129 479l-10 50l-78 21v53h284v-53l-92 -21l147 -530h4z" />
    <glyph glyph-name="X" unicode="X" horiz-adv-x="741" 
d="M348 667l-94 -21l125 -201l151 201l-91 21v53h283v-53l-98 -21l-199 -260l208 -312l106 -21v-53h-347l-2 53l103 21l-142 226l-159 -226l109 -21v-53h-292v53l93 21l204 284l-189 288l-106 21v53h337v-53z" />
    <glyph glyph-name="Y" unicode="Y" horiz-adv-x="681" 
d="M360 354l159 292l-81 21v53h247v-53l-82 -21l-199 -364v-208l94 -21v-53h-308v53l94 21v192l-209 380l-83 21v53h296v-53l-84 -21z" />
    <glyph glyph-name="Z" unicode="Z" horiz-adv-x="655" 
d="M505 70l32 163h77v-233h-583v61l419 589h-284l-32 -152h-72v222h529v-61l-419 -589h333z" />
    <glyph glyph-name="bracketleft" unicode="[" horiz-adv-x="378" 
d="M87 -149v1004h271v-70h-162v-865h162v-69h-271z" />
    <glyph glyph-name="backslash" unicode="\" horiz-adv-x="317" 
d="M124 730l146 -740h-77l-146 740h77z" />
    <glyph glyph-name="bracketright" unicode="]" horiz-adv-x="378" 
d="M291 855v-1004h-271v69h162v865h-162v70h271z" />
    <glyph glyph-name="asciicircum" unicode="^" horiz-adv-x="389" 
d="M340 639l-89 151h-115l-88 -151h73l73 81l73 -81h73z" />
    <glyph glyph-name="underscore" unicode="_" horiz-adv-x="620" 
d="M63 -68v78h494v-78h-494z" />
    <glyph glyph-name="grave" unicode="`" horiz-adv-x="259" 
d="M180 715l49 -76h-73l-38 28q-48 35 -66.5 54.5t-18.5 34.5q0 17 12 28.5t40 11.5q26 0 45.5 -17.5t49.5 -63.5z" />
    <glyph glyph-name="a" unicode="a" horiz-adv-x="545" 
d="M33 118q0 81 75 126.5t240 70.5q-4 53 -11 82t-18 48q-14 24 -35 37.5t-50 13.5q-23 0 -42 -8.5t-26 -23.5q14 -8 20 -23.5t6 -27.5q0 -25 -20.5 -43t-48.5 -18q-29 0 -46 19t-17 50q0 41 29 70t73.5 44t90.5 15q45 0 81.5 -13t59.5 -35q74 -67 74 -221v-135
q0 -49 6.5 -68t28.5 -19h45v-40q-86 -29 -130 -29q-33 0 -43.5 22t-10.5 87h-4q-31 -51 -82 -80t-110 -29q-63 0 -99 34t-36 94zM222 58q24 0 51 14t47 40q12 16 21.5 42.5t9.5 62.5q0 14 -1 29.5t-3 28.5q-73 -15 -115 -32.5t-59 -41.5t-17 -60q0 -43 19.5 -63t46.5 -20z
" />
    <glyph glyph-name="b" unicode="b" horiz-adv-x="610" 
d="M570 275q0 -65 -19 -123t-53 -97q-56 -65 -161 -65q-51 0 -91 23.5t-71 87.5l-30 -101h-67v710l-77 19v51h194v-298q30 38 67 53t83 15q51 0 92.5 -15t67.5 -48q31 -38 48 -93t17 -119zM195 271q0 -60 9.5 -100.5t25.5 -65.5t38.5 -39t55.5 -14t54 13t35 35
q16 26 24 65.5t8 94.5q0 58 -9 102.5t-23 72.5q-13 26 -34.5 39.5t-55.5 13.5q-29 0 -54 -10.5t-39 -35.5q-16 -27 -25.5 -68.5t-9.5 -102.5z" />
    <glyph glyph-name="c" unicode="c" horiz-adv-x="543" 
d="M301 550q60 0 106.5 -19.5t72.5 -54.5t26 -82q0 -42 -21 -64.5t-55 -22.5q-35 0 -51 21.5t-16 46.5t13 43.5t37 25.5q-14 22 -42 33.5t-65 11.5q-69 0 -105 -48.5t-36 -165.5q0 -52 7 -84.5t19 -56.5q17 -32 45 -49.5t69 -17.5q42 0 86.5 19.5t74.5 59.5l46 -36
q-44 -63 -102.5 -91.5t-128.5 -28.5q-73 0 -124.5 28.5t-80.5 83.5q-36 67 -36 163q0 87 31.5 151t90 99t139.5 35z" />
    <glyph glyph-name="d" unicode="d" horiz-adv-x="631" 
d="M41 268q0 65 18 123t50 94q29 32 69 48.5t90 16.5q46 0 82.5 -17t65.5 -61v238l-77 19v51h194v-710l77 -19v-51l-175 -10l-8 82q-31 -46 -70 -64t-90 -18q-54 0 -92.5 16t-64.5 47q-32 36 -50.5 92t-18.5 123zM416 266q0 59 -10 102.5t-25 67.5q-15 25 -37.5 38t-56.5 13
q-28 0 -53 -10.5t-40 -35.5q-14 -24 -21 -67.5t-7 -97.5q0 -58 8 -101.5t22 -68.5q15 -25 39 -39.5t55 -14.5q27 0 51.5 11t39.5 35q17 27 26 70t9 98z" />
    <glyph glyph-name="e" unicode="e" horiz-adv-x="552" 
d="M511 259h-349q0 -70 20 -116q17 -38 47.5 -57t71.5 -19q45 0 87 20t73 58l47 -36q-35 -50 -91.5 -84.5t-140.5 -34.5q-72 0 -125 29.5t-81 86.5q-15 31 -22 69t-7 82q0 140 64.5 216.5t180.5 76.5q106 0 167 -63.5t61 -175.5q0 -11 -0.5 -20.5t-2.5 -31.5zM282 486
q-108 0 -119 -168h230v28q0 67 -29 103.5t-82 36.5z" />
    <glyph glyph-name="f" unicode="f" horiz-adv-x="380" 
d="M17 470v55l97 14v21q0 110 56 170t149 60q59 0 94.5 -28.5t35.5 -72.5q0 -31 -15.5 -47.5t-42.5 -16.5q-29 0 -45.5 15t-16.5 42q0 23 16 42q-12 18 -35 18q-21 0 -35 -9q-21 -13 -30.5 -35.5t-11.5 -50t-2 -57.5v-50h128v-70h-128v-400l108 -19v-51h-302v51l77 19v400
h-97z" />
    <glyph glyph-name="g" unicode="g" horiz-adv-x="570" 
d="M521 -7q0 -87 -65.5 -132t-199.5 -45q-68 0 -120.5 13t-82 40.5t-29.5 72.5q0 46 28.5 73t83.5 31v4q-73 20 -73 77q0 20 10 41t32 37.5t58 23.5q-52 15 -81 54.5t-29 94.5q0 80 54.5 126t152.5 46q61 0 98.5 -11.5t65.5 -34.5l34 12l92 44h17v-98h-17l-70 8h-28
q23 -34 23 -86q0 -81 -52 -128t-148 -47q-10 0 -20 0.5t-20 1.5q-40 -5 -62 -18.5t-22 -36.5q0 -19 18.5 -26.5t69.5 -7.5h116q82 0 124 -31.5t42 -97.5zM291 35h-45q-67 0 -97 -21.5t-30 -56.5q0 -81 147 -81q80 0 121.5 23.5t41.5 69.5q0 36 -31 51t-107 15zM161 382
q0 -57 25.5 -87t74.5 -30q55 0 80.5 30t25.5 87q0 55 -25.5 83.5t-80.5 28.5q-50 0 -75 -28.5t-25 -83.5z" />
    <glyph glyph-name="h" unicode="h" horiz-adv-x="653" 
d="M444 70v203q0 65 -3.5 96.5t-12.5 50.5q-24 49 -88 49q-28 0 -54 -12.5t-43 -35.5q-12 -15 -19.5 -39.5t-8.5 -60.5v-251l67 -19v-51h-261v51l77 19v640l-77 19v51h194v-334q27 48 72 76t98 28q42 0 72.5 -11.5t51.5 -35.5q27 -31 39.5 -83.5t12.5 -138.5v-211l77 -19
v-51h-261v51z" />
    <glyph glyph-name="i" unicode="i" horiz-adv-x="325" 
d="M110 470l-77 19v51h194v-470l77 -19v-51h-271v51l77 19v400zM98 695q0 31 18.5 50t51.5 19t52 -19t19 -50q0 -30 -19 -49t-52 -19q-34 0 -52 18.5t-18 49.5z" />
    <glyph glyph-name="j" unicode="j" horiz-adv-x="295" 
d="M217 540v-455q0 -74 -4.5 -116.5t-17.5 -69.5q-21 -46 -57.5 -67.5t-88.5 -21.5q-60 0 -98 25.5t-38 69.5q0 28 17 47.5t47 19.5q27 0 43 -17t16 -43q0 -11 -4 -22t-13 -18q2 -10 12.5 -12.5t18.5 -2.5q26 0 38 28t12 101v484l-77 19v51h194zM90 695q0 31 18.5 50
t51.5 19t52 -19t19 -50q0 -30 -18.5 -49t-52.5 -19t-52 18.5t-18 49.5z" />
    <glyph glyph-name="k" unicode="k" horiz-adv-x="605" 
d="M358 51l59 19l-139 187l-63 -53v-134l77 -19v-51h-271v51l77 19v640l-77 19v51h194v-508l184 199l-56 18v51h235v-51l-83 -19l-142 -145l191 -257l53 -17v-51h-239v51z" />
    <glyph glyph-name="l" unicode="l" horiz-adv-x="320" 
d="M101 71v638l-77 19v52h194v-709l77 -19v-52h-271v52z" />
    <glyph glyph-name="m" unicode="m" horiz-adv-x="988" 
d="M110 70v400l-77 19v51h164l22 -100h4q29 50 77.5 80t103.5 30q41 0 73 -15.5t47 -38.5q16 -25 26 -66q32 56 83 88t109 32q40 0 72 -15.5t49 -42.5q12 -19 19 -49t10 -77.5t3 -120.5v-175l77 -19v-51h-261v51l67 19v203q0 65 -4 96.5t-12 50.5q-11 24 -29 34.5t-40 10.5
q-25 0 -46.5 -8t-40.5 -25q-22 -20 -32.5 -47t-12.5 -68v-247l67 -19v-51h-251v51l67 19v203q0 65 -4 96.5t-12 50.5q-11 24 -29 34.5t-40 10.5q-25 0 -46.5 -8t-40.5 -25q-22 -20 -32.5 -47t-12.5 -68v-247l67 -19v-51h-261v51z" />
    <glyph glyph-name="n" unicode="n" horiz-adv-x="668" 
d="M110 70v400l-77 19v51h164l22 -100h4q30 51 81 80.5t109 29.5q83 0 123 -54q20 -28 28.5 -78.5t8.5 -136.5v-211l77 -19v-51h-261v51l67 19v203q0 62 -3.5 95t-12.5 52q-12 25 -32 36t-48 11q-52 0 -88 -34q-41 -37 -45 -116v-247l67 -19v-51h-261v51z" />
    <glyph glyph-name="o" unicode="o" horiz-adv-x="590" 
d="M550 272q0 -65 -19 -122t-54 -95q-32 -34 -77.5 -49.5t-105.5 -15.5t-105 15t-77 49q-35 38 -53.5 94t-18.5 120t18.5 122t54.5 95q32 35 77.5 50t104.5 15q60 0 105.5 -15t77.5 -49q35 -37 53.5 -93.5t18.5 -120.5zM188 156q10 -34 28 -55.5t45 -30.5t50 -7t45 16
q44 32 55 131q6 50 3.5 94t-12.5 80q-9 34 -27.5 55.5t-45.5 30.5t-50 7t-45 -16q-45 -32 -55 -130q-12 -102 9 -175z" />
    <glyph glyph-name="p" unicode="p" horiz-adv-x="630" 
d="M215 -110l97 -19v-51h-291v51l77 19v580l-77 19v51h164l15 -77q32 50 72.5 68.5t91.5 18.5t92.5 -15t67.5 -48q30 -38 47.5 -91.5t17.5 -115.5q0 -64 -19.5 -120.5t-52.5 -94.5q-56 -65 -161 -65q-43 0 -77.5 16.5t-63.5 57.5v-184zM214 280q0 -57 9 -98t25 -67
q15 -25 38.5 -39t56.5 -14q32 0 53.5 13t34.5 34q16 26 24.5 68t8.5 94q0 53 -9 97t-25 71q-15 26 -37.5 37t-53.5 11q-32 0 -54.5 -11t-37.5 -35t-24 -64.5t-9 -96.5z" />
    <glyph glyph-name="q" unicode="q" horiz-adv-x="610" 
d="M416 -110v177q-29 -38 -65.5 -52.5t-80.5 -14.5q-51 0 -92 15t-68 48q-31 38 -50 91.5t-19 115.5q0 64 18.5 120.5t49.5 94.5q53 65 161 65q53 0 94 -24.5t72 -88.5l30 103h67v-650l77 -19v-51h-291v51zM416 271q0 112 -35 164q-16 26 -38.5 39t-55.5 13q-28 0 -52.5 -11
t-40.5 -35q-16 -25 -22 -66.5t-6 -96.5q0 -109 29 -163q15 -29 38.5 -41t52.5 -12q35 0 58 12t37 34q16 26 25.5 66.5t9.5 96.5z" />
    <glyph glyph-name="r" unicode="r" horiz-adv-x="469" 
d="M332 472q-1 1 -3 1.5t-3 0.5q-12 0 -26 -12.5t-26 -31t-19 -35.5q-12 -34 -21 -71.5t-9 -86.5v-167l108 -19v-51h-302v51l77 19v410l-77 19v41h164l22 -132h4q23 68 62 105t86 37q39 0 65 -24.5t26 -65.5q0 -30 -17 -52t-48 -22q-35 0 -51.5 17.5t-16.5 41.5q0 7 1 11z
" />
    <glyph glyph-name="s" unicode="s" horiz-adv-x="512" 
d="M243 46q52 0 87.5 20.5t35.5 56.5q0 29 -21.5 47.5t-54 31t-66.5 21.5q-41 13 -79 32.5t-62 52t-24 83.5q0 72 52.5 115.5t148.5 43.5q88 0 139.5 -37t51.5 -97q0 -33 -17 -51.5t-47 -18.5q-29 0 -46 15t-17 37q0 17 10 33t26 23q-13 20 -37 30t-60 10q-50 0 -76 -20
t-26 -58q0 -27 13 -44.5t36.5 -29t56.5 -21.5q38 -11 75 -24t66.5 -31.5t47 -46t17.5 -66.5q0 -52 -30.5 -88.5t-83 -55.5t-119.5 -19q-93 0 -147 35.5t-54 95.5q0 38 20.5 59.5t50.5 21.5q24 0 43 -13.5t19 -38.5q0 -18 -10.5 -35t-25.5 -25q11 -17 37.5 -30.5t69.5 -13.5z
" />
    <glyph glyph-name="t" unicode="t" horiz-adv-x="357" 
d="M6 480v46l98 14l12 125l104 14v-139h128v-60h-128v-337q0 -34 1 -46.5t4 -20.5q3 -6 11 -9t26 -3h70v-39q-55 -18 -96.5 -26.5t-66.5 -8.5q-45 0 -58 37q-4 12 -6 31t-2 56v366h-97z" />
    <glyph glyph-name="u" unicode="u" horiz-adv-x="646" 
d="M210 540v-273q0 -64 3 -96t10 -51q9 -24 28.5 -36.5t42.5 -12.5q27 0 50 10t42 27q41 37 45 115v247l-87 19v51h204v-470l77 -19v-51l-175 -10l-11 110h-4q-29 -51 -79 -80.5t-107 -29.5q-38 0 -69.5 14.5t-49.5 39.5q-19 28 -28 79t-9 136v211l-67 19v51h184z" />
    <glyph glyph-name="v" unicode="v" horiz-adv-x="600" 
d="M361 -10h-123l-174 481l-56 19v51h244v-51l-66 -19l127 -385h4l129 384l-62 19v51h210v-51l-58 -19z" />
    <glyph glyph-name="w" unicode="w" horiz-adv-x="884" 
d="M185 469l91 -329l10 -59h5l12 59l108 410h92l112 -409l10 -59h4l12 59l88 328l-65 19v51h210v-51l-54 -19l-146 -479h-123l-109 371l-106 -371h-123l-150 479l-53 19v51h244v-51z" />
    <glyph glyph-name="x" unicode="x" horiz-adv-x="574" 
d="M199 470l104 -136l100 136l-60 19v51h208v-51l-57 -19l-154 -183l169 -218l55 -18v-51h-239v51l57 19l-111 143l-106 -143l60 -19v-51h-208v51l56 19l162 190l-163 210l-56 19v51h227v-51z" />
    <glyph glyph-name="y" unicode="y" horiz-adv-x="597" 
d="M524 470l-163 -446q-31 -77 -56.5 -124.5t-56.5 -68.5t-81 -21q-47 0 -80.5 25t-33.5 63q0 33 19 54t50 21q27 0 42 -13t15 -37q0 -12 -9 -28t-29 -19q2 -10 12 -13.5t17 -3.5q14 0 26 6t25.5 27t29.5 64l12 37l-203 477l-60 19v51h244l8 -51l-71 -19l132 -362h4l116 362
l-58 19v51h210v-51z" />
    <glyph glyph-name="z" unicode="z" horiz-adv-x="551" 
d="M407 66l20 136h77v-202h-463v66l318 408h-204l-24 -131h-77v197h446v-66l-318 -408h225z" />
    <glyph glyph-name="braceleft" unicode="{" horiz-adv-x="417" 
d="M3 317v79h34q55 0 80 27t25 85q0 18 -1.5 48.5t-3.5 62t-2 48.5q0 91 63.5 136.5t198.5 51.5v-70q-81 -5 -114.5 -31t-33.5 -85q0 -8 0.5 -26.5t1.5 -40.5t1.5 -42t0.5 -31q0 -69 -25.5 -108t-83.5 -59v-4q59 -13 84 -53t25 -120q0 -13 -0.5 -34.5t-1.5 -44.5t-1.5 -42
t-0.5 -28q0 -59 34 -85.5t114 -30.5v-70q-135 6 -198.5 51.5t-63.5 137.5q0 13 1 35.5t2.5 47t2.5 47t1 35.5q0 60 -24.5 86.5t-80.5 26.5h-34z" />
    <glyph glyph-name="bar" unicode="|" horiz-adv-x="252" 
d="M87 -170v940h77v-940h-77z" />
    <glyph glyph-name="braceright" unicode="}" horiz-adv-x="417" 
d="M414 396v-79h-34q-55 0 -80 -26.5t-25 -86.5q0 -13 1 -35.5t2.5 -47t2.5 -47t1 -35.5q0 -92 -63 -137.5t-199 -51.5v70q80 4 114 30.5t34 85.5q0 9 -0.5 28t-1.5 42t-1.5 44.5t-0.5 34.5q0 80 25.5 120t83.5 53v4q-58 20 -83.5 59t-25.5 108q0 11 0.5 31t1.5 42t1.5 40.5
t0.5 26.5q0 59 -33.5 85t-114.5 31v70q136 -6 199 -51.5t63 -136.5q0 -17 -1.5 -48.5t-3.5 -62t-2 -48.5q0 -58 25 -85t80 -27h34z" />
    <glyph glyph-name="asciitilde" unicode="~" horiz-adv-x="484" 
d="M65 294q17 135 107 135q34 0 56.5 -13.5t42 -27.5t43.5 -14q45 0 54 50h55q-18 -141 -107 -141q-33 0 -56 14t-42.5 28t-43.5 14q-44 0 -54 -45h-55z" />
    <glyph glyph-name="uni00A0" unicode="&#xa0;" horiz-adv-x="242" 
 />
    <glyph glyph-name="exclamdown" unicode="&#xa1;" horiz-adv-x="269" 
d="M97 335h76q0 -39 2 -82.5t5 -85.5t5.5 -75.5t3.5 -51.5q4 -37 8.5 -73t4.5 -78q0 -32 -14.5 -55.5t-50.5 -23.5q-35 0 -52 22.5t-17 57.5q0 41 5 77t8 73q2 18 4.5 51.5t5 75.5t4.5 85.5t2 82.5zM207 487q0 -34 -19.5 -53.5t-54.5 -19.5q-33 0 -52.5 19t-19.5 53
q0 35 20 55t53 20q34 0 53.5 -20t19.5 -54z" />
    <glyph glyph-name="cent" unicode="&#xa2;" horiz-adv-x="554" 
d="M259 -108v99q-126 10 -179 111q-36 67 -36 163q0 116 57 191.5t158 90.5v105h67v-103q83 -5 135.5 -46.5t52.5 -108.5q0 -43 -21.5 -65t-54.5 -22q-36 0 -51.5 21.5t-15.5 46.5t12.5 43.5t37.5 25.5q-13 20 -37.5 31t-57.5 13v-420q40 4 79 23.5t65 54.5l46 -36
q-37 -53 -85 -81.5t-105 -35.5v-101h-67zM195 134q12 -21 27.5 -35.5t36.5 -22.5v405q-44 -15 -67 -64.5t-23 -141.5q0 -52 7 -84.5t19 -56.5z" />
    <glyph glyph-name="sterling" unicode="&#xa3;" horiz-adv-x="621" 
d="M73 316v73h124q-21 44 -30.5 78t-9.5 65q0 79 57.5 124t161.5 45q84 0 131 -36t47 -99q0 -31 -15.5 -50.5t-46.5 -19.5q-28 0 -46.5 14.5t-18.5 37.5q0 19 9.5 34t26.5 23q-13 20 -35.5 30t-54.5 10q-53 0 -81 -21.5t-28 -68.5q0 -31 10 -72t32 -94h173v-73h-153
q5 -27 6.5 -42.5t1.5 -28.5q0 -25 -4.5 -53t-15.5 -56q47 -28 72.5 -38.5t47.5 -10.5q35 0 54 15.5t27 52.5h65q-11 -87 -39.5 -126t-80.5 -39q-20 0 -41 7t-52 25.5t-82 53.5q-60 -86 -134 -86q-53 0 -85.5 26.5t-32.5 73.5q0 30 15.5 51t40.5 32.5t53 11.5q21 0 47.5 -4
t48.5 -13q3 10 4.5 25.5t1.5 31.5q0 26 -3.5 47t-14.5 44h-153zM156 51q38 0 57 56q-12 8 -27.5 13t-26.5 5q-22 0 -35 -10t-13 -28q0 -36 45 -36z" />
    <glyph glyph-name="currency" unicode="&#xa4;" horiz-adv-x="581" 
d="M299 176q-56 0 -97.5 22.5t-65 61.5t-23.5 90t24.5 91t66.5 63.5t95 23.5q54 0 96 -22.5t65.5 -61.5t23.5 -91q0 -50 -24.5 -90t-66.5 -63.5t-94 -23.5zM301 242q43 0 69 30.5t26 77.5q0 49 -28 79.5t-72 30.5q-41 0 -67.5 -30.5t-26.5 -77.5q0 -48 28 -79t71 -31z
M185 410l-118 129l44 43l128 -118zM412 410l-54 53l128 118l44 -43zM182 294l53 -53l-127 -119l-44 43zM415 295l118 -129l-44 -43l-127 118z" />
    <glyph glyph-name="yen" unicode="&#xa5;" horiz-adv-x="751" 
d="M150 273v78h124l-162 295l-83 21v53h296v-53l-84 -21l154 -290h4l157 290l-81 21v53h247v-53l-82 -21l-161 -295h119v-78h-157v-60h157v-78h-157v-61l94 -21v-53h-308v53l94 21v61h-171v78h171v53l-4 7h-167z" />
    <glyph glyph-name="brokenbar" unicode="&#xa6;" horiz-adv-x="256" 
d="M89 -170v418h77v-418h-77zM89 368v402h77v-402h-77z" />
    <glyph glyph-name="section" unicode="&#xa7;" horiz-adv-x="537" 
d="M495 251q0 -52 -25.5 -92t-69.5 -63q55 -49 55 -120q0 -79 -57 -122.5t-155 -43.5q-86 0 -133 34t-47 92q0 36 17 57t49 21q27 0 44 -15t17 -38q0 -16 -10 -32.5t-36 -22.5q14 -22 35.5 -31t57.5 -9q58 0 87 22t29 64q0 35 -17 57.5t-45.5 39.5t-63.5 33
q-46 23 -88.5 50.5t-70 65.5t-27.5 92q0 52 25.5 91.5t68.5 62.5q-28 25 -41 54t-13 66q0 79 52 122.5t147 43.5q89 0 141 -36.5t52 -96.5q0 -33 -16.5 -52t-49.5 -19q-29 0 -45 15t-16 36q0 18 10 34t26 23q-16 21 -40.5 30.5t-58.5 9.5q-51 0 -75.5 -20.5t-24.5 -62.5
q0 -34 15 -56t41.5 -37.5t61.5 -33.5q49 -24 93.5 -52t72.5 -66.5t28 -94.5zM246 377q-5 3 -21 10.5t-41 22.5q-16 -12 -26 -36.5t-10 -52.5q0 -34 16 -59.5t48.5 -48t81.5 -48.5q8 -5 25.5 -14t38.5 -21q14 14 22 37t8 51q0 29 -11 54.5t-42 51t-89 53.5z" />
    <glyph glyph-name="dieresis" unicode="&#xa8;" horiz-adv-x="407" 
d="M20 695q0 33 18 51t50 18t50.5 -18.5t18.5 -50.5t-18 -50t-51 -18q-32 0 -50 18t-18 50zM250 695q0 33 18 51t50 18t50.5 -18.5t18.5 -50.5t-18 -50t-51 -18q-32 0 -50 18t-18 50z" />
    <glyph glyph-name="copyright" unicode="&#xa9;" horiz-adv-x="849" 
d="M419 -10q-80 0 -148 28.5t-118.5 79t-79 118t-28.5 145.5t28.5 145t79 117.5t119 78.5t148.5 28q85 0 155.5 -28t121.5 -78.5t78.5 -117.5t27.5 -145t-28 -145.5t-80 -118t-122 -79t-154 -28.5zM419 40q70 0 128.5 24.5t101 68t66 102t23.5 126.5t-23 126t-65.5 101
t-101 67.5t-128.5 24.5q-65 0 -121 -24t-98 -67t-65.5 -101.5t-23.5 -126.5t23.5 -127t65.5 -102t97.5 -67.5t120.5 -24.5zM423 515q-46 0 -68 -32q-16 -22 -24 -50.5t-8 -63.5q0 -32 7 -60t19 -49q13 -22 34.5 -32.5t46.5 -10.5q38 0 64 23.5t35 66.5h49q-13 -70 -53 -104
t-104 -34q-79 0 -123 42q-28 27 -43.5 66t-15.5 83q0 50 19.5 94.5t52.5 71.5q22 18 50.5 25.5t58.5 7.5q28 0 49 -8.5t42 -30.5l10 33h49v-131h-52q-7 47 -32 70t-63 23z" />
    <glyph glyph-name="ordfeminine" unicode="&#xaa;" horiz-adv-x="381" 
d="M49 493q0 43 39 69.5t130 40.5q-6 55 -16 70q-7 10 -16.5 14t-19.5 4q-15 0 -24 -6t-11 -15q8 -4 10.5 -11t2.5 -13q0 -16 -13.5 -23.5t-29.5 -7.5q-19 0 -30.5 11t-11.5 31q0 24 16 40t43 24.5t57 8.5q22 0 46.5 -5.5t41.5 -21.5q20 -17 27.5 -47.5t7.5 -73.5v-70
q0 -27 3.5 -37.5t15.5 -10.5h25v-26q-26 -8 -47 -12t-34 -4q-21 0 -27 12t-6 48h-4q-16 -27 -42 -43.5t-59 -16.5q-34 0 -54 18.5t-20 52.5zM160 470q6 0 18 4.5t24 16.5q8 9 12.5 21.5t4.5 29.5q0 7 -0.5 14.5t-1.5 14.5q-48 -11 -67 -26.5t-19 -40.5q0 -34 29 -34z" />
    <glyph glyph-name="guillemotleft" unicode="&#xab;" horiz-adv-x="544" 
d="M155 255l133 -201l-43 -42l-210 220v43l209 216l43 -33zM365 255l133 -201l-43 -42l-210 220v43l209 216l43 -33z" />
    <glyph glyph-name="logicalnot" unicode="&#xac;" horiz-adv-x="571" 
d="M65 318v90h434v-229h-80v139h-354z" />
    <glyph glyph-name="registered" unicode="&#xae;" horiz-adv-x="635" 
d="M314 230q-74 0 -132 33t-91.5 90t-33.5 128q0 72 33.5 128.5t91.5 88.5t132 32q77 0 136 -32t93 -88.5t34 -128.5q0 -71 -34 -128t-93 -90t-136 -33zM314 277q98 0 149.5 55.5t51.5 148.5q0 92 -51.5 147t-149.5 55q-89 0 -142 -55t-53 -147q0 -93 52 -148.5t143 -55.5z
M400 490q-7 -5 -14 -9t-21 -8q4 -3 6.5 -6.5t5.5 -8.5l42 -70l32 -7v-25h-99v25l-43 85h-21v-77l33 -8v-25h-124v25l30 8v191l-30 8v25h148q36 0 57 -17q11 -9 17.5 -21.5t6.5 -31.5q0 -15 -6 -29t-20 -24zM288 502h26q10 0 19.5 3t15.5 9q7 6 9.5 13t2.5 17t-4 17t-10 10
q-4 3 -11.5 4.5t-23.5 1.5h-24v-75z" />
    <glyph glyph-name="macron" unicode="&#xaf;" horiz-adv-x="329" 
d="M25 645v85h279v-85h-279z" />
    <glyph glyph-name="degree" unicode="&#xb0;" horiz-adv-x="368" 
d="M185 458q-65 0 -105 37.5t-40 97.5q0 39 19 70t51.5 49t73.5 18q64 0 104 -37.5t40 -97.5q0 -39 -18.5 -70t-51 -49t-73.5 -18zM186 504q33 0 52.5 25t19.5 64q0 40 -21 65t-55 25q-31 0 -51.5 -25t-20.5 -64t21.5 -64.5t54.5 -25.5z" />
    <glyph glyph-name="plusminus" unicode="&#xb1;" horiz-adv-x="527" 
d="M65 362v68h160v150h78v-150h160v-68h-160v-150h-78v150h-160zM65 62v68h398v-68h-398z" />
    <glyph glyph-name="uni00B2" unicode="&#xb2;" horiz-adv-x="339" 
d="M119 459h109l10 49h47v-107h-237v30q0 28 16 50.5t40 42.5t48 39.5t40 41.5t16 49q0 21 -17.5 29t-34.5 8q-9 0 -20.5 -2t-21 -8.5t-11.5 -18.5q14 0 21.5 -8.5t7.5 -21.5q0 -14 -9 -23t-28 -9q-23 0 -32.5 12.5t-9.5 31.5q0 39 29 62.5t83 23.5q56 0 86 -23.5t30 -63.5
q0 -31 -16.5 -54t-40.5 -40.5t-48 -32.5t-40.5 -28.5t-16.5 -28.5z" />
    <glyph glyph-name="uni00B3" unicode="&#xb3;" horiz-adv-x="335" 
d="M278 646q0 -30 -18.5 -49.5t-49.5 -24.5v-4q73 -14 73 -77q0 -42 -36.5 -68t-95.5 -26q-46 0 -74.5 23t-28.5 61q0 21 10 32.5t28 11.5q21 0 30 -9.5t9 -23.5q0 -12 -6 -19.5t-17 -7.5q3 -17 16.5 -23t31.5 -6q25 0 40.5 12.5t15.5 37.5q0 30 -20.5 47t-56.5 17v37
q34 0 55 16.5t21 46.5q0 21 -14.5 32t-39.5 11q-17 0 -31 -6t-16 -20q11 0 20 -7t9 -20t-10 -24t-31 -11q-20 0 -30 14t-10 33q0 35 29 56.5t80 21.5q55 0 86 -23t31 -61z" />
    <glyph glyph-name="acute" unicode="&#xb4;" horiz-adv-x="259" 
d="M30 639l49 76q30 46 49.5 63.5t45.5 17.5q28 0 40 -11.5t12 -28.5q0 -15 -18.5 -34.5t-66.5 -54.5l-38 -28h-73z" />
    <glyph glyph-name="uni03BC" unicode="&#xb5;" horiz-adv-x="677" 
d="M107 -179v649l-67 19v51h184v-273q0 -64 3.5 -97t11.5 -51q10 -24 30.5 -36t43.5 -12q53 0 90 35q21 21 30 48t12 69v247l-87 19v51h204v-470l77 -19v-51l-175 -10l-11 110h-4q-26 -52 -63.5 -81t-83.5 -29q-27 0 -52.5 17.5t-31.5 51.5h-4l10 -238h-117z" />
    <glyph glyph-name="paragraph" unicode="&#xb6;" horiz-adv-x="694" 
d="M483 -96v692h-50v-692h-90v289h-66q-121 0 -184 61t-63 178q0 115 64 176.5t182 61.5h381v-53l-84 -21v-692h-90z" />
    <glyph glyph-name="periodcentered" unicode="&#xb7;" horiz-adv-x="263" 
d="M58 298q0 35 20 55t53 20q34 0 54 -21t20 -54q0 -34 -20 -53.5t-54 -19.5t-53.5 19t-19.5 54z" />
    <glyph glyph-name="cedilla" unicode="&#xb8;" horiz-adv-x="254" 
d="M106 -210q-53 0 -91 28l30 40q29 -20 59 -20q20 0 31.5 8t11.5 22q0 13 -13 20.5t-35 7.5q-11 0 -23 -1.5t-21 -4.5l-16 27l77 100h64l-43 -72l1 -3q56 0 78.5 -18t22.5 -50q0 -40 -39 -62t-94 -22z" />
    <glyph glyph-name="uni00B9" unicode="&#xb9;" horiz-adv-x="320" 
d="M130 437v222h-60v41q16 0 41 5t32 15h59v-283l48 -9v-36h-180v36z" />
    <glyph glyph-name="ordmasculine" unicode="&#xba;" horiz-adv-x="377" 
d="M334 579q0 -35 -10.5 -68t-30.5 -53q-17 -19 -44 -27.5t-62 -8.5q-34 0 -60.5 8.5t-43.5 26.5q-19 20 -29 50.5t-10 64.5q0 36 11 69t30 53q34 36 105 36q33 0 60.5 -8.5t44.5 -26.5q20 -19 29.5 -50t9.5 -66zM128 578q0 -57 19 -88q6 -11 17 -17.5t26 -6.5q26 0 41 18
q19 24 19 90q0 29 -4.5 51.5t-14.5 38.5q-7 10 -17.5 16t-25.5 6q-14 0 -24 -5.5t-16 -14.5q-11 -14 -15.5 -36t-4.5 -52z" />
    <glyph glyph-name="guillemotright" unicode="&#xbb;" horiz-adv-x="544" 
d="M45 54l133 201l-132 203l43 33l209 -216v-43l-210 -220zM255 54l133 201l-132 203l43 33l209 -216v-43l-210 -220z" />
    <glyph glyph-name="onequarter" unicode="&#xbc;" horiz-adv-x="626" 
d="M89 -10l386 740h74l-386 -740h-74zM105 437v222h-60v41q16 0 41 5t32 15h59v-283l48 -9v-36h-180v36zM472 44v38h-129l-7 41l136 205h72v-203h49l-6 -43h-43v-38l35 -9v-35h-152v35zM472 249l-77 -124h77v124z" />
    <glyph glyph-name="onehalf" unicode="&#xbd;" horiz-adv-x="649" 
d="M87 -10l386 740h74l-386 -740h-74zM103 437v222h-60v41q16 0 41 5t32 15h59v-283l48 -9v-36h-180v36zM445 58h109l10 49h47v-107h-237v30q0 28 16 50.5t40 42.5t48 39.5t40 41.5t16 49q0 21 -17.5 29t-34.5 8q-9 0 -20.5 -2t-21 -8.5t-11.5 -18.5q14 0 21.5 -8.5
t7.5 -21.5q0 -14 -9 -23t-28 -9q-23 0 -32.5 12.5t-9.5 31.5q0 39 29 62.5t83 23.5q56 0 86 -23.5t30 -63.5q0 -31 -16.5 -54t-40.5 -40.5t-48 -32.5t-40.5 -28.5t-16.5 -28.5z" />
    <glyph glyph-name="threequarters" unicode="&#xbe;" horiz-adv-x="637" 
d="M100 -10l386 740h74l-386 -740h-74zM483 44v38h-129l-7 41l136 205h72v-203h49l-6 -43h-43v-38l35 -9v-35h-152v35zM483 249l-77 -124h77v124zM268 646q0 -30 -18.5 -49.5t-49.5 -24.5v-4q73 -14 73 -77q0 -42 -36.5 -68t-95.5 -26q-46 0 -74.5 23t-28.5 61q0 21 10 32.5
t28 11.5q21 0 30 -9.5t9 -23.5q0 -12 -6 -19.5t-17 -7.5q3 -17 16.5 -23t31.5 -6q25 0 40.5 12.5t15.5 37.5q0 30 -20.5 47t-56.5 17v37q34 0 55 16.5t21 46.5q0 21 -14.5 32t-39.5 11q-17 0 -31 -6t-16 -20q11 0 20 -7t9 -20t-10 -24t-31 -11q-20 0 -30 14t-10 33
q0 35 29 56.5t80 21.5q55 0 86 -23t31 -61z" />
    <glyph glyph-name="questiondown" unicode="&#xbf;" horiz-adv-x="492" 
d="M239 336h76q0 -41 -9 -72.5t-31.5 -63t-62.5 -71.5q-35 -35 -50 -67t-15 -72q0 -55 30.5 -85t86.5 -30q33 0 58 14.5t25 34.5q-20 11 -31.5 30.5t-11.5 41.5q0 28 21.5 48.5t56.5 20.5t58 -30t23 -72q0 -43 -27.5 -77.5t-75 -55t-105.5 -20.5q-68 0 -119.5 22t-80.5 61.5
t-29 90.5q0 45 24 86.5t82 94.5q41 39 64.5 66t33 51t9.5 54zM349 489q0 -35 -19.5 -55t-52.5 -20q-34 0 -54 20.5t-20 53.5q0 34 19.5 53.5t54.5 19.5q34 0 53 -19t19 -53z" />
    <glyph glyph-name="Agrave" unicode="&#xc0;" horiz-adv-x="726" 
d="M521 74l-54 163h-252l-55 -163l83 -21v-53h-254v53l82 21l236 656h113l234 -656l80 -21v-53h-295v53zM343 612l-105 -307h207l-98 307h-4zM361 840l60 -77h-73l-47 29q-29 18 -45 28.5t-22.5 20t-6.5 21.5q0 15 11 25.5t33 10.5q17 0 30 -4.5t27 -17t33 -36.5z" />
    <glyph glyph-name="Aacute" unicode="&#xc1;" horiz-adv-x="726" 
d="M521 74l-54 163h-252l-55 -163l83 -21v-53h-254v53l82 21l236 656h113l234 -656l80 -21v-53h-295v53zM343 612l-105 -307h207l-98 307h-4zM327 763l60 77q20 24 34 36.5t27 17t30 4.5q21 0 32 -10.5t11 -25.5q0 -12 -6.5 -21.5t-22.5 -20t-45 -28.5l-47 -29h-73z" />
    <glyph glyph-name="Acircumflex" unicode="&#xc2;" horiz-adv-x="726" 
d="M521 74l-54 163h-252l-55 -163l83 -21v-53h-254v53l82 21l236 656h113l234 -656l80 -21v-53h-295v53zM343 612l-105 -307h207l-98 307h-4zM540 769l-119 121h-115l-118 -121h73l103 61l103 -61h73z" />
    <glyph glyph-name="Atilde" unicode="&#xc3;" horiz-adv-x="726" 
d="M521 74l-54 163h-252l-55 -163l83 -21v-53h-254v53l82 21l236 656h113l234 -656l80 -21v-53h-295v53zM343 612l-105 -307h207l-98 307h-4zM170 767q4 68 36.5 101.5t85.5 33.5q26 0 44.5 -8.5t34.5 -19t32 -19t35 -8.5q30 0 45 13t20 37h55q-20 -141 -122 -141
q-25 0 -44 8.5t-35 19.5t-31.5 19.5t-35.5 8.5q-30 0 -45 -12t-20 -33h-55z" />
    <glyph glyph-name="Adieresis" unicode="&#xc4;" horiz-adv-x="726" 
d="M521 74l-54 163h-252l-55 -163l83 -21v-53h-254v53l82 21l236 656h113l234 -656l80 -21v-53h-295v53zM343 612l-105 -307h207l-98 307h-4zM177 837q0 33 19.5 52.5t51.5 19.5t52 -20t20 -52t-19.5 -51.5t-52.5 -19.5t-52 19t-19 52zM407 837q0 33 19.5 52.5t51.5 19.5
t52 -20t20 -52t-19.5 -51.5t-52.5 -19.5t-52 19t-19 52z" />
    <glyph glyph-name="Aring" unicode="&#xc5;" horiz-adv-x="726" 
d="M521 74l-54 163h-252l-55 -163l83 -21v-53h-254v53l82 21l236 656h113l234 -656l80 -21v-53h-295v53zM343 612l-105 -307h207l-98 307h-4zM279 824q0 36 25 56t60 20q36 0 61 -20t25 -56q0 -35 -25 -54.5t-61 -19.5q-35 0 -60 19.5t-25 54.5zM337 824q0 -13 7 -20t20 -7
t21 7t8 20t-8 21t-21 8t-20 -8t-7 -21z" />
    <glyph glyph-name="AE" unicode="&#xc6;" horiz-adv-x="1067" 
d="M861 238h-71l-17 97h-147v-265h284l29 153h78v-223h-605v53l94 21v163h-236l-89 -163l74 -21v-53h-267v53l99 21l326 582l-78 11v53h660v-212h-72l-30 144h-267v-247h147l17 97h71v-264zM506 646l-13 2l-185 -343h198v341z" />
    <glyph glyph-name="Ccedilla" unicode="&#xc7;" horiz-adv-x="693" 
d="M375 666q-42 0 -76.5 -15.5t-56.5 -46.5q-28 -39 -46 -99t-18 -133q0 -71 15 -133t42 -104q24 -37 62 -54t88 -17q172 0 201 169h75q-47 -243 -294 -243q-138 0 -220 80q-49 48 -75 121t-26 162q0 101 33 183t93 131q76 63 201 63q62 0 101 -16t77 -57l20 63h75v-231h-81
q-14 88 -63 132.5t-127 44.5zM347 -210q-53 0 -91 28l30 40q29 -20 59 -20q20 0 31.5 8t11.5 22q0 13 -13 20.5t-35 7.5q-11 0 -23 -1.5t-21 -4.5l-16 27l77 100h64l-43 -72l1 -3q56 0 78.5 -18t22.5 -50q0 -40 -39 -62t-94 -22z" />
    <glyph glyph-name="Egrave" unicode="&#xc8;" horiz-adv-x="694" 
d="M487 238h-71l-17 97h-147v-265h284l29 153h78v-223h-605v53l94 21v572l-94 21v53h583v-212h-72l-30 144h-267v-247h147l17 97h71v-264zM371 840l60 -77h-73l-47 29q-29 18 -45 28.5t-22.5 20t-6.5 21.5q0 15 11 25.5t33 10.5q17 0 30 -4.5t27 -17t33 -36.5z" />
    <glyph glyph-name="Eacute" unicode="&#xc9;" horiz-adv-x="694" 
d="M487 238h-71l-17 97h-147v-265h284l29 153h78v-223h-605v53l94 21v572l-94 21v53h583v-212h-72l-30 144h-267v-247h147l17 97h71v-264zM314 763l60 77q20 24 34 36.5t27 17t30 4.5q21 0 32 -10.5t11 -25.5q0 -12 -6.5 -21.5t-22.5 -20t-45 -28.5l-47 -29h-73z" />
    <glyph glyph-name="Ecircumflex" unicode="&#xca;" horiz-adv-x="694" 
d="M487 238h-71l-17 97h-147v-265h284l29 153h78v-223h-605v53l94 21v572l-94 21v53h583v-212h-72l-30 144h-267v-247h147l17 97h71v-264zM527 769l-119 121h-115l-118 -121h73l103 61l103 -61h73z" />
    <glyph glyph-name="Edieresis" unicode="&#xcb;" horiz-adv-x="694" 
d="M487 238h-71l-17 97h-147v-265h284l29 153h78v-223h-605v53l94 21v572l-94 21v53h583v-212h-72l-30 144h-267v-247h147l17 97h71v-264zM164 837q0 33 19.5 52.5t51.5 19.5t52 -20t20 -52t-19.5 -51.5t-52.5 -19.5t-52 19t-19 52zM394 837q0 33 19.5 52.5t51.5 19.5
t52 -20t20 -52t-19.5 -51.5t-52.5 -19.5t-52 19t-19 52z" />
    <glyph glyph-name="Igrave" unicode="&#xcc;" horiz-adv-x="385" 
d="M252 646v-572l94 -21v-53h-308v53l94 21v572l-94 21v53h308v-53zM211 840l60 -77h-73l-47 29q-29 18 -45 28.5t-22.5 20t-6.5 21.5q0 15 11 25.5t33 10.5q17 0 30 -4.5t27 -17t33 -36.5z" />
    <glyph glyph-name="Iacute" unicode="&#xcd;" horiz-adv-x="385" 
d="M252 646v-572l94 -21v-53h-308v53l94 21v572l-94 21v53h308v-53zM155 763l60 77q20 24 34 36.5t27 17t30 4.5q21 0 32 -10.5t11 -25.5q0 -12 -6.5 -21.5t-22.5 -20t-45 -28.5l-47 -29h-73z" />
    <glyph glyph-name="Icircumflex" unicode="&#xce;" horiz-adv-x="385" 
d="M252 646v-572l94 -21v-53h-308v53l94 21v572l-94 21v53h308v-53zM368 769l-119 121h-115l-118 -121h73l103 61l103 -61h73z" />
    <glyph glyph-name="Idieresis" unicode="&#xcf;" horiz-adv-x="385" 
d="M252 646v-572l94 -21v-53h-308v53l94 21v572l-94 21v53h308v-53zM6 837q0 33 19.5 52.5t51.5 19.5t52 -20t20 -52t-19.5 -51.5t-52.5 -19.5t-52 19t-19 52zM236 837q0 33 19.5 52.5t51.5 19.5t52 -20t20 -52t-19.5 -51.5t-52.5 -19.5t-52 19t-19 52z" />
    <glyph glyph-name="Eth" unicode="&#xd0;" horiz-adv-x="780" 
d="M49 325v77h84v244l-84 21v53h356q149 0 232 -84q47 -48 72 -118t25 -150q0 -84 -26.5 -157.5t-73.5 -123.5q-83 -87 -238 -87h-347v53l84 21v251h-84zM253 70h135q105 0 156 56q27 36 41 92.5t14 135.5q0 156 -55 232q-52 64 -166 64h-125v-248h127v-77h-127v-255z" />
    <glyph glyph-name="Ntilde" unicode="&#xd1;" horiz-adv-x="812" 
d="M127 74v572l-84 21v53h218l347 -536v462l-84 21v53h253v-53l-84 -21v-646h-97l-384 582v-508l84 -21v-53h-253v53zM211 767q4 68 36.5 101.5t85.5 33.5q26 0 44.5 -8.5t34.5 -19t32 -19t35 -8.5q30 0 45 13t20 37h55q-20 -141 -122 -141q-25 0 -44 8.5t-35 19.5
t-31.5 19.5t-35.5 8.5q-30 0 -45 -12t-20 -33h-55z" />
    <glyph glyph-name="Ograve" unicode="&#xd2;" horiz-adv-x="771" 
d="M724 368q0 -84 -24.5 -161t-75.5 -130q-42 -44 -101 -65.5t-140 -21.5q-82 0 -141 21t-100 63q-44 46 -70 118.5t-26 159.5t26.5 163.5t73.5 127.5q42 45 100 66t139 21q79 0 139 -20t103 -64q51 -51 74 -124t23 -154zM181 371q0 -79 14.5 -140.5t39.5 -100.5
q25 -37 62 -56t91 -19q98 0 147 66q26 36 40 94.5t14 138.5t-14 140t-41 98q-26 38 -64.5 56t-87.5 18t-85 -17t-60 -49q-56 -74 -56 -229zM407 840l60 -77h-73l-47 29q-29 18 -45 28.5t-22.5 20t-6.5 21.5q0 15 11 25.5t33 10.5q17 0 30 -4.5t27 -17t33 -36.5z" />
    <glyph glyph-name="Oacute" unicode="&#xd3;" horiz-adv-x="771" 
d="M724 368q0 -84 -24.5 -161t-75.5 -130q-42 -44 -101 -65.5t-140 -21.5q-82 0 -141 21t-100 63q-44 46 -70 118.5t-26 159.5t26.5 163.5t73.5 127.5q42 45 100 66t139 21q79 0 139 -20t103 -64q51 -51 74 -124t23 -154zM181 371q0 -79 14.5 -140.5t39.5 -100.5
q25 -37 62 -56t91 -19q98 0 147 66q26 36 40 94.5t14 138.5t-14 140t-41 98q-26 38 -64.5 56t-87.5 18t-85 -17t-60 -49q-56 -74 -56 -229zM348 763l60 77q20 24 34 36.5t27 17t30 4.5q21 0 32 -10.5t11 -25.5q0 -12 -6.5 -21.5t-22.5 -20t-45 -28.5l-47 -29h-73z" />
    <glyph glyph-name="Ocircumflex" unicode="&#xd4;" horiz-adv-x="771" 
d="M724 368q0 -84 -24.5 -161t-75.5 -130q-42 -44 -101 -65.5t-140 -21.5q-82 0 -141 21t-100 63q-44 46 -70 118.5t-26 159.5t26.5 163.5t73.5 127.5q42 45 100 66t139 21q79 0 139 -20t103 -64q51 -51 74 -124t23 -154zM181 371q0 -79 14.5 -140.5t39.5 -100.5
q25 -37 62 -56t91 -19q98 0 147 66q26 36 40 94.5t14 138.5t-14 140t-41 98q-26 38 -64.5 56t-87.5 18t-85 -17t-60 -49q-56 -74 -56 -229zM561 769l-119 121h-115l-118 -121h73l103 61l103 -61h73z" />
    <glyph glyph-name="Otilde" unicode="&#xd5;" horiz-adv-x="771" 
d="M724 368q0 -84 -24.5 -161t-75.5 -130q-42 -44 -101 -65.5t-140 -21.5q-82 0 -141 21t-100 63q-44 46 -70 118.5t-26 159.5t26.5 163.5t73.5 127.5q42 45 100 66t139 21q79 0 139 -20t103 -64q51 -51 74 -124t23 -154zM181 371q0 -79 14.5 -140.5t39.5 -100.5
q25 -37 62 -56t91 -19q98 0 147 66q26 36 40 94.5t14 138.5t-14 140t-41 98q-26 38 -64.5 56t-87.5 18t-85 -17t-60 -49q-56 -74 -56 -229zM191 767q4 68 36.5 101.5t85.5 33.5q26 0 44.5 -8.5t34.5 -19t32 -19t35 -8.5q30 0 45 13t20 37h55q-20 -141 -122 -141
q-25 0 -44 8.5t-35 19.5t-31.5 19.5t-35.5 8.5q-30 0 -45 -12t-20 -33h-55z" />
    <glyph glyph-name="Odieresis" unicode="&#xd6;" horiz-adv-x="771" 
d="M724 368q0 -84 -24.5 -161t-75.5 -130q-42 -44 -101 -65.5t-140 -21.5q-82 0 -141 21t-100 63q-44 46 -70 118.5t-26 159.5t26.5 163.5t73.5 127.5q42 45 100 66t139 21q79 0 139 -20t103 -64q51 -51 74 -124t23 -154zM181 371q0 -79 14.5 -140.5t39.5 -100.5
q25 -37 62 -56t91 -19q98 0 147 66q26 36 40 94.5t14 138.5t-14 140t-41 98q-26 38 -64.5 56t-87.5 18t-85 -17t-60 -49q-56 -74 -56 -229zM197 837q0 33 19.5 52.5t51.5 19.5t52 -20t20 -52t-19.5 -51.5t-52.5 -19.5t-52 19t-19 52zM427 837q0 33 19.5 52.5t51.5 19.5
t52 -20t20 -52t-19.5 -51.5t-52.5 -19.5t-52 19t-19 52z" />
    <glyph glyph-name="multiply" unicode="&#xd7;" horiz-adv-x="506" 
d="M115 152l-62 62l138 138l-138 138l62 62l138 -138l138 138l62 -62l-138 -138l138 -138l-62 -62l-138 138z" />
    <glyph glyph-name="Oslash" unicode="&#xd8;" horiz-adv-x="768" 
d="M64 -10l526 740h91l-526 -740h-91zM722 368q0 -84 -24.5 -161t-75.5 -130q-42 -44 -101 -65.5t-140 -21.5q-82 0 -141 21t-100 63q-44 46 -70 118.5t-26 159.5t26.5 163.5t73.5 127.5q42 45 100 66t139 21q79 0 139 -20t103 -64q51 -51 74 -124t23 -154zM179 371
q0 -79 14.5 -140.5t39.5 -100.5q25 -37 62 -56t91 -19q98 0 147 66q26 36 40 94.5t14 138.5t-14 140t-41 98q-26 38 -64.5 56t-87.5 18t-85 -17t-60 -49q-56 -74 -56 -229z" />
    <glyph glyph-name="Ugrave" unicode="&#xd9;" horiz-adv-x="780" 
d="M587 269v377l-84 21v53h251v-53l-84 -21v-403q0 -124 -72 -189t-211 -65q-133 0 -204.5 66.5t-71.5 188.5v402l-84 21v53h288v-53l-84 -21v-375q0 -217 178 -217q94 0 136 51t42 164zM431 840l60 -77h-73l-47 29q-29 18 -45 28.5t-22.5 20t-6.5 21.5q0 15 11 25.5
t33 10.5q17 0 30 -4.5t27 -17t33 -36.5z" />
    <glyph glyph-name="Uacute" unicode="&#xda;" horiz-adv-x="780" 
d="M587 269v377l-84 21v53h251v-53l-84 -21v-403q0 -124 -72 -189t-211 -65q-133 0 -204.5 66.5t-71.5 188.5v402l-84 21v53h288v-53l-84 -21v-375q0 -217 178 -217q94 0 136 51t42 164zM373 763l60 77q20 24 34 36.5t27 17t30 4.5q21 0 32 -10.5t11 -25.5q0 -12 -6.5 -21.5
t-22.5 -20t-45 -28.5l-47 -29h-73z" />
    <glyph glyph-name="Ucircumflex" unicode="&#xdb;" horiz-adv-x="780" 
d="M587 269v377l-84 21v53h251v-53l-84 -21v-403q0 -124 -72 -189t-211 -65q-133 0 -204.5 66.5t-71.5 188.5v402l-84 21v53h288v-53l-84 -21v-375q0 -217 178 -217q94 0 136 51t42 164zM586 769l-119 121h-115l-118 -121h73l103 61l103 -61h73z" />
    <glyph glyph-name="Udieresis" unicode="&#xdc;" horiz-adv-x="780" 
d="M587 269v377l-84 21v53h251v-53l-84 -21v-403q0 -124 -72 -189t-211 -65q-133 0 -204.5 66.5t-71.5 188.5v402l-84 21v53h288v-53l-84 -21v-375q0 -217 178 -217q94 0 136 51t42 164zM222 837q0 33 19.5 52.5t51.5 19.5t52 -20t20 -52t-19.5 -51.5t-52.5 -19.5t-52 19
t-19 52zM452 837q0 33 19.5 52.5t51.5 19.5t52 -20t20 -52t-19.5 -51.5t-52.5 -19.5t-52 19t-19 52z" />
    <glyph glyph-name="Yacute" unicode="&#xdd;" horiz-adv-x="681" 
d="M360 354l159 292l-81 21v53h247v-53l-82 -21l-199 -364v-208l94 -21v-53h-308v53l94 21v192l-209 380l-83 21v53h296v-53l-84 -21zM323 763l60 77q20 24 34 36.5t27 17t30 4.5q21 0 32 -10.5t11 -25.5q0 -12 -6.5 -21.5t-22.5 -20t-45 -28.5l-47 -29h-73z" />
    <glyph glyph-name="Thorn" unicode="&#xde;" horiz-adv-x="652" 
d="M401 148h-151v-74l95 -21v-53h-299v53l84 21v572l-95 21v53h299v-53l-84 -21v-71h152q50 0 90 -14.5t67 -39.5q31 -30 47.5 -70t16.5 -85q0 -46 -17 -88.5t-49 -73.5q-26 -26 -66.5 -41t-89.5 -15zM250 216h109q31 0 56 10t40 26q18 19 28 47t10 61q0 65 -40 107
q-16 19 -41.5 29.5t-56.5 10.5h-105v-291z" />
    <glyph glyph-name="germandbls" unicode="&#xdf;" horiz-adv-x="641" 
d="M369 424q0 23 17.5 41t61.5 46q42 26 59.5 56.5t17.5 70.5q0 70 -54.5 111t-147.5 41q-105 0 -165 -64t-60 -176v-480l-77 -19v-51h194v580q0 80 28.5 120t78.5 40q47 0 72.5 -26.5t25.5 -74.5q0 -36 -14 -61.5t-47 -50.5q-38 -28 -58 -47t-27 -37t-7 -42q0 -29 11 -51
t40 -44.5t84 -55.5q48 -29 72 -47t32 -34.5t8 -39.5q0 -39 -26 -61t-62 -22q-21 0 -43 9.5t-29 24.5q16 8 26 24t10 37q0 20 -16.5 37t-47.5 17q-35 0 -52 -24t-17 -55q0 -55 46.5 -90.5t119.5 -35.5q58 0 102.5 20t70 58t25.5 90q0 38 -12.5 67t-46.5 56t-97 59
q-39 20 -60 33t-28.5 24.5t-7.5 26.5z" />
    <glyph glyph-name="agrave" unicode="&#xe0;" horiz-adv-x="545" 
d="M33 118q0 81 75 126.5t240 70.5q-4 53 -11 82t-18 48q-14 24 -35 37.5t-50 13.5q-23 0 -42 -8.5t-26 -23.5q14 -8 20 -23.5t6 -27.5q0 -25 -20.5 -43t-48.5 -18q-29 0 -46 19t-17 50q0 41 29 70t73.5 44t90.5 15q45 0 81.5 -13t59.5 -35q74 -67 74 -221v-135
q0 -49 6.5 -68t28.5 -19h45v-40q-86 -29 -130 -29q-33 0 -43.5 22t-10.5 87h-4q-31 -51 -82 -80t-110 -29q-63 0 -99 34t-36 94zM222 58q24 0 51 14t47 40q12 16 21.5 42.5t9.5 62.5q0 14 -1 29.5t-3 28.5q-73 -15 -115 -32.5t-59 -41.5t-17 -60q0 -43 19.5 -63t46.5 -20z
M270 715l49 -76h-73l-38 28q-48 35 -66.5 54.5t-18.5 34.5q0 17 12 28.5t40 11.5q26 0 45.5 -17.5t49.5 -63.5z" />
    <glyph glyph-name="aacute" unicode="&#xe1;" horiz-adv-x="545" 
d="M33 118q0 81 75 126.5t240 70.5q-4 53 -11 82t-18 48q-14 24 -35 37.5t-50 13.5q-23 0 -42 -8.5t-26 -23.5q14 -8 20 -23.5t6 -27.5q0 -25 -20.5 -43t-48.5 -18q-29 0 -46 19t-17 50q0 41 29 70t73.5 44t90.5 15q45 0 81.5 -13t59.5 -35q74 -67 74 -221v-135
q0 -49 6.5 -68t28.5 -19h45v-40q-86 -29 -130 -29q-33 0 -43.5 22t-10.5 87h-4q-31 -51 -82 -80t-110 -29q-63 0 -99 34t-36 94zM222 58q24 0 51 14t47 40q12 16 21.5 42.5t9.5 62.5q0 14 -1 29.5t-3 28.5q-73 -15 -115 -32.5t-59 -41.5t-17 -60q0 -43 19.5 -63t46.5 -20z
M212 639l49 76q30 46 49.5 63.5t45.5 17.5q28 0 40 -11.5t12 -28.5q0 -15 -18.5 -34.5t-66.5 -54.5l-38 -28h-73z" />
    <glyph glyph-name="acircumflex" unicode="&#xe2;" horiz-adv-x="545" 
d="M33 118q0 81 75 126.5t240 70.5q-4 53 -11 82t-18 48q-14 24 -35 37.5t-50 13.5q-23 0 -42 -8.5t-26 -23.5q14 -8 20 -23.5t6 -27.5q0 -25 -20.5 -43t-48.5 -18q-29 0 -46 19t-17 50q0 41 29 70t73.5 44t90.5 15q45 0 81.5 -13t59.5 -35q74 -67 74 -221v-135
q0 -49 6.5 -68t28.5 -19h45v-40q-86 -29 -130 -29q-33 0 -43.5 22t-10.5 87h-4q-31 -51 -82 -80t-110 -29q-63 0 -99 34t-36 94zM222 58q24 0 51 14t47 40q12 16 21.5 42.5t9.5 62.5q0 14 -1 29.5t-3 28.5q-73 -15 -115 -32.5t-59 -41.5t-17 -60q0 -43 19.5 -63t46.5 -20z
M405 639l-89 151h-115l-88 -151h73l73 81l73 -81h73z" />
    <glyph glyph-name="atilde" unicode="&#xe3;" horiz-adv-x="545" 
d="M33 118q0 81 75 126.5t240 70.5q-4 53 -11 82t-18 48q-14 24 -35 37.5t-50 13.5q-23 0 -42 -8.5t-26 -23.5q14 -8 20 -23.5t6 -27.5q0 -25 -20.5 -43t-48.5 -18q-29 0 -46 19t-17 50q0 41 29 70t73.5 44t90.5 15q45 0 81.5 -13t59.5 -35q74 -67 74 -221v-135
q0 -49 6.5 -68t28.5 -19h45v-40q-86 -29 -130 -29q-33 0 -43.5 22t-10.5 87h-4q-31 -51 -82 -80t-110 -29q-63 0 -99 34t-36 94zM222 58q24 0 51 14t47 40q12 16 21.5 42.5t9.5 62.5q0 14 -1 29.5t-3 28.5q-73 -15 -115 -32.5t-59 -41.5t-17 -60q0 -43 19.5 -63t46.5 -20z
M55 629q4 68 36.5 101.5t85.5 33.5q26 0 44.5 -8.5t34.5 -19t32 -19t35 -8.5q30 0 45 13t20 37h55q-20 -141 -122 -141q-25 0 -44 8.5t-35 19.5t-31.5 19.5t-35.5 8.5q-30 0 -45 -12t-20 -33h-55z" />
    <glyph glyph-name="adieresis" unicode="&#xe4;" horiz-adv-x="545" 
d="M33 118q0 81 75 126.5t240 70.5q-4 53 -11 82t-18 48q-14 24 -35 37.5t-50 13.5q-23 0 -42 -8.5t-26 -23.5q14 -8 20 -23.5t6 -27.5q0 -25 -20.5 -43t-48.5 -18q-29 0 -46 19t-17 50q0 41 29 70t73.5 44t90.5 15q45 0 81.5 -13t59.5 -35q74 -67 74 -221v-135
q0 -49 6.5 -68t28.5 -19h45v-40q-86 -29 -130 -29q-33 0 -43.5 22t-10.5 87h-4q-31 -51 -82 -80t-110 -29q-63 0 -99 34t-36 94zM222 58q24 0 51 14t47 40q12 16 21.5 42.5t9.5 62.5q0 14 -1 29.5t-3 28.5q-73 -15 -115 -32.5t-59 -41.5t-17 -60q0 -43 19.5 -63t46.5 -20z
M86 695q0 33 18 51t50 18t50.5 -18.5t18.5 -50.5t-18 -50t-51 -18q-32 0 -50 18t-18 50zM316 695q0 33 18 51t50 18t50.5 -18.5t18.5 -50.5t-18 -50t-51 -18q-32 0 -50 18t-18 50z" />
    <glyph glyph-name="aring" unicode="&#xe5;" horiz-adv-x="545" 
d="M33 118q0 81 75 126.5t240 70.5q-4 53 -11 82t-18 48q-14 24 -35 37.5t-50 13.5q-23 0 -42 -8.5t-26 -23.5q14 -8 20 -23.5t6 -27.5q0 -25 -20.5 -43t-48.5 -18q-29 0 -46 19t-17 50q0 41 29 70t73.5 44t90.5 15q45 0 81.5 -13t59.5 -35q74 -67 74 -221v-135
q0 -49 6.5 -68t28.5 -19h45v-40q-86 -29 -130 -29q-33 0 -43.5 22t-10.5 87h-4q-31 -51 -82 -80t-110 -29q-63 0 -99 34t-36 94zM222 58q24 0 51 14t47 40q12 16 21.5 42.5t9.5 62.5q0 14 -1 29.5t-3 28.5q-73 -15 -115 -32.5t-59 -41.5t-17 -60q0 -43 19.5 -63t46.5 -20z
M176 713q0 41 27 68.5t67 27.5q41 0 68.5 -27.5t27.5 -68.5q0 -40 -27.5 -67t-68.5 -27q-40 0 -67 27t-27 67zM237 713q0 -14 9.5 -23.5t23.5 -9.5q15 0 25 9.5t10 23.5q0 15 -10 25t-25 10q-14 0 -23.5 -10t-9.5 -25z" />
    <glyph glyph-name="ae" unicode="&#xe6;" horiz-adv-x="845" 
d="M33 117q0 78 73 125.5t242 72.5q-4 55 -11 83t-18 47q-14 26 -37 38.5t-52 12.5q-20 0 -39.5 -10t-25.5 -27q14 -10 20.5 -25t6.5 -29q0 -24 -17.5 -40t-47.5 -16t-48.5 18.5t-18.5 52.5q0 42 29.5 71t74 44t89.5 15q56 0 99.5 -25.5t57.5 -77.5h5q20 51 64.5 77
t101.5 26q111 0 168.5 -63.5t57.5 -175.5q0 -10 -0.5 -21t-2.5 -31h-349q0 -37 5 -65t15 -51q17 -41 48.5 -58.5t68.5 -17.5q47 0 86 19.5t70 53.5l51 -37q-26 -32 -57 -57.5t-72.5 -40.5t-99.5 -15q-67 0 -115.5 27.5t-77.5 81.5h-7q-31 -51 -80.5 -80t-121.5 -29
q-63 0 -99 34t-36 93zM568 486q-50 0 -78 -41.5t-34 -126.5h230v28q0 67 -30.5 103.5t-87.5 36.5zM230 58q23 0 48 15t44 40q14 19 21.5 43.5t7.5 58.5q0 17 -1 31t-3 29q-73 -16 -114.5 -33.5t-59 -41.5t-17.5 -62t19.5 -59t54.5 -21z" />
    <glyph glyph-name="ccedilla" unicode="&#xe7;" horiz-adv-x="543" 
d="M301 550q60 0 106.5 -19.5t72.5 -54.5t26 -82q0 -42 -21 -64.5t-55 -22.5q-35 0 -51 21.5t-16 46.5t13 43.5t37 25.5q-14 22 -42 33.5t-65 11.5q-69 0 -105 -48.5t-36 -165.5q0 -52 7 -84.5t19 -56.5q17 -32 45 -49.5t69 -17.5q42 0 86.5 19.5t74.5 59.5l46 -36
q-44 -63 -102.5 -91.5t-128.5 -28.5q-73 0 -124.5 28.5t-80.5 83.5q-36 67 -36 163q0 87 31.5 151t90 99t139.5 35zM255 -210q-53 0 -91 28l30 40q29 -20 59 -20q20 0 31.5 8t11.5 22q0 13 -13 20.5t-35 7.5q-11 0 -23 -1.5t-21 -4.5l-16 27l77 100h64l-43 -72l1 -3
q56 0 78.5 -18t22.5 -50q0 -40 -39 -62t-94 -22z" />
    <glyph glyph-name="egrave" unicode="&#xe8;" horiz-adv-x="552" 
d="M511 259h-349q0 -70 20 -116q17 -38 47.5 -57t71.5 -19q45 0 87 20t73 58l47 -36q-35 -50 -91.5 -84.5t-140.5 -34.5q-72 0 -125 29.5t-81 86.5q-15 31 -22 69t-7 82q0 140 64.5 216.5t180.5 76.5q106 0 167 -63.5t61 -175.5q0 -11 -0.5 -20.5t-2.5 -31.5zM282 486
q-108 0 -119 -168h230v28q0 67 -29 103.5t-82 36.5zM295 715l49 -76h-73l-38 28q-48 35 -66.5 54.5t-18.5 34.5q0 17 12 28.5t40 11.5q26 0 45.5 -17.5t49.5 -63.5z" />
    <glyph glyph-name="eacute" unicode="&#xe9;" horiz-adv-x="552" 
d="M511 259h-349q0 -70 20 -116q17 -38 47.5 -57t71.5 -19q45 0 87 20t73 58l47 -36q-35 -50 -91.5 -84.5t-140.5 -34.5q-72 0 -125 29.5t-81 86.5q-15 31 -22 69t-7 82q0 140 64.5 216.5t180.5 76.5q106 0 167 -63.5t61 -175.5q0 -11 -0.5 -20.5t-2.5 -31.5zM282 486
q-108 0 -119 -168h230v28q0 67 -29 103.5t-82 36.5zM242 639l49 76q30 46 49.5 63.5t45.5 17.5q28 0 40 -11.5t12 -28.5q0 -15 -18.5 -34.5t-66.5 -54.5l-38 -28h-73z" />
    <glyph glyph-name="ecircumflex" unicode="&#xea;" horiz-adv-x="552" 
d="M511 259h-349q0 -70 20 -116q17 -38 47.5 -57t71.5 -19q45 0 87 20t73 58l47 -36q-35 -50 -91.5 -84.5t-140.5 -34.5q-72 0 -125 29.5t-81 86.5q-15 31 -22 69t-7 82q0 140 64.5 216.5t180.5 76.5q106 0 167 -63.5t61 -175.5q0 -11 -0.5 -20.5t-2.5 -31.5zM282 486
q-108 0 -119 -168h230v28q0 67 -29 103.5t-82 36.5zM434 639l-89 151h-115l-88 -151h73l73 81l73 -81h73z" />
    <glyph glyph-name="edieresis" unicode="&#xeb;" horiz-adv-x="552" 
d="M511 259h-349q0 -70 20 -116q17 -38 47.5 -57t71.5 -19q45 0 87 20t73 58l47 -36q-35 -50 -91.5 -84.5t-140.5 -34.5q-72 0 -125 29.5t-81 86.5q-15 31 -22 69t-7 82q0 140 64.5 216.5t180.5 76.5q106 0 167 -63.5t61 -175.5q0 -11 -0.5 -20.5t-2.5 -31.5zM282 486
q-108 0 -119 -168h230v28q0 67 -29 103.5t-82 36.5zM98 695q0 33 18 51t50 18t50.5 -18.5t18.5 -50.5t-18 -50t-51 -18q-32 0 -50 18t-18 50zM328 695q0 33 18 51t50 18t50.5 -18.5t18.5 -50.5t-18 -50t-51 -18q-32 0 -50 18t-18 50z" />
    <glyph glyph-name="igrave" unicode="&#xec;" horiz-adv-x="325" 
d="M110 470l-77 19v51h194v-470l77 -19v-51h-271v51l77 19v400zM157 715l49 -76h-73l-38 28q-48 35 -66.5 54.5t-18.5 34.5q0 17 12 28.5t40 11.5q26 0 45.5 -17.5t49.5 -63.5z" />
    <glyph glyph-name="iacute" unicode="&#xed;" horiz-adv-x="325" 
d="M110 470l-77 19v51h194v-470l77 -19v-51h-271v51l77 19v400zM131 639l49 76q30 46 49.5 63.5t45.5 17.5q28 0 40 -11.5t12 -28.5q0 -15 -18.5 -34.5t-66.5 -54.5l-38 -28h-73z" />
    <glyph glyph-name="icircumflex" unicode="&#xee;" horiz-adv-x="325" 
d="M110 470l-77 19v51h194v-470l77 -19v-51h-271v51l77 19v400zM314 639l-89 151h-115l-88 -151h73l73 81l73 -81h73z" />
    <glyph glyph-name="idieresis" unicode="&#xef;" horiz-adv-x="325" 
d="M110 470l-77 19v51h194v-470l77 -19v-51h-271v51l77 19v400zM-15 695q0 33 18 51t50 18t50.5 -18.5t18.5 -50.5t-18 -50t-51 -18q-32 0 -50 18t-18 50zM215 695q0 33 18 51t50 18t50.5 -18.5t18.5 -50.5t-18 -50t-51 -18q-32 0 -50 18t-18 50z" />
    <glyph glyph-name="eth" unicode="&#xf0;" horiz-adv-x="578" 
d="M154 210q0 76 32 114.5t88 38.5q64 0 95 -38.5t31 -114.5q0 -77 -30.5 -116t-95.5 -39q-56 0 -88 39t-32 116zM421 351h-4q-28 37 -75 58t-102 21q-63 0 -111 -27.5t-75 -76.5t-27 -115q0 -101 63.5 -161t172.5 -60q132 0 202.5 79t70.5 225q0 60 -14 114.5t-43.5 108.5
t-76.5 111l73 32l-30 58l-89 -39q-17 18 -28 28t-18 16.5t-16 12.5l-69 -25q18 -16 32.5 -31.5t27.5 -32.5l-118 -52l27 -60l133 58q40 -47 65 -110.5t29 -131.5z" />
    <glyph glyph-name="ntilde" unicode="&#xf1;" horiz-adv-x="668" 
d="M110 70v400l-77 19v51h164l22 -100h4q30 51 81 80.5t109 29.5q83 0 123 -54q20 -28 28.5 -78.5t8.5 -136.5v-211l77 -19v-51h-261v51l67 19v203q0 62 -3.5 95t-12.5 52q-12 25 -32 36t-48 11q-52 0 -88 -34q-41 -37 -45 -116v-247l67 -19v-51h-261v51zM160 629
q4 68 36.5 101.5t85.5 33.5q26 0 44.5 -8.5t34.5 -19t32 -19t35 -8.5q30 0 45 13t20 37h55q-20 -141 -122 -141q-25 0 -44 8.5t-35 19.5t-31.5 19.5t-35.5 8.5q-30 0 -45 -12t-20 -33h-55z" />
    <glyph glyph-name="ograve" unicode="&#xf2;" horiz-adv-x="590" 
d="M550 272q0 -65 -19 -122t-54 -95q-32 -34 -77.5 -49.5t-105.5 -15.5t-105 15t-77 49q-35 38 -53.5 94t-18.5 120t18.5 122t54.5 95q32 35 77.5 50t104.5 15q60 0 105.5 -15t77.5 -49q35 -37 53.5 -93.5t18.5 -120.5zM188 156q10 -34 28 -55.5t45 -30.5t50 -7t45 16
q44 32 55 131q6 50 3.5 94t-12.5 80q-9 34 -27.5 55.5t-45.5 30.5t-50 7t-45 -16q-45 -32 -55 -130q-12 -102 9 -175zM284 715l49 -76h-73l-38 28q-48 35 -66.5 54.5t-18.5 34.5q0 17 12 28.5t40 11.5q26 0 45.5 -17.5t49.5 -63.5z" />
    <glyph glyph-name="oacute" unicode="&#xf3;" horiz-adv-x="590" 
d="M550 272q0 -65 -19 -122t-54 -95q-32 -34 -77.5 -49.5t-105.5 -15.5t-105 15t-77 49q-35 38 -53.5 94t-18.5 120t18.5 122t54.5 95q32 35 77.5 50t104.5 15q60 0 105.5 -15t77.5 -49q35 -37 53.5 -93.5t18.5 -120.5zM188 156q10 -34 28 -55.5t45 -30.5t50 -7t45 16
q44 32 55 131q6 50 3.5 94t-12.5 80q-9 34 -27.5 55.5t-45.5 30.5t-50 7t-45 -16q-45 -32 -55 -130q-12 -102 9 -175zM258 639l49 76q30 46 49.5 63.5t45.5 17.5q28 0 40 -11.5t12 -28.5q0 -15 -18.5 -34.5t-66.5 -54.5l-38 -28h-73z" />
    <glyph glyph-name="ocircumflex" unicode="&#xf4;" horiz-adv-x="590" 
d="M550 272q0 -65 -19 -122t-54 -95q-32 -34 -77.5 -49.5t-105.5 -15.5t-105 15t-77 49q-35 38 -53.5 94t-18.5 120t18.5 122t54.5 95q32 35 77.5 50t104.5 15q60 0 105.5 -15t77.5 -49q35 -37 53.5 -93.5t18.5 -120.5zM188 156q10 -34 28 -55.5t45 -30.5t50 -7t45 16
q44 32 55 131q6 50 3.5 94t-12.5 80q-9 34 -27.5 55.5t-45.5 30.5t-50 7t-45 -16q-45 -32 -55 -130q-12 -102 9 -175zM441 639l-89 151h-115l-88 -151h73l73 81l73 -81h73z" />
    <glyph glyph-name="otilde" unicode="&#xf5;" horiz-adv-x="590" 
d="M550 272q0 -65 -19 -122t-54 -95q-32 -34 -77.5 -49.5t-105.5 -15.5t-105 15t-77 49q-35 38 -53.5 94t-18.5 120t18.5 122t54.5 95q32 35 77.5 50t104.5 15q60 0 105.5 -15t77.5 -49q35 -37 53.5 -93.5t18.5 -120.5zM188 156q10 -34 28 -55.5t45 -30.5t50 -7t45 16
q44 32 55 131q6 50 3.5 94t-12.5 80q-9 34 -27.5 55.5t-45.5 30.5t-50 7t-45 -16q-45 -32 -55 -130q-12 -102 9 -175zM101 629q4 68 36.5 101.5t85.5 33.5q26 0 44.5 -8.5t34.5 -19t32 -19t35 -8.5q30 0 45 13t20 37h55q-20 -141 -122 -141q-25 0 -44 8.5t-35 19.5
t-31.5 19.5t-35.5 8.5q-30 0 -45 -12t-20 -33h-55z" />
    <glyph glyph-name="odieresis" unicode="&#xf6;" horiz-adv-x="590" 
d="M550 272q0 -65 -19 -122t-54 -95q-32 -34 -77.5 -49.5t-105.5 -15.5t-105 15t-77 49q-35 38 -53.5 94t-18.5 120t18.5 122t54.5 95q32 35 77.5 50t104.5 15q60 0 105.5 -15t77.5 -49q35 -37 53.5 -93.5t18.5 -120.5zM188 156q10 -34 28 -55.5t45 -30.5t50 -7t45 16
q44 32 55 131q6 50 3.5 94t-12.5 80q-9 34 -27.5 55.5t-45.5 30.5t-50 7t-45 -16q-45 -32 -55 -130q-12 -102 9 -175zM112 695q0 33 18 51t50 18t50.5 -18.5t18.5 -50.5t-18 -50t-51 -18q-32 0 -50 18t-18 50zM342 695q0 33 18 51t50 18t50.5 -18.5t18.5 -50.5t-18 -50
t-51 -18q-32 0 -50 18t-18 50z" />
    <glyph glyph-name="divide" unicode="&#xf7;" horiz-adv-x="528" 
d="M46 320v64h438v-64h-438zM199 174q0 33 18.5 52t50.5 19t51 -19t19 -52q0 -32 -19 -50.5t-51 -18.5q-69 0 -69 69zM199 528q0 33 18.5 52t50.5 19t51 -19t19 -52q0 -32 -19 -50.5t-51 -18.5q-69 0 -69 69z" />
    <glyph glyph-name="oslash" unicode="&#xf8;" horiz-adv-x="590" 
d="M90 -60l334 642h84l-334 -642h-84zM550 272q0 -65 -19 -122t-54 -95q-32 -34 -77.5 -49.5t-105.5 -15.5t-105 15t-77 49q-35 38 -53.5 94t-18.5 120t18.5 122t54.5 95q32 35 77.5 50t104.5 15q60 0 105.5 -15t77.5 -49q35 -37 53.5 -93.5t18.5 -120.5zM188 156
q10 -34 28 -55.5t45 -30.5t50 -7t45 16q44 32 55 131q6 50 3.5 94t-12.5 80q-9 34 -27.5 55.5t-45.5 30.5t-50 7t-45 -16q-45 -32 -55 -130q-12 -102 9 -175z" />
    <glyph glyph-name="ugrave" unicode="&#xf9;" horiz-adv-x="646" 
d="M210 540v-273q0 -64 3 -96t10 -51q9 -24 28.5 -36.5t42.5 -12.5q27 0 50 10t42 27q41 37 45 115v247l-87 19v51h204v-470l77 -19v-51l-175 -10l-11 110h-4q-29 -51 -79 -80.5t-107 -29.5q-38 0 -69.5 14.5t-49.5 39.5q-19 28 -28 79t-9 136v211l-67 19v51h184zM307 715
l49 -76h-73l-38 28q-48 35 -66.5 54.5t-18.5 34.5q0 17 12 28.5t40 11.5q26 0 45.5 -17.5t49.5 -63.5z" />
    <glyph glyph-name="uacute" unicode="&#xfa;" horiz-adv-x="646" 
d="M210 540v-273q0 -64 3 -96t10 -51q9 -24 28.5 -36.5t42.5 -12.5q27 0 50 10t42 27q41 37 45 115v247l-87 19v51h204v-470l77 -19v-51l-175 -10l-11 110h-4q-29 -51 -79 -80.5t-107 -29.5q-38 0 -69.5 14.5t-49.5 39.5q-19 28 -28 79t-9 136v211l-67 19v51h184zM281 639
l49 76q30 46 49.5 63.5t45.5 17.5q28 0 40 -11.5t12 -28.5q0 -15 -18.5 -34.5t-66.5 -54.5l-38 -28h-73z" />
    <glyph glyph-name="ucircumflex" unicode="&#xfb;" horiz-adv-x="646" 
d="M210 540v-273q0 -64 3 -96t10 -51q9 -24 28.5 -36.5t42.5 -12.5q27 0 50 10t42 27q41 37 45 115v247l-87 19v51h204v-470l77 -19v-51l-175 -10l-11 110h-4q-29 -51 -79 -80.5t-107 -29.5q-38 0 -69.5 14.5t-49.5 39.5q-19 28 -28 79t-9 136v211l-67 19v51h184zM464 639
l-89 151h-115l-88 -151h73l73 81l73 -81h73z" />
    <glyph glyph-name="udieresis" unicode="&#xfc;" horiz-adv-x="646" 
d="M210 540v-273q0 -64 3 -96t10 -51q9 -24 28.5 -36.5t42.5 -12.5q27 0 50 10t42 27q41 37 45 115v247l-87 19v51h204v-470l77 -19v-51l-175 -10l-11 110h-4q-29 -51 -79 -80.5t-107 -29.5q-38 0 -69.5 14.5t-49.5 39.5q-19 28 -28 79t-9 136v211l-67 19v51h184zM135 695
q0 33 18 51t50 18t50.5 -18.5t18.5 -50.5t-18 -50t-51 -18q-32 0 -50 18t-18 50zM365 695q0 33 18 51t50 18t50.5 -18.5t18.5 -50.5t-18 -50t-51 -18q-32 0 -50 18t-18 50z" />
    <glyph glyph-name="yacute" unicode="&#xfd;" horiz-adv-x="597" 
d="M524 470l-163 -446q-31 -77 -56.5 -124.5t-56.5 -68.5t-81 -21q-47 0 -80.5 25t-33.5 63q0 33 19 54t50 21q27 0 42 -13t15 -37q0 -12 -9 -28t-29 -19q2 -10 12 -13.5t17 -3.5q14 0 26 6t25.5 27t29.5 64l12 37l-203 477l-60 19v51h244l8 -51l-71 -19l132 -362h4l116 362
l-58 19v51h210v-51zM251 639l49 76q30 46 49.5 63.5t45.5 17.5q28 0 40 -11.5t12 -28.5q0 -15 -18.5 -34.5t-66.5 -54.5l-38 -28h-73z" />
    <glyph glyph-name="thorn" unicode="&#xfe;" horiz-adv-x="609" 
d="M569 275q0 -65 -19 -118.5t-52 -91.5q-56 -65 -161 -65q-93 0 -142 75v-185l97 -19v-51h-291v51l77 19v820l-77 19v51h194v-298q54 68 150 68q109 0 160 -63q31 -38 47.5 -91t16.5 -121zM195 274q0 -55 8.5 -93t26.5 -66q17 -28 40 -40.5t50 -12.5q30 0 53 12.5t38 34.5
q14 22 23.5 63t9.5 95q0 57 -9 98.5t-25 69.5q-16 27 -39 40t-52 13q-63 0 -89 -46q-35 -56 -35 -168z" />
    <glyph glyph-name="ydieresis" unicode="&#xff;" horiz-adv-x="597" 
d="M524 470l-163 -446q-31 -77 -56.5 -124.5t-56.5 -68.5t-81 -21q-47 0 -80.5 25t-33.5 63q0 33 19 54t50 21q27 0 42 -13t15 -37q0 -12 -9 -28t-29 -19q2 -10 12 -13.5t17 -3.5q14 0 26 6t25.5 27t29.5 64l12 37l-203 477l-60 19v51h244l8 -51l-71 -19l132 -362h4l116 362
l-58 19v51h210v-51zM133 695q0 33 18 51t50 18t50.5 -18.5t18.5 -50.5t-18 -50t-51 -18q-32 0 -50 18t-18 50zM363 695q0 33 18 51t50 18t50.5 -18.5t18.5 -50.5t-18 -50t-51 -18q-32 0 -50 18t-18 50z" />
    <glyph glyph-name="Amacron" unicode="&#x100;" horiz-adv-x="726" 
d="M521 74l-54 163h-252l-55 -163l83 -21v-53h-254v53l82 21l236 656h113l234 -656l80 -21v-53h-295v53zM343 612l-105 -307h207l-98 307h-4zM221 776v85h279v-85h-279z" />
    <glyph glyph-name="amacron" unicode="&#x101;" horiz-adv-x="545" 
d="M33 118q0 81 75 126.5t240 70.5q-4 53 -11 82t-18 48q-14 24 -35 37.5t-50 13.5q-23 0 -42 -8.5t-26 -23.5q14 -8 20 -23.5t6 -27.5q0 -25 -20.5 -43t-48.5 -18q-29 0 -46 19t-17 50q0 41 29 70t73.5 44t90.5 15q45 0 81.5 -13t59.5 -35q74 -67 74 -221v-135
q0 -49 6.5 -68t28.5 -19h45v-40q-86 -29 -130 -29q-33 0 -43.5 22t-10.5 87h-4q-31 -51 -82 -80t-110 -29q-63 0 -99 34t-36 94zM222 58q24 0 51 14t47 40q12 16 21.5 42.5t9.5 62.5q0 14 -1 29.5t-3 28.5q-73 -15 -115 -32.5t-59 -41.5t-17 -60q0 -43 19.5 -63t46.5 -20z
M128 645v85h279v-85h-279z" />
    <glyph glyph-name="Abreve" unicode="&#x102;" horiz-adv-x="726" 
d="M521 74l-54 163h-252l-55 -163l83 -21v-53h-254v53l82 21l236 656h113l234 -656l80 -21v-53h-295v53zM343 612l-105 -307h207l-98 307h-4zM521 928h-58q-1 -41 -30.5 -60t-68.5 -19t-68 18.5t-31 60.5h-58q0 -75 42.5 -121.5t114.5 -46.5q73 0 115 46.5t42 121.5z" />
    <glyph glyph-name="abreve" unicode="&#x103;" horiz-adv-x="545" 
d="M33 118q0 81 75 126.5t240 70.5q-4 53 -11 82t-18 48q-14 24 -35 37.5t-50 13.5q-23 0 -42 -8.5t-26 -23.5q14 -8 20 -23.5t6 -27.5q0 -25 -20.5 -43t-48.5 -18q-29 0 -46 19t-17 50q0 41 29 70t73.5 44t90.5 15q45 0 81.5 -13t59.5 -35q74 -67 74 -221v-135
q0 -49 6.5 -68t28.5 -19h45v-40q-86 -29 -130 -29q-33 0 -43.5 22t-10.5 87h-4q-31 -51 -82 -80t-110 -29q-63 0 -99 34t-36 94zM222 58q24 0 51 14t47 40q12 16 21.5 42.5t9.5 62.5q0 14 -1 29.5t-3 28.5q-73 -15 -115 -32.5t-59 -41.5t-17 -60q0 -43 19.5 -63t46.5 -20z
M412 780h-58q0 -43 -27.5 -62.5t-77.5 -19.5q-39 0 -65 19.5t-28 62.5h-58q0 -76 39.5 -123.5t111.5 -47.5q70 0 115.5 45.5t47.5 125.5z" />
    <glyph glyph-name="Aogonek" unicode="&#x104;" horiz-adv-x="726" 
d="M521 74l-54 163h-252l-55 -163l83 -21v-53h-254v53l82 21l236 656h113l234 -656l80 -21v-53h-295v53zM343 612l-105 -307h207l-98 307h-4zM577 -210q-51 0 -79 23.5t-28 61.5q0 75 114 139h61q-19 -12 -38 -31.5t-32 -41t-13 -41.5t13.5 -31t36.5 -11q17 0 33.5 4.5
t28.5 14.5l21 -31q-17 -26 -44.5 -41t-73.5 -15z" />
    <glyph glyph-name="aogonek" unicode="&#x105;" horiz-adv-x="545" 
d="M33 118q0 81 75 126.5t240 70.5q-4 53 -11 82t-18 48q-14 24 -35 37.5t-50 13.5q-23 0 -42 -8.5t-26 -23.5q14 -8 20 -23.5t6 -27.5q0 -25 -20.5 -43t-48.5 -18q-29 0 -46 19t-17 50q0 41 29 70t73.5 44t90.5 15q45 0 81.5 -13t59.5 -35q74 -67 74 -221v-135
q0 -49 6.5 -68t28.5 -19h45v-40q-86 -29 -130 -29q-33 0 -43.5 22t-10.5 87h-4q-31 -51 -82 -80t-110 -29q-63 0 -99 34t-36 94zM222 58q24 0 51 14t47 40q12 16 21.5 42.5t9.5 62.5q0 14 -1 29.5t-3 28.5q-73 -15 -115 -32.5t-59 -41.5t-17 -60q0 -43 19.5 -63t46.5 -20z
M406 -210q-51 0 -79 23.5t-28 61.5q0 75 114 139h61q-19 -12 -38 -31.5t-32 -41t-13 -41.5t13.5 -31t36.5 -11q17 0 33.5 4.5t28.5 14.5l21 -31q-17 -26 -44.5 -41t-73.5 -15z" />
    <glyph glyph-name="Cacute" unicode="&#x106;" horiz-adv-x="693" 
d="M375 666q-42 0 -76.5 -15.5t-56.5 -46.5q-28 -39 -46 -99t-18 -133q0 -71 15 -133t42 -104q24 -37 62 -54t88 -17q172 0 201 169h75q-47 -243 -294 -243q-138 0 -220 80q-49 48 -75 121t-26 162q0 101 33 183t93 131q76 63 201 63q62 0 101 -16t77 -57l20 63h75v-231h-81
q-14 88 -63 132.5t-127 44.5zM348 763l60 77q20 24 34 36.5t27 17t30 4.5q21 0 32 -10.5t11 -25.5q0 -12 -6.5 -21.5t-22.5 -20t-45 -28.5l-47 -29h-73z" />
    <glyph glyph-name="cacute" unicode="&#x107;" horiz-adv-x="543" 
d="M301 550q60 0 106.5 -19.5t72.5 -54.5t26 -82q0 -42 -21 -64.5t-55 -22.5q-35 0 -51 21.5t-16 46.5t13 43.5t37 25.5q-14 22 -42 33.5t-65 11.5q-69 0 -105 -48.5t-36 -165.5q0 -52 7 -84.5t19 -56.5q17 -32 45 -49.5t69 -17.5q42 0 86.5 19.5t74.5 59.5l46 -36
q-44 -63 -102.5 -91.5t-128.5 -28.5q-73 0 -124.5 28.5t-80.5 83.5q-36 67 -36 163q0 87 31.5 151t90 99t139.5 35zM269 639l49 76q30 46 49.5 63.5t45.5 17.5q28 0 40 -11.5t12 -28.5q0 -15 -18.5 -34.5t-66.5 -54.5l-38 -28h-73z" />
    <glyph glyph-name="Ccircumflex" unicode="&#x108;" horiz-adv-x="693" 
d="M375 666q-42 0 -76.5 -15.5t-56.5 -46.5q-28 -39 -46 -99t-18 -133q0 -71 15 -133t42 -104q24 -37 62 -54t88 -17q172 0 201 169h75q-47 -243 -294 -243q-138 0 -220 80q-49 48 -75 121t-26 162q0 101 33 183t93 131q76 63 201 63q62 0 101 -16t77 -57l20 63h75v-231h-81
q-14 88 -63 132.5t-127 44.5zM561 769l-119 121h-115l-118 -121h73l103 61l103 -61h73z" />
    <glyph glyph-name="ccircumflex" unicode="&#x109;" horiz-adv-x="543" 
d="M301 550q60 0 106.5 -19.5t72.5 -54.5t26 -82q0 -42 -21 -64.5t-55 -22.5q-35 0 -51 21.5t-16 46.5t13 43.5t37 25.5q-14 22 -42 33.5t-65 11.5q-69 0 -105 -48.5t-36 -165.5q0 -52 7 -84.5t19 -56.5q17 -32 45 -49.5t69 -17.5q42 0 86.5 19.5t74.5 59.5l46 -36
q-44 -63 -102.5 -91.5t-128.5 -28.5q-73 0 -124.5 28.5t-80.5 83.5q-36 67 -36 163q0 87 31.5 151t90 99t139.5 35zM452 639l-89 151h-115l-88 -151h73l73 81l73 -81h73z" />
    <glyph glyph-name="Cdotaccent" unicode="&#x10a;" horiz-adv-x="693" 
d="M375 666q-42 0 -76.5 -15.5t-56.5 -46.5q-28 -39 -46 -99t-18 -133q0 -71 15 -133t42 -104q24 -37 62 -54t88 -17q172 0 201 169h75q-47 -243 -294 -243q-138 0 -220 80q-49 48 -75 121t-26 162q0 101 33 183t93 131q76 63 201 63q62 0 101 -16t77 -57l20 63h75v-231h-81
q-14 88 -63 132.5t-127 44.5zM313 835q0 34 19.5 53.5t52.5 19.5t53 -20t20 -53q0 -32 -19.5 -52t-53.5 -20t-53 19.5t-19 52.5z" />
    <glyph glyph-name="cdotaccent" unicode="&#x10b;" horiz-adv-x="543" 
d="M301 550q60 0 106.5 -19.5t72.5 -54.5t26 -82q0 -42 -21 -64.5t-55 -22.5q-35 0 -51 21.5t-16 46.5t13 43.5t37 25.5q-14 22 -42 33.5t-65 11.5q-69 0 -105 -48.5t-36 -165.5q0 -52 7 -84.5t19 -56.5q17 -32 45 -49.5t69 -17.5q42 0 86.5 19.5t74.5 59.5l46 -36
q-44 -63 -102.5 -91.5t-128.5 -28.5q-73 0 -124.5 28.5t-80.5 83.5q-36 67 -36 163q0 87 31.5 151t90 99t139.5 35zM234 691q0 34 19.5 53.5t52.5 19.5t53 -20t20 -53t-19.5 -52.5t-53.5 -19.5t-53 19t-19 53z" />
    <glyph glyph-name="Ccaron" unicode="&#x10c;" horiz-adv-x="693" 
d="M375 666q-42 0 -76.5 -15.5t-56.5 -46.5q-28 -39 -46 -99t-18 -133q0 -71 15 -133t42 -104q24 -37 62 -54t88 -17q172 0 201 169h75q-47 -243 -294 -243q-138 0 -220 80q-49 48 -75 121t-26 162q0 101 33 183t93 131q76 63 201 63q62 0 101 -16t77 -57l20 63h75v-231h-81
q-14 88 -63 132.5t-127 44.5zM442 769l119 121h-73l-103 -61l-103 61h-73l118 -121h115z" />
    <glyph glyph-name="ccaron" unicode="&#x10d;" horiz-adv-x="543" 
d="M301 550q60 0 106.5 -19.5t72.5 -54.5t26 -82q0 -42 -21 -64.5t-55 -22.5q-35 0 -51 21.5t-16 46.5t13 43.5t37 25.5q-14 22 -42 33.5t-65 11.5q-69 0 -105 -48.5t-36 -165.5q0 -52 7 -84.5t19 -56.5q17 -32 45 -49.5t69 -17.5q42 0 86.5 19.5t74.5 59.5l46 -36
q-44 -63 -102.5 -91.5t-128.5 -28.5q-73 0 -124.5 28.5t-80.5 83.5q-36 67 -36 163q0 87 31.5 151t90 99t139.5 35zM365 632l87 148h-73l-73 -81l-72 81h-74l86 -148h119z" />
    <glyph glyph-name="Dcaron" unicode="&#x10e;" horiz-adv-x="775" 
d="M247 70h135q54 0 92.5 16.5t63.5 49.5q28 34 41.5 88.5t13.5 129.5q0 147 -55 222q-26 37 -67 55.5t-99 18.5h-125v-580zM43 720h356q149 0 232 -84q47 -48 72 -118t25 -150q0 -84 -26.5 -157.5t-73.5 -123.5q-83 -87 -238 -87h-347v53l84 21v572l-84 21v53zM424 769
l119 121h-73l-103 -61l-103 61h-73l118 -121h115z" />
    <glyph glyph-name="dcaron" unicode="&#x10f;" horiz-adv-x="631" 
d="M41 268q0 65 18 123t50 94q29 32 69 48.5t90 16.5q46 0 82.5 -17t65.5 -61v238l-77 19v51h194v-710l77 -19v-51l-175 -10l-8 82q-31 -46 -70 -64t-90 -18q-54 0 -92.5 16t-64.5 47q-32 36 -50.5 92t-18.5 123zM416 266q0 59 -10 102.5t-25 67.5q-15 25 -37.5 38t-56.5 13
q-28 0 -53 -10.5t-40 -35.5q-14 -24 -21 -67.5t-7 -97.5q0 -58 8 -101.5t22 -68.5q15 -25 39 -39.5t55 -14.5q27 0 51.5 11t39.5 35q17 27 26 70t9 98zM668 595h-60q0 33 -4.5 57t-9.5 44t-5 41q0 17 9.5 35t40.5 18q29 0 39 -17.5t10 -35.5q0 -21 -5 -41t-10 -44t-5 -57z
" />
    <glyph glyph-name="Dcroat" unicode="&#x110;" horiz-adv-x="780" 
d="M58 327v75h329v-75h-329zM252 70h135q54 0 92.5 16.5t63.5 49.5q28 34 41.5 88.5t13.5 129.5q0 147 -55 222q-26 37 -67 55.5t-99 18.5h-125v-580zM48 720h356q149 0 232 -84q47 -48 72 -118t25 -150q0 -84 -26.5 -157.5t-73.5 -123.5q-83 -87 -238 -87h-347v53l84 21
v572l-84 21v53z" />
    <glyph glyph-name="dcroat" unicode="&#x111;" horiz-adv-x="631" 
d="M319 604v71h281v-71h-281zM41 268q0 65 18 123t50 94q29 32 69 48.5t90 16.5q46 0 82.5 -17t65.5 -61v238l-77 19v51h194v-710l77 -19v-51l-175 -10l-8 82q-31 -46 -70 -64t-90 -18q-54 0 -92.5 16t-64.5 47q-32 36 -50.5 92t-18.5 123zM416 266q0 59 -10 102.5t-25 67.5
q-15 25 -37.5 38t-56.5 13q-28 0 -53 -10.5t-40 -35.5q-14 -24 -21 -67.5t-7 -97.5q0 -58 8 -101.5t22 -68.5q15 -25 39 -39.5t55 -14.5q27 0 51.5 11t39.5 35q17 27 26 70t9 98z" />
    <glyph glyph-name="Emacron" unicode="&#x112;" horiz-adv-x="694" 
d="M487 238h-71l-17 97h-147v-265h284l29 153h78v-223h-605v53l94 21v572l-94 21v53h583v-212h-72l-30 144h-267v-247h147l17 97h71v-264zM215 776v85h279v-85h-279z" />
    <glyph glyph-name="emacron" unicode="&#x113;" horiz-adv-x="552" 
d="M511 259h-349q0 -70 20 -116q17 -38 47.5 -57t71.5 -19q45 0 87 20t73 58l47 -36q-35 -50 -91.5 -84.5t-140.5 -34.5q-72 0 -125 29.5t-81 86.5q-15 31 -22 69t-7 82q0 140 64.5 216.5t180.5 76.5q106 0 167 -63.5t61 -175.5q0 -11 -0.5 -20.5t-2.5 -31.5zM282 486
q-108 0 -119 -168h230v28q0 67 -29 103.5t-82 36.5zM139 645v85h279v-85h-279z" />
    <glyph glyph-name="Ebreve" unicode="&#x114;" horiz-adv-x="694" 
d="M487 238h-71l-17 97h-147v-265h284l29 153h78v-223h-605v53l94 21v572l-94 21v53h583v-212h-72l-30 144h-267v-247h147l17 97h71v-264zM510 928h-58q-1 -41 -30.5 -60t-68.5 -19t-68 18.5t-31 60.5h-58q0 -75 42.5 -121.5t114.5 -46.5q73 0 115 46.5t42 121.5z" />
    <glyph glyph-name="ebreve" unicode="&#x115;" horiz-adv-x="552" 
d="M511 259h-349q0 -70 20 -116q17 -38 47.5 -57t71.5 -19q45 0 87 20t73 58l47 -36q-35 -50 -91.5 -84.5t-140.5 -34.5q-72 0 -125 29.5t-81 86.5q-15 31 -22 69t-7 82q0 140 64.5 216.5t180.5 76.5q106 0 167 -63.5t61 -175.5q0 -11 -0.5 -20.5t-2.5 -31.5zM282 486
q-108 0 -119 -168h230v28q0 67 -29 103.5t-82 36.5zM442 780h-58q0 -43 -27.5 -62.5t-77.5 -19.5q-39 0 -65 19.5t-28 62.5h-58q0 -76 39.5 -123.5t111.5 -47.5q70 0 115.5 45.5t47.5 125.5z" />
    <glyph glyph-name="Edotaccent" unicode="&#x116;" horiz-adv-x="694" 
d="M487 238h-71l-17 97h-147v-265h284l29 153h78v-223h-605v53l94 21v572l-94 21v53h583v-212h-72l-30 144h-267v-247h147l17 97h71v-264zM281 835q0 34 19.5 53.5t52.5 19.5t53 -20t20 -53q0 -32 -19.5 -52t-53.5 -20t-53 19.5t-19 52.5z" />
    <glyph glyph-name="edotaccent" unicode="&#x117;" horiz-adv-x="552" 
d="M511 259h-349q0 -70 20 -116q17 -38 47.5 -57t71.5 -19q45 0 87 20t73 58l47 -36q-35 -50 -91.5 -84.5t-140.5 -34.5q-72 0 -125 29.5t-81 86.5q-15 31 -22 69t-7 82q0 140 64.5 216.5t180.5 76.5q106 0 167 -63.5t61 -175.5q0 -11 -0.5 -20.5t-2.5 -31.5zM282 486
q-108 0 -119 -168h230v28q0 67 -29 103.5t-82 36.5zM207 691q0 34 19.5 53.5t52.5 19.5t53 -20t20 -53t-19.5 -52.5t-53.5 -19.5t-53 19t-19 53z" />
    <glyph glyph-name="Eogonek" unicode="&#x118;" horiz-adv-x="694" 
d="M487 238h-71l-17 97h-147v-265h284l29 153h78v-223h-605v53l94 21v572l-94 21v53h583v-212h-72l-30 144h-267v-247h147l17 97h71v-264zM337 -210q-51 0 -79 23.5t-28 61.5q0 75 114 139h61q-19 -12 -38 -31.5t-32 -41t-13 -41.5t13.5 -31t36.5 -11q17 0 33.5 4.5
t28.5 14.5l21 -31q-17 -26 -44.5 -41t-73.5 -15z" />
    <glyph glyph-name="eogonek" unicode="&#x119;" horiz-adv-x="552" 
d="M511 259h-349q0 -70 20 -116q17 -38 47.5 -57t71.5 -19q45 0 87 20t73 58l47 -36q-35 -50 -91.5 -84.5t-140.5 -34.5q-72 0 -125 29.5t-81 86.5q-15 31 -22 69t-7 82q0 140 64.5 216.5t180.5 76.5q106 0 167 -63.5t61 -175.5q0 -11 -0.5 -20.5t-2.5 -31.5zM282 486
q-108 0 -119 -168h230v28q0 67 -29 103.5t-82 36.5zM255 -210q-51 0 -79 23.5t-28 61.5q0 75 114 139h61q-19 -12 -38 -31.5t-32 -41t-13 -41.5t13.5 -31t36.5 -11q17 0 33.5 4.5t28.5 14.5l21 -31q-17 -26 -44.5 -41t-73.5 -15z" />
    <glyph glyph-name="Ecaron" unicode="&#x11a;" horiz-adv-x="694" 
d="M487 238h-71l-17 97h-147v-265h284l29 153h78v-223h-605v53l94 21v572l-94 21v53h583v-212h-72l-30 144h-267v-247h147l17 97h71v-264zM427 769l119 121h-73l-103 -61l-103 61h-73l118 -121h115z" />
    <glyph glyph-name="ecaron" unicode="&#x11b;" horiz-adv-x="552" 
d="M511 259h-349q0 -70 20 -116q17 -38 47.5 -57t71.5 -19q45 0 87 20t73 58l47 -36q-35 -50 -91.5 -84.5t-140.5 -34.5q-72 0 -125 29.5t-81 86.5q-15 31 -22 69t-7 82q0 140 64.5 216.5t180.5 76.5q106 0 167 -63.5t61 -175.5q0 -11 -0.5 -20.5t-2.5 -31.5zM282 486
q-108 0 -119 -168h230v28q0 67 -29 103.5t-82 36.5zM338 632l87 148h-73l-73 -81l-72 81h-74l86 -148h119z" />
    <glyph glyph-name="Gcircumflex" unicode="&#x11c;" horiz-adv-x="761" 
d="M377 65q85 0 123 42.5t38 125.5v50l-84 21v55h288v-55l-84 -21v-283h-72l-25 79q-43 -48 -89.5 -68.5t-109.5 -20.5q-137 0 -219 84q-46 47 -71.5 119t-25.5 159q0 89 26.5 165.5t74.5 126.5q41 43 96.5 64.5t129.5 21.5q60 0 100.5 -17t77.5 -57l20 64h75v-231h-81
q-13 83 -61 130t-130 47q-46 0 -77.5 -15.5t-54.5 -45.5q-28 -42 -46.5 -104.5t-18.5 -134.5q0 -71 17.5 -135.5t49.5 -108.5q22 -30 56 -43.5t77 -13.5zM553 769l-119 121h-115l-118 -121h73l103 61l103 -61h73z" />
    <glyph glyph-name="gcircumflex" unicode="&#x11d;" horiz-adv-x="570" 
d="M521 -7q0 -87 -65.5 -132t-199.5 -45q-68 0 -120.5 13t-82 40.5t-29.5 72.5q0 46 28.5 73t83.5 31v4q-73 20 -73 77q0 20 10 41t32 37.5t58 23.5q-52 15 -81 54.5t-29 94.5q0 80 54.5 126t152.5 46q61 0 98.5 -11.5t65.5 -34.5l34 12l92 44h17v-98h-17l-70 8h-28
q23 -34 23 -86q0 -81 -52 -128t-148 -47q-10 0 -20 0.5t-20 1.5q-40 -5 -62 -18.5t-22 -36.5q0 -19 18.5 -26.5t69.5 -7.5h116q82 0 124 -31.5t42 -97.5zM291 35h-45q-67 0 -97 -21.5t-30 -56.5q0 -81 147 -81q80 0 121.5 23.5t41.5 69.5q0 36 -31 51t-107 15zM161 382
q0 -57 25.5 -87t74.5 -30q55 0 80.5 30t25.5 87q0 55 -25.5 83.5t-80.5 28.5q-50 0 -75 -28.5t-25 -83.5zM411 639l-89 151h-115l-88 -151h73l73 81l73 -81h73z" />
    <glyph glyph-name="Gbreve" unicode="&#x11e;" horiz-adv-x="761" 
d="M377 65q85 0 123 42.5t38 125.5v50l-84 21v55h288v-55l-84 -21v-283h-72l-25 79q-43 -48 -89.5 -68.5t-109.5 -20.5q-137 0 -219 84q-46 47 -71.5 119t-25.5 159q0 89 26.5 165.5t74.5 126.5q41 43 96.5 64.5t129.5 21.5q60 0 100.5 -17t77.5 -57l20 64h75v-231h-81
q-13 83 -61 130t-130 47q-46 0 -77.5 -15.5t-54.5 -45.5q-28 -42 -46.5 -104.5t-18.5 -134.5q0 -71 17.5 -135.5t49.5 -108.5q22 -30 56 -43.5t77 -13.5zM534 928h-58q-1 -41 -30.5 -60t-68.5 -19t-68 18.5t-31 60.5h-58q0 -75 42.5 -121.5t114.5 -46.5q73 0 115 46.5
t42 121.5z" />
    <glyph glyph-name="gbreve" unicode="&#x11f;" horiz-adv-x="570" 
d="M521 -7q0 -87 -65.5 -132t-199.5 -45q-68 0 -120.5 13t-82 40.5t-29.5 72.5q0 46 28.5 73t83.5 31v4q-73 20 -73 77q0 20 10 41t32 37.5t58 23.5q-52 15 -81 54.5t-29 94.5q0 80 54.5 126t152.5 46q61 0 98.5 -11.5t65.5 -34.5l34 12l92 44h17v-98h-17l-70 8h-28
q23 -34 23 -86q0 -81 -52 -128t-148 -47q-10 0 -20 0.5t-20 1.5q-40 -5 -62 -18.5t-22 -36.5q0 -19 18.5 -26.5t69.5 -7.5h116q82 0 124 -31.5t42 -97.5zM291 35h-45q-67 0 -97 -21.5t-30 -56.5q0 -81 147 -81q80 0 121.5 23.5t41.5 69.5q0 36 -31 51t-107 15zM161 382
q0 -57 25.5 -87t74.5 -30q55 0 80.5 30t25.5 87q0 55 -25.5 83.5t-80.5 28.5q-50 0 -75 -28.5t-25 -83.5zM428 780h-58q0 -43 -27.5 -62.5t-77.5 -19.5q-39 0 -65 19.5t-28 62.5h-58q0 -76 39.5 -123.5t111.5 -47.5q70 0 115.5 45.5t47.5 125.5z" />
    <glyph glyph-name="Gdotaccent" unicode="&#x120;" horiz-adv-x="761" 
d="M377 65q85 0 123 42.5t38 125.5v50l-84 21v55h288v-55l-84 -21v-283h-72l-25 79q-43 -48 -89.5 -68.5t-109.5 -20.5q-137 0 -219 84q-46 47 -71.5 119t-25.5 159q0 89 26.5 165.5t74.5 126.5q41 43 96.5 64.5t129.5 21.5q60 0 100.5 -17t77.5 -57l20 64h75v-231h-81
q-13 83 -61 130t-130 47q-46 0 -77.5 -15.5t-54.5 -45.5q-28 -42 -46.5 -104.5t-18.5 -134.5q0 -71 17.5 -135.5t49.5 -108.5q22 -30 56 -43.5t77 -13.5zM305 835q0 34 19.5 53.5t52.5 19.5t53 -20t20 -53q0 -32 -19.5 -52t-53.5 -20t-53 19.5t-19 52.5z" />
    <glyph glyph-name="gdotaccent" unicode="&#x121;" horiz-adv-x="570" 
d="M521 -7q0 -87 -65.5 -132t-199.5 -45q-68 0 -120.5 13t-82 40.5t-29.5 72.5q0 46 28.5 73t83.5 31v4q-73 20 -73 77q0 20 10 41t32 37.5t58 23.5q-52 15 -81 54.5t-29 94.5q0 80 54.5 126t152.5 46q61 0 98.5 -11.5t65.5 -34.5l34 12l92 44h17v-98h-17l-70 8h-28
q23 -34 23 -86q0 -81 -52 -128t-148 -47q-10 0 -20 0.5t-20 1.5q-40 -5 -62 -18.5t-22 -36.5q0 -19 18.5 -26.5t69.5 -7.5h116q82 0 124 -31.5t42 -97.5zM291 35h-45q-67 0 -97 -21.5t-30 -56.5q0 -81 147 -81q80 0 121.5 23.5t41.5 69.5q0 36 -31 51t-107 15zM161 382
q0 -57 25.5 -87t74.5 -30q55 0 80.5 30t25.5 87q0 55 -25.5 83.5t-80.5 28.5q-50 0 -75 -28.5t-25 -83.5zM193 691q0 34 19.5 53.5t52.5 19.5t53 -20t20 -53t-19.5 -52.5t-53.5 -19.5t-53 19t-19 53z" />
    <glyph glyph-name="uni0122" unicode="&#x122;" horiz-adv-x="761" 
d="M377 65q85 0 123 42.5t38 125.5v50l-84 21v55h288v-55l-84 -21v-283h-72l-25 79q-43 -48 -89.5 -68.5t-109.5 -20.5q-137 0 -219 84q-46 47 -71.5 119t-25.5 159q0 89 26.5 165.5t74.5 126.5q41 43 96.5 64.5t129.5 21.5q60 0 100.5 -17t77.5 -57l20 64h75v-231h-81
q-13 83 -61 130t-130 47q-46 0 -77.5 -15.5t-54.5 -45.5q-28 -42 -46.5 -104.5t-18.5 -134.5q0 -71 17.5 -135.5t49.5 -108.5q22 -30 56 -43.5t77 -13.5zM383 -44q31 0 48.5 -17.5t17.5 -47.5q0 -39 -22 -70.5t-72 -58.5l-27 30q27 21 39 37t13 32l-3 2q-3 -5 -17 -5
q-18 0 -28.5 13.5t-10.5 31.5q0 24 16 38.5t46 14.5z" />
    <glyph glyph-name="uni0123" unicode="&#x123;" horiz-adv-x="570" 
d="M521 -7q0 -87 -65.5 -132t-199.5 -45q-68 0 -120.5 13t-82 40.5t-29.5 72.5q0 46 28.5 73t83.5 31v4q-73 20 -73 77q0 20 10 41t32 37.5t58 23.5q-52 15 -81 54.5t-29 94.5q0 80 54.5 126t152.5 46q61 0 98.5 -11.5t65.5 -34.5l34 12l92 44h17v-98h-17l-70 8h-28
q23 -34 23 -86q0 -81 -52 -128t-148 -47q-10 0 -20 0.5t-20 1.5q-40 -5 -62 -18.5t-22 -36.5q0 -19 18.5 -26.5t69.5 -7.5h116q82 0 124 -31.5t42 -97.5zM291 35h-45q-67 0 -97 -21.5t-30 -56.5q0 -81 147 -81q80 0 121.5 23.5t41.5 69.5q0 36 -31 51t-107 15zM161 382
q0 -57 25.5 -87t74.5 -30q55 0 80.5 30t25.5 87q0 55 -25.5 83.5t-80.5 28.5q-50 0 -75 -28.5t-25 -83.5zM259 638q-31 0 -48.5 17.5t-17.5 47.5q0 39 22 70.5t72 58.5l27 -30q-27 -21 -39 -37t-13 -32l3 -2q3 5 17 5q18 0 28.5 -13.5t10.5 -31.5q0 -24 -16 -38.5t-46 -14.5
z" />
    <glyph glyph-name="Hcircumflex" unicode="&#x124;" horiz-adv-x="814" 
d="M686 646v-572l84 -21v-53h-288v53l84 21v262h-319v-262l84 -21v-53h-288v53l84 21v572l-84 21v53h288v-53l-84 -21v-242h319v242l-84 21v53h288v-53zM586 769l-119 121h-115l-118 -121h73l103 61l103 -61h73z" />
    <glyph glyph-name="hcircumflex" unicode="&#x125;" horiz-adv-x="653" 
d="M444 70v203q0 65 -3.5 96.5t-12.5 50.5q-24 49 -88 49q-28 0 -54 -12.5t-43 -35.5q-12 -15 -19.5 -39.5t-8.5 -60.5v-251l67 -19v-51h-261v51l77 19v640l-77 19v51h194v-334q27 48 72 76t98 28q42 0 72.5 -11.5t51.5 -35.5q27 -31 39.5 -83.5t12.5 -138.5v-211l77 -19
v-51h-261v51zM514 639l-89 151h-115l-88 -151h73l73 81l73 -81h73z" />
    <glyph glyph-name="Hbar" unicode="&#x126;" horiz-adv-x="824" 
d="M59 491v75h706v-75h-706zM691 646v-572l84 -21v-53h-288v53l84 21v262h-319v-262l84 -21v-53h-288v53l84 21v572l-84 21v53h288v-53l-84 -21v-242h319v242l-84 21v53h288v-53z" />
    <glyph glyph-name="hbar" unicode="&#x127;" horiz-adv-x="653" 
d="M30 603v72h281v-72h-281zM444 70v203q0 65 -3.5 96.5t-12.5 50.5q-24 49 -88 49q-28 0 -54 -12.5t-43 -35.5q-12 -15 -19.5 -39.5t-8.5 -60.5v-251l67 -19v-51h-261v51l77 19v640l-77 19v51h194v-334q27 48 72 76t98 28q42 0 72.5 -11.5t51.5 -35.5q27 -31 39.5 -83.5
t12.5 -138.5v-211l77 -19v-51h-261v51z" />
    <glyph glyph-name="Itilde" unicode="&#x128;" horiz-adv-x="385" 
d="M252 646v-572l94 -21v-53h-308v53l94 21v572l-94 21v53h308v-53zM-2 767q4 68 36.5 101.5t85.5 33.5q26 0 44.5 -8.5t34.5 -19t32 -19t35 -8.5q30 0 45 13t20 37h55q-20 -141 -122 -141q-25 0 -44 8.5t-35 19.5t-31.5 19.5t-35.5 8.5q-30 0 -45 -12t-20 -33h-55z" />
    <glyph glyph-name="itilde" unicode="&#x129;" horiz-adv-x="325" 
d="M110 470l-77 19v51h194v-470l77 -19v-51h-271v51l77 19v400zM-26 629q4 68 36.5 101.5t85.5 33.5q26 0 44.5 -8.5t34.5 -19t32 -19t35 -8.5q30 0 45 13t20 37h55q-20 -141 -122 -141q-25 0 -44 8.5t-35 19.5t-31.5 19.5t-35.5 8.5q-30 0 -45 -12t-20 -33h-55z" />
    <glyph glyph-name="Imacron" unicode="&#x12a;" horiz-adv-x="385" 
d="M252 646v-572l94 -21v-53h-308v53l94 21v572l-94 21v53h308v-53zM50 776v85h279v-85h-279z" />
    <glyph glyph-name="imacron" unicode="&#x12b;" horiz-adv-x="325" 
d="M110 470l-77 19v51h194v-470l77 -19v-51h-271v51l77 19v400zM28 645v85h279v-85h-279z" />
    <glyph glyph-name="Ibreve" unicode="&#x12c;" horiz-adv-x="385" 
d="M252 646v-572l94 -21v-53h-308v53l94 21v572l-94 21v53h308v-53zM339 928h-58q-1 -41 -30.5 -60t-68.5 -19t-68 18.5t-31 60.5h-58q0 -75 42.5 -121.5t114.5 -46.5q73 0 115 46.5t42 121.5z" />
    <glyph glyph-name="ibreve" unicode="&#x12d;" horiz-adv-x="325" 
d="M110 470l-77 19v51h194v-470l77 -19v-51h-271v51l77 19v400zM331 780h-58q0 -43 -27.5 -62.5t-77.5 -19.5q-39 0 -65 19.5t-28 62.5h-58q0 -76 39.5 -123.5t111.5 -47.5q70 0 115.5 45.5t47.5 125.5z" />
    <glyph glyph-name="Iogonek" unicode="&#x12e;" horiz-adv-x="385" 
d="M252 646v-572l94 -21v-53h-308v53l94 21v572l-94 21v53h308v-53zM172 -210q-51 0 -79 23.5t-28 61.5q0 75 114 139h61q-19 -12 -38 -31.5t-32 -41t-13 -41.5t13.5 -31t36.5 -11q17 0 33.5 4.5t28.5 14.5l21 -31q-17 -26 -44.5 -41t-73.5 -15z" />
    <glyph glyph-name="iogonek" unicode="&#x12f;" horiz-adv-x="325" 
d="M110 470l-77 19v51h194v-470l77 -19v-51h-271v51l77 19v400zM98 695q0 31 18.5 50t51.5 19t52 -19t19 -50q0 -30 -19 -49t-52 -19q-34 0 -52 18.5t-18 49.5zM149 -210q-51 0 -79 23.5t-28 61.5q0 75 114 139h61q-19 -12 -38 -31.5t-32 -41t-13 -41.5t13.5 -31t36.5 -11
q17 0 33.5 4.5t28.5 14.5l21 -31q-17 -26 -44.5 -41t-73.5 -15z" />
    <glyph glyph-name="Idotaccent" unicode="&#x130;" horiz-adv-x="385" 
d="M252 646v-572l94 -21v-53h-308v53l94 21v572l-94 21v53h308v-53zM120 835q0 34 19.5 53.5t52.5 19.5t53 -20t20 -53q0 -32 -19.5 -52t-53.5 -20t-53 19.5t-19 52.5z" />
    <glyph glyph-name="dotlessi" unicode="&#x131;" horiz-adv-x="325" 
d="M110 470l-77 19v51h194v-470l77 -19v-51h-271v51l77 19v400z" />
    <glyph glyph-name="IJ" unicode="&#x132;" horiz-adv-x="977" 
d="M252 646v-572l94 -21v-53h-308v53l94 21v572l-94 21v53h308v-53zM743 207v439l-99 21v53h298v-53l-79 -21v-428q0 -69 -29.5 -120.5t-82.5 -80t-124 -28.5q-68 0 -120 23t-81.5 64t-29.5 96q0 44 19 70.5t57 26.5q33 0 53 -18.5t20 -49.5q0 -23 -13 -46.5t-30 -31.5
q4 -28 34.5 -47t84.5 -19q60 0 91 37.5t31 112.5z" />
    <glyph glyph-name="ij" unicode="&#x133;" horiz-adv-x="619" 
d="M110 470l-77 19v51h194v-470l77 -19v-51h-271v51l77 19v400zM98 695q0 31 18.5 50t51.5 19t52 -19t19 -50q0 -30 -19 -49t-52 -19q-34 0 -52 18.5t-18 49.5zM542 540v-455q0 -74 -4.5 -116.5t-17.5 -69.5q-21 -46 -57.5 -67.5t-88.5 -21.5q-60 0 -98 25.5t-38 69.5
q0 28 17 47.5t47 19.5q27 0 43 -17t16 -43q0 -11 -4 -22t-13 -18q2 -10 12.5 -12.5t18.5 -2.5q26 0 38 28t12 101v484l-77 19v51h194zM415 695q0 31 18.5 50t51.5 19t52 -19t19 -50q0 -30 -18.5 -49t-52.5 -19t-52 18.5t-18 49.5z" />
    <glyph glyph-name="Jcircumflex" unicode="&#x134;" horiz-adv-x="592" 
d="M358 207v439l-99 21v53h298v-53l-79 -21v-428q0 -69 -29.5 -120.5t-82.5 -80t-124 -28.5q-68 0 -120 23t-81.5 64t-29.5 96q0 44 19 70.5t57 26.5q33 0 53 -18.5t20 -49.5q0 -23 -13 -46.5t-30 -31.5q4 -28 34.5 -47t84.5 -19q60 0 91 37.5t31 112.5zM596 769l-119 121
h-115l-118 -121h73l103 61l103 -61h73z" />
    <glyph glyph-name="jcircumflex" unicode="&#x135;" horiz-adv-x="295" 
d="M217 540v-455q0 -74 -5 -116.5t-17 -69.5q-19 -43 -55 -66t-87 -23q-35 0 -67 11t-52.5 33t-20.5 54q0 28 16.5 46t47.5 18q26 0 42 -14.5t16 -42.5q0 -13 -4 -24t-12 -19q2 -8 11.5 -12t19.5 -4q23 0 33.5 18t13.5 45.5t3 56.5v494l-77 19v51h194zM304 639l-89 151h-115
l-88 -151h73l73 81l73 -81h73z" />
    <glyph glyph-name="uni0136" unicode="&#x136;" horiz-adv-x="745" 
d="M252 646v-259l250 259l-91 21v53h283v-53l-88 -21l-224 -222l291 -352l84 -19v-53h-299v53l66 20l-220 272l-52 -49v-222l84 -21v-53h-298v53l94 21v572l-94 21v53h298v-53zM397 -44q31 0 48.5 -17.5t17.5 -47.5q0 -39 -22 -70.5t-72 -58.5l-27 30q27 21 39 37t13 32
l-3 2q-3 -5 -17 -5q-18 0 -28.5 13.5t-10.5 31.5q0 24 16 38.5t46 14.5z" />
    <glyph glyph-name="uni0137" unicode="&#x137;" horiz-adv-x="605" 
d="M358 51l59 19l-139 187l-63 -53v-134l77 -19v-51h-271v51l77 19v640l-77 19v51h194v-508l184 199l-56 18v51h235v-51l-83 -19l-142 -145l191 -257l53 -17v-51h-239v51zM328 -44q31 0 48.5 -17.5t17.5 -47.5q0 -39 -22 -70.5t-72 -58.5l-27 30q27 21 39 37t13 32l-3 2
q-3 -5 -17 -5q-18 0 -28.5 13.5t-10.5 31.5q0 24 16 38.5t46 14.5z" />
    <glyph glyph-name="kgreenlandic" unicode="&#x138;" horiz-adv-x="613" 
d="M370 51l59 19l-138 189l-64 -55v-134l77 -19v-51h-271v51l77 19v400l-77 19v51h194v-266l183 196l-66 19v51h235v-51l-73 -19l-141 -145l191 -257l53 -17v-51h-239v51z" />
    <glyph glyph-name="Lacute" unicode="&#x139;" horiz-adv-x="640" 
d="M252 646v-576h252l34 173h75v-243h-575v53l94 21v572l-94 21v53h318v-53zM154 763l60 77q20 24 34 36.5t27 17t30 4.5q21 0 32 -10.5t11 -25.5q0 -12 -6.5 -21.5t-22.5 -20t-45 -28.5l-47 -29h-73z" />
    <glyph glyph-name="lacute" unicode="&#x13a;" horiz-adv-x="296" 
d="M111 770l61 77q21 27 38.5 37.5t36.5 10.5q37 0 37 -30q0 -16 -17.5 -29.5t-55.5 -36.5l-47 -29h-53zM99 60v600l-77 19v41h174v-660l77 -19v-41h-251v41z" />
    <glyph glyph-name="uni013B" unicode="&#x13b;" horiz-adv-x="640" 
d="M252 646v-576h252l34 173h75v-243h-575v53l94 21v572l-94 21v53h318v-53zM346 -44q31 0 48.5 -17.5t17.5 -47.5q0 -39 -22 -70.5t-72 -58.5l-27 30q27 21 39 37t13 32l-3 2q-3 -5 -17 -5q-18 0 -28.5 13.5t-10.5 31.5q0 24 16 38.5t46 14.5z" />
    <glyph glyph-name="uni013C" unicode="&#x13c;" horiz-adv-x="320" 
d="M101 71v638l-77 19v52h194v-709l77 -19v-52h-271v52zM164 -44q31 0 48.5 -17.5t17.5 -47.5q0 -39 -22 -70.5t-72 -58.5l-27 30q27 21 39 37t13 32l-3 2q-3 -5 -17 -5q-18 0 -28.5 13.5t-10.5 31.5q0 24 16 38.5t46 14.5z" />
    <glyph glyph-name="Lcaron" unicode="&#x13d;" horiz-adv-x="640" 
d="M252 646v-576h252l34 173h75v-243h-575v53l94 21v572l-94 21v53h318v-53zM248 769l119 121h-73l-103 -61l-103 61h-73l118 -121h115z" />
    <glyph glyph-name="lcaron" unicode="&#x13e;" horiz-adv-x="320" 
d="M101 71v638l-77 19v52h194v-709l77 -19v-52h-271v52zM335 595h-60q0 33 -4.5 57t-9.5 44t-5 41q0 17 9.5 35t40.5 18q29 0 39 -17.5t10 -35.5q0 -21 -5 -41t-10 -44t-5 -57z" />
    <glyph glyph-name="Ldot" unicode="&#x13f;" horiz-adv-x="640" 
d="M252 646v-576h252l34 173h75v-243h-575v53l94 21v572l-94 21v53h318v-53zM326 360q0 35 20 55t53 20q34 0 54 -21t20 -54q0 -34 -20 -53.5t-54 -19.5t-53.5 19t-19.5 54z" />
    <glyph glyph-name="ldot" unicode="&#x140;" horiz-adv-x="358" 
d="M101 71v638l-77 19v52h194v-709l77 -19v-52h-271v52zM268 358q0 35 20 55t53 20q34 0 54 -21t20 -54q0 -34 -20 -53.5t-54 -19.5t-53.5 19t-19.5 54z" />
    <glyph glyph-name="Lslash" unicode="&#x141;" horiz-adv-x="640" 
d="M63 254v78l288 170v-79zM253 646v-576h252l34 173h75v-243h-575v53l94 21v572l-94 21v53h318v-53z" />
    <glyph glyph-name="lslash" unicode="&#x142;" horiz-adv-x="323" 
d="M29 284v78l268 170v-79zM103 71v638l-77 19v52h194v-709l77 -19v-52h-271v52z" />
    <glyph glyph-name="Nacute" unicode="&#x143;" horiz-adv-x="812" 
d="M127 74v572l-84 21v53h218l347 -536v462l-84 21v53h253v-53l-84 -21v-646h-97l-384 582v-508l84 -21v-53h-253v53zM368 763l60 77q20 24 34 36.5t27 17t30 4.5q21 0 32 -10.5t11 -25.5q0 -12 -6.5 -21.5t-22.5 -20t-45 -28.5l-47 -29h-73z" />
    <glyph glyph-name="nacute" unicode="&#x144;" horiz-adv-x="668" 
d="M110 70v400l-77 19v51h164l22 -100h4q30 51 81 80.5t109 29.5q83 0 123 -54q20 -28 28.5 -78.5t8.5 -136.5v-211l77 -19v-51h-261v51l67 19v203q0 62 -3.5 95t-12.5 52q-12 25 -32 36t-48 11q-52 0 -88 -34q-41 -37 -45 -116v-247l67 -19v-51h-261v51zM292 639l49 76
q30 46 49.5 63.5t45.5 17.5q28 0 40 -11.5t12 -28.5q0 -15 -18.5 -34.5t-66.5 -54.5l-38 -28h-73z" />
    <glyph glyph-name="uni0145" unicode="&#x145;" horiz-adv-x="812" 
d="M127 74v572l-84 21v53h218l347 -536v462l-84 21v53h253v-53l-84 -21v-646h-97l-384 582v-508l84 -21v-53h-253v53zM412 -44q31 0 48.5 -17.5t17.5 -47.5q0 -39 -22 -70.5t-72 -58.5l-27 30q27 21 39 37t13 32l-3 2q-3 -5 -17 -5q-18 0 -28.5 13.5t-10.5 31.5
q0 24 16 38.5t46 14.5z" />
    <glyph glyph-name="uni0146" unicode="&#x146;" horiz-adv-x="668" 
d="M110 70v400l-77 19v51h164l22 -100h4q30 51 81 80.5t109 29.5q83 0 123 -54q20 -28 28.5 -78.5t8.5 -136.5v-211l77 -19v-51h-261v51l67 19v203q0 62 -3.5 95t-12.5 52q-12 25 -32 36t-48 11q-52 0 -88 -34q-41 -37 -45 -116v-247l67 -19v-51h-261v51zM348 -44
q31 0 48.5 -17.5t17.5 -47.5q0 -39 -22 -70.5t-72 -58.5l-27 30q27 21 39 37t13 32l-3 2q-3 -5 -17 -5q-18 0 -28.5 13.5t-10.5 31.5q0 24 16 38.5t46 14.5z" />
    <glyph glyph-name="Ncaron" unicode="&#x147;" horiz-adv-x="812" 
d="M127 74v572l-84 21v53h218l347 -536v462l-84 21v53h253v-53l-84 -21v-646h-97l-384 582v-508l84 -21v-53h-253v53zM462 769l119 121h-73l-103 -61l-103 61h-73l118 -121h115z" />
    <glyph glyph-name="ncaron" unicode="&#x148;" horiz-adv-x="668" 
d="M110 70v400l-77 19v51h164l22 -100h4q30 51 81 80.5t109 29.5q83 0 123 -54q20 -28 28.5 -78.5t8.5 -136.5v-211l77 -19v-51h-261v51l67 19v203q0 62 -3.5 95t-12.5 52q-12 25 -32 36t-48 11q-52 0 -88 -34q-41 -37 -45 -116v-247l67 -19v-51h-261v51zM413 632l87 148
h-73l-73 -81l-72 81h-74l86 -148h119z" />
    <glyph glyph-name="napostrophe" unicode="&#x149;" horiz-adv-x="762" 
d="M205 70v400l-77 19v51h164l22 -100h4q30 51 81 80.5t109 29.5q83 0 123 -54q20 -28 28.5 -78.5t8.5 -136.5v-211l77 -19v-51h-261v51l67 19v203q0 62 -3.5 95t-12.5 52q-12 25 -32 36t-48 11q-52 0 -88 -34q-41 -37 -45 -116v-247l67 -19v-51h-261v51zM86 797
q30 0 46.5 -20.5t16.5 -51.5q0 -39 -28 -79t-74 -66l-33 36q37 26 53 47t17 31l-3 2q-3 -2 -8 -4t-13 -2q-18 0 -29.5 15t-11.5 35q0 21 17.5 39t49.5 18z" />
    <glyph glyph-name="Eng" unicode="&#x14a;" horiz-adv-x="812" 
d="M127 74v572l-84 21v53h218l347 -536v462l-84 21v53h253v-53l-84 -21v-561q0 -74 -5 -116.5t-17 -69.5q-19 -43 -54 -66t-82 -23q-35 0 -66.5 12.5t-50.5 35t-19 52.5q0 27 14 44.5t39 17.5q23 0 39 -14t16 -41q0 -15 -6 -25.5t-16 -15.5q2 -8 14.5 -13.5t34.5 -5.5
q35 0 51 32t16 87v17l-389 589v-508l84 -21v-53h-253v53z" />
    <glyph glyph-name="eng" unicode="&#x14b;" horiz-adv-x="640" 
d="M456 -24v297q0 65 -3.5 96.5t-12.5 50.5q-10 24 -31.5 36t-45.5 12q-28 0 -49.5 -9.5t-41.5 -26.5q-22 -19 -33.5 -46.5t-11.5 -68.5v-247l67 -19v-51h-261v51l77 19v400l-77 19v51h164l22 -100h4q30 51 81 80.5t109 29.5q83 0 123 -54q20 -28 28.5 -78.5t8.5 -136.5
v-196q0 -74 -5 -116.5t-17 -69.5q-19 -43 -59 -66t-89 -23q-62 0 -98 27t-36 68q0 26 15 44t48 18q27 0 43 -15t16 -36q0 -27 -16 -43q2 -7 11.5 -11.5t23.5 -4.5q16 0 26 9.5t15 35.5t5 74z" />
    <glyph glyph-name="Omacron" unicode="&#x14c;" horiz-adv-x="771" 
d="M724 368q0 -84 -24.5 -161t-75.5 -130q-42 -44 -101 -65.5t-140 -21.5q-82 0 -141 21t-100 63q-44 46 -70 118.5t-26 159.5t26.5 163.5t73.5 127.5q42 45 100 66t139 21q79 0 139 -20t103 -64q51 -51 74 -124t23 -154zM181 371q0 -79 14.5 -140.5t39.5 -100.5
q25 -37 62 -56t91 -19q98 0 147 66q26 36 40 94.5t14 138.5t-14 140t-41 98q-26 38 -64.5 56t-87.5 18t-85 -17t-60 -49q-56 -74 -56 -229zM241 776v85h279v-85h-279z" />
    <glyph glyph-name="omacron" unicode="&#x14d;" horiz-adv-x="590" 
d="M550 272q0 -65 -19 -122t-54 -95q-32 -34 -77.5 -49.5t-105.5 -15.5t-105 15t-77 49q-35 38 -53.5 94t-18.5 120t18.5 122t54.5 95q32 35 77.5 50t104.5 15q60 0 105.5 -15t77.5 -49q35 -37 53.5 -93.5t18.5 -120.5zM188 156q10 -34 28 -55.5t45 -30.5t50 -7t45 16
q44 32 55 131q6 50 3.5 94t-12.5 80q-9 34 -27.5 55.5t-45.5 30.5t-50 7t-45 -16q-45 -32 -55 -130q-12 -102 9 -175zM155 645v85h279v-85h-279z" />
    <glyph glyph-name="Obreve" unicode="&#x14e;" horiz-adv-x="771" 
d="M724 368q0 -84 -24.5 -161t-75.5 -130q-42 -44 -101 -65.5t-140 -21.5q-82 0 -141 21t-100 63q-44 46 -70 118.5t-26 159.5t26.5 163.5t73.5 127.5q42 45 100 66t139 21q79 0 139 -20t103 -64q51 -51 74 -124t23 -154zM181 371q0 -79 14.5 -140.5t39.5 -100.5
q25 -37 62 -56t91 -19q98 0 147 66q26 36 40 94.5t14 138.5t-14 140t-41 98q-26 38 -64.5 56t-87.5 18t-85 -17t-60 -49q-56 -74 -56 -229zM543 928h-58q-1 -41 -30.5 -60t-68.5 -19t-68 18.5t-31 60.5h-58q0 -75 42.5 -121.5t114.5 -46.5q73 0 115 46.5t42 121.5z" />
    <glyph glyph-name="obreve" unicode="&#x14f;" horiz-adv-x="590" 
d="M550 272q0 -65 -19 -122t-54 -95q-32 -34 -77.5 -49.5t-105.5 -15.5t-105 15t-77 49q-35 38 -53.5 94t-18.5 120t18.5 122t54.5 95q32 35 77.5 50t104.5 15q60 0 105.5 -15t77.5 -49q35 -37 53.5 -93.5t18.5 -120.5zM188 156q10 -34 28 -55.5t45 -30.5t50 -7t45 16
q44 32 55 131q6 50 3.5 94t-12.5 80q-9 34 -27.5 55.5t-45.5 30.5t-50 7t-45 -16q-45 -32 -55 -130q-12 -102 9 -175zM458 780h-58q0 -43 -27.5 -62.5t-77.5 -19.5q-39 0 -65 19.5t-28 62.5h-58q0 -76 39.5 -123.5t111.5 -47.5q70 0 115.5 45.5t47.5 125.5z" />
    <glyph glyph-name="Ohungarumlaut" unicode="&#x150;" horiz-adv-x="771" 
d="M724 368q0 -84 -24.5 -161t-75.5 -130q-42 -44 -101 -65.5t-140 -21.5q-82 0 -141 21t-100 63q-44 46 -70 118.5t-26 159.5t26.5 163.5t73.5 127.5q42 45 100 66t139 21q79 0 139 -20t103 -64q51 -51 74 -124t23 -154zM181 371q0 -79 14.5 -140.5t39.5 -100.5
q25 -37 62 -56t91 -19q98 0 147 66q26 36 40 94.5t14 138.5t-14 140t-41 98q-26 38 -64.5 56t-87.5 18t-85 -17t-60 -49q-56 -74 -56 -229zM258 763l60 77q20 24 34 36.5t27 17t30 4.5q21 0 32 -10.5t11 -25.5q0 -12 -6.5 -21.5t-22.5 -20t-45 -28.5l-47 -29h-73zM438 763
l60 77q20 24 34 36.5t27 17t30 4.5q21 0 32 -10.5t11 -25.5q0 -12 -6.5 -21.5t-22.5 -20t-45 -28.5l-47 -29h-73z" />
    <glyph glyph-name="ohungarumlaut" unicode="&#x151;" horiz-adv-x="590" 
d="M550 272q0 -65 -19 -122t-54 -95q-32 -34 -77.5 -49.5t-105.5 -15.5t-105 15t-77 49q-35 38 -53.5 94t-18.5 120t18.5 122t54.5 95q32 35 77.5 50t104.5 15q60 0 105.5 -15t77.5 -49q35 -37 53.5 -93.5t18.5 -120.5zM188 156q10 -34 28 -55.5t45 -30.5t50 -7t45 16
q44 32 55 131q6 50 3.5 94t-12.5 80q-9 34 -27.5 55.5t-45.5 30.5t-50 7t-45 -16q-45 -32 -55 -130q-12 -102 9 -175zM161 639l49 76q30 46 49.5 63.5t45.5 17.5q28 0 40 -11.5t12 -28.5q0 -15 -18.5 -34.5t-66.5 -54.5l-38 -28h-73zM346 639l49 76q31 46 50.5 63.5
t44.5 17.5q29 0 41 -11.5t12 -28.5q0 -15 -19 -34.5t-67 -54.5l-38 -28h-73z" />
    <glyph glyph-name="OE" unicode="&#x152;" horiz-adv-x="1079" 
d="M872 238h-71l-17 97h-147v-265h284l29 153h78v-223h-644q-155 0 -238 87q-47 50 -73.5 123.5t-26.5 157.5q0 80 25.5 150t71.5 118q83 84 232 84h631v-212h-72l-30 144h-267v-247h147l17 97h71v-264zM517 70v580h-115q-57 0 -98 -18.5t-68 -55.5q-55 -75 -55 -222
q0 -75 14 -129.5t42 -88.5q25 -33 63 -49.5t92 -16.5h125z" />
    <glyph glyph-name="oe" unicode="&#x153;" horiz-adv-x="929" 
d="M294 550q39 0 76 -10.5t66.5 -32.5t44.5 -58h4q25 49 69 75t110 26q112 0 169 -63.5t57 -175.5q0 -10 -0.5 -21t-2.5 -31h-349q0 -37 5 -65t15 -51q17 -41 48.5 -58.5t68.5 -17.5q47 0 86 19.5t70 53.5l52 -34q-26 -32 -56.5 -58.5t-72 -42t-98.5 -15.5q-36 0 -71.5 10.5
t-62 32t-37.5 52.5h-4q-25 -46 -80 -70.5t-117 -24.5q-55 0 -99 15.5t-74 47.5q-34 37 -52.5 91.5t-18.5 118.5q0 65 19 124.5t55 97.5q32 34 78.5 49.5t101.5 15.5zM167 274q0 -57 10 -99t26 -70q15 -25 38 -39t54 -14q59 0 93 47q18 24 26.5 67.5t8.5 100.5t-9.5 99
t-26.5 69q-16 25 -38 39t-55 14q-28 0 -53 -12t-38 -34q-16 -26 -26 -68t-10 -100zM659 486q-51 0 -83 -41.5t-37 -126.5h230v28q0 67 -31.5 103.5t-78.5 36.5z" />
    <glyph glyph-name="Racute" unicode="&#x154;" horiz-adv-x="713" 
d="M558 382q-18 -14 -41 -26t-58 -20q7 -6 17.5 -19t20.5 -30l127 -215l89 -19v-53h-226v53l-135 265h-105v-244l95 -21v-53h-299v53l84 21v572l-84 21v53h364q48 0 84.5 -9t64.5 -29q37 -25 57.5 -66.5t20.5 -83.5t-20.5 -82.5t-55.5 -67.5zM247 386h123q55 0 91 31
q20 17 31.5 46t11.5 63q0 32 -11.5 57.5t-32.5 42.5q-17 14 -39.5 20t-54.5 6h-119v-266zM277 763l60 77q20 24 34 36.5t27 17t30 4.5q21 0 32 -10.5t11 -25.5q0 -12 -6.5 -21.5t-22.5 -20t-45 -28.5l-47 -29h-73z" />
    <glyph glyph-name="racute" unicode="&#x155;" horiz-adv-x="469" 
d="M332 472q-1 1 -3 1.5t-3 0.5q-12 0 -26 -12.5t-26 -31t-19 -35.5q-12 -34 -21 -71.5t-9 -86.5v-167l108 -19v-51h-302v51l77 19v410l-77 19v41h164l22 -132h4q23 68 62 105t86 37q39 0 65 -24.5t26 -65.5q0 -30 -17 -52t-48 -22q-35 0 -51.5 17.5t-16.5 41.5q0 7 1 11z
M212 639l49 76q30 46 49.5 63.5t45.5 17.5q28 0 40 -11.5t12 -28.5q0 -15 -18.5 -34.5t-66.5 -54.5l-38 -28h-73z" />
    <glyph glyph-name="uni0156" unicode="&#x156;" horiz-adv-x="713" 
d="M558 382q-18 -14 -41 -26t-58 -20q7 -6 17.5 -19t20.5 -30l127 -215l89 -19v-53h-226v53l-135 265h-105v-244l95 -21v-53h-299v53l84 21v572l-84 21v53h364q48 0 84.5 -9t64.5 -29q37 -25 57.5 -66.5t20.5 -83.5t-20.5 -82.5t-55.5 -67.5zM247 386h123q55 0 91 31
q20 17 31.5 46t11.5 63q0 32 -11.5 57.5t-32.5 42.5q-17 14 -39.5 20t-54.5 6h-119v-266zM393 -44q31 0 48.5 -17.5t17.5 -47.5q0 -39 -22 -70.5t-72 -58.5l-27 30q27 21 39 37t13 32l-3 2q-3 -5 -17 -5q-18 0 -28.5 13.5t-10.5 31.5q0 24 16 38.5t46 14.5z" />
    <glyph glyph-name="uni0157" unicode="&#x157;" horiz-adv-x="469" 
d="M332 472q-1 1 -3 1.5t-3 0.5q-12 0 -26 -12.5t-26 -31t-19 -35.5q-12 -34 -21 -71.5t-9 -86.5v-167l108 -19v-51h-302v51l77 19v410l-77 19v41h164l22 -132h4q23 68 62 105t86 37q39 0 65 -24.5t26 -65.5q0 -30 -17 -52t-48 -22q-35 0 -51.5 17.5t-16.5 41.5q0 7 1 11z
M173 -44q31 0 48.5 -17.5t17.5 -47.5q0 -39 -22 -70.5t-72 -58.5l-27 30q27 21 39 37t13 32l-3 2q-3 -5 -17 -5q-18 0 -28.5 13.5t-10.5 31.5q0 24 16 38.5t46 14.5z" />
    <glyph glyph-name="Rcaron" unicode="&#x158;" horiz-adv-x="713" 
d="M558 382q-18 -14 -41 -26t-58 -20q7 -6 17.5 -19t20.5 -30l127 -215l89 -19v-53h-226v53l-135 265h-105v-244l95 -21v-53h-299v53l84 21v572l-84 21v53h364q48 0 84.5 -9t64.5 -29q37 -25 57.5 -66.5t20.5 -83.5t-20.5 -82.5t-55.5 -67.5zM247 386h123q55 0 91 31
q20 17 31.5 46t11.5 63q0 32 -11.5 57.5t-32.5 42.5q-17 14 -39.5 20t-54.5 6h-119v-266zM407 769l119 121h-73l-103 -61l-103 61h-73l118 -121h115z" />
    <glyph glyph-name="rcaron" unicode="&#x159;" horiz-adv-x="469" 
d="M332 472q-1 1 -3 1.5t-3 0.5q-12 0 -26 -12.5t-26 -31t-19 -35.5q-12 -34 -21 -71.5t-9 -86.5v-167l108 -19v-51h-302v51l77 19v410l-77 19v41h164l22 -132h4q23 68 62 105t86 37q39 0 65 -24.5t26 -65.5q0 -30 -17 -52t-48 -22q-35 0 -51.5 17.5t-16.5 41.5q0 7 1 11z
M308 632l87 148h-73l-73 -81l-72 81h-74l86 -148h119z" />
    <glyph glyph-name="Sacute" unicode="&#x15a;" horiz-adv-x="608" 
d="M322 -11q-58 0 -100.5 17t-73.5 52l-11 -58h-76v237h81q6 -98 48.5 -140.5t118.5 -42.5q61 0 96 25t35 77q0 41 -22.5 68.5t-63 49t-94.5 43.5q-63 26 -107 52.5t-66.5 64t-22.5 95.5q0 96 59.5 149t159.5 53q99 0 161 -56l8 45h76v-237h-77q0 95 -35.5 139.5
t-109.5 44.5q-121 0 -121 -113q0 -34 13 -55.5t45.5 -39.5t88.5 -43q84 -37 134.5 -70t72.5 -70t22 -87q0 -65 -31.5 -110t-85.5 -67.5t-122 -22.5zM256 763l60 77q20 24 34 36.5t27 17t30 4.5q21 0 32 -10.5t11 -25.5q0 -12 -6.5 -21.5t-22.5 -20t-45 -28.5l-47 -29h-73z
" />
    <glyph glyph-name="sacute" unicode="&#x15b;" horiz-adv-x="512" 
d="M243 46q52 0 87.5 20.5t35.5 56.5q0 29 -21.5 47.5t-54 31t-66.5 21.5q-41 13 -79 32.5t-62 52t-24 83.5q0 72 52.5 115.5t148.5 43.5q88 0 139.5 -37t51.5 -97q0 -33 -17 -51.5t-47 -18.5q-29 0 -46 15t-17 37q0 17 10 33t26 23q-13 20 -37 30t-60 10q-50 0 -76 -20
t-26 -58q0 -27 13 -44.5t36.5 -29t56.5 -21.5q38 -11 75 -24t66.5 -31.5t47 -46t17.5 -66.5q0 -52 -30.5 -88.5t-83 -55.5t-119.5 -19q-93 0 -147 35.5t-54 95.5q0 38 20.5 59.5t50.5 21.5q24 0 43 -13.5t19 -38.5q0 -18 -10.5 -35t-25.5 -25q11 -17 37.5 -30.5t69.5 -13.5z
M230 639l49 76q30 46 49.5 63.5t45.5 17.5q28 0 40 -11.5t12 -28.5q0 -15 -18.5 -34.5t-66.5 -54.5l-38 -28h-73z" />
    <glyph glyph-name="Scircumflex" unicode="&#x15c;" horiz-adv-x="608" 
d="M322 -11q-58 0 -100.5 17t-73.5 52l-11 -58h-76v237h81q6 -98 48.5 -140.5t118.5 -42.5q61 0 96 25t35 77q0 41 -22.5 68.5t-63 49t-94.5 43.5q-63 26 -107 52.5t-66.5 64t-22.5 95.5q0 96 59.5 149t159.5 53q99 0 161 -56l8 45h76v-237h-77q0 95 -35.5 139.5
t-109.5 44.5q-121 0 -121 -113q0 -34 13 -55.5t45.5 -39.5t88.5 -43q84 -37 134.5 -70t72.5 -70t22 -87q0 -65 -31.5 -110t-85.5 -67.5t-122 -22.5zM469 769l-119 121h-115l-118 -121h73l103 61l103 -61h73z" />
    <glyph glyph-name="scircumflex" unicode="&#x15d;" horiz-adv-x="512" 
d="M243 46q52 0 87.5 20.5t35.5 56.5q0 29 -21.5 47.5t-54 31t-66.5 21.5q-41 13 -79 32.5t-62 52t-24 83.5q0 72 52.5 115.5t148.5 43.5q88 0 139.5 -37t51.5 -97q0 -33 -17 -51.5t-47 -18.5q-29 0 -46 15t-17 37q0 17 10 33t26 23q-13 20 -37 30t-60 10q-50 0 -76 -20
t-26 -58q0 -27 13 -44.5t36.5 -29t56.5 -21.5q38 -11 75 -24t66.5 -31.5t47 -46t17.5 -66.5q0 -52 -30.5 -88.5t-83 -55.5t-119.5 -19q-93 0 -147 35.5t-54 95.5q0 38 20.5 59.5t50.5 21.5q24 0 43 -13.5t19 -38.5q0 -18 -10.5 -35t-25.5 -25q11 -17 37.5 -30.5t69.5 -13.5z
M413 639l-89 151h-115l-88 -151h73l73 81l73 -81h73z" />
    <glyph glyph-name="uni015E" unicode="&#x15e;" horiz-adv-x="608" 
d="M322 -11q-58 0 -100.5 17t-73.5 52l-11 -58h-76v237h81q6 -98 48.5 -140.5t118.5 -42.5q61 0 96 25t35 77q0 41 -22.5 68.5t-63 49t-94.5 43.5q-63 26 -107 52.5t-66.5 64t-22.5 95.5q0 96 59.5 149t159.5 53q99 0 161 -56l8 45h76v-237h-77q0 95 -35.5 139.5
t-109.5 44.5q-121 0 -121 -113q0 -34 13 -55.5t45.5 -39.5t88.5 -43q84 -37 134.5 -70t72.5 -70t22 -87q0 -65 -31.5 -110t-85.5 -67.5t-122 -22.5zM293 -210q-53 0 -91 28l30 40q29 -20 59 -20q20 0 31.5 8t11.5 22q0 13 -13 20.5t-35 7.5q-11 0 -23 -1.5t-21 -4.5l-16 27
l77 100h64l-43 -72l1 -3q56 0 78.5 -18t22.5 -50q0 -40 -39 -62t-94 -22z" />
    <glyph glyph-name="uni015F" unicode="&#x15f;" horiz-adv-x="511" 
d="M242 46q52 0 87.5 20.5t35.5 56.5q0 29 -21.5 47.5t-54 31t-66.5 21.5q-41 13 -79 32.5t-62 52t-24 83.5q0 72 52.5 115.5t148.5 43.5q88 0 139.5 -37t51.5 -97q0 -33 -17 -51.5t-47 -18.5q-29 0 -46 15t-17 37q0 17 10 33t26 23q-13 20 -37 30t-60 10q-50 0 -76 -20
t-26 -58q0 -27 13 -44.5t36.5 -29t56.5 -21.5q38 -11 75 -24t66.5 -31.5t47 -46t17.5 -66.5q0 -52 -30.5 -88.5t-83 -55.5t-119.5 -19q-93 0 -147 35.5t-54 95.5q0 38 20.5 59.5t50.5 21.5q24 0 43 -13.5t19 -38.5q0 -18 -10.5 -35t-25.5 -25q11 -17 37.5 -30.5t69.5 -13.5z
M225 -210q-53 0 -91 28l30 40q29 -20 59 -20q20 0 31.5 8t11.5 22q0 13 -13 20.5t-35 7.5q-11 0 -23 -1.5t-21 -4.5l-16 27l77 100h64l-43 -72l1 -3q56 0 78.5 -18t22.5 -50q0 -40 -39 -62t-94 -22z" />
    <glyph glyph-name="Scaron" unicode="&#x160;" horiz-adv-x="608" 
d="M322 -11q-58 0 -100.5 17t-73.5 52l-11 -58h-76v237h81q6 -98 48.5 -140.5t118.5 -42.5q61 0 96 25t35 77q0 41 -22.5 68.5t-63 49t-94.5 43.5q-63 26 -107 52.5t-66.5 64t-22.5 95.5q0 96 59.5 149t159.5 53q99 0 161 -56l8 45h76v-237h-77q0 95 -35.5 139.5
t-109.5 44.5q-121 0 -121 -113q0 -34 13 -55.5t45.5 -39.5t88.5 -43q84 -37 134.5 -70t72.5 -70t22 -87q0 -65 -31.5 -110t-85.5 -67.5t-122 -22.5zM368 769l119 121h-73l-103 -61l-103 61h-73l118 -121h115z" />
    <glyph glyph-name="scaron" unicode="&#x161;" horiz-adv-x="512" 
d="M243 46q52 0 87.5 20.5t35.5 56.5q0 29 -21.5 47.5t-54 31t-66.5 21.5q-41 13 -79 32.5t-62 52t-24 83.5q0 72 52.5 115.5t148.5 43.5q88 0 139.5 -37t51.5 -97q0 -33 -17 -51.5t-47 -18.5q-29 0 -46 15t-17 37q0 17 10 33t26 23q-13 20 -37 30t-60 10q-50 0 -76 -20
t-26 -58q0 -27 13 -44.5t36.5 -29t56.5 -21.5q38 -11 75 -24t66.5 -31.5t47 -46t17.5 -66.5q0 -52 -30.5 -88.5t-83 -55.5t-119.5 -19q-93 0 -147 35.5t-54 95.5q0 38 20.5 59.5t50.5 21.5q24 0 43 -13.5t19 -38.5q0 -18 -10.5 -35t-25.5 -25q11 -17 37.5 -30.5t69.5 -13.5z
M326 632l87 148h-73l-73 -81l-72 81h-74l86 -148h119z" />
    <glyph glyph-name="uni0162" unicode="&#x162;" horiz-adv-x="669" 
d="M26 720h616v-220h-60l-32 150h-156v-573l106 -24v-53h-332v53l106 24v573h-157l-31 -150h-60v220zM299 -210q-53 0 -91 28l30 40q29 -20 59 -20q20 0 31.5 8t11.5 22q0 13 -13 20.5t-35 7.5q-11 0 -23 -1.5t-21 -4.5l-16 27l77 100h64l-43 -72l1 -3q56 0 78.5 -18
t22.5 -50q0 -40 -39 -62t-94 -22z" />
    <glyph glyph-name="uni0163" unicode="&#x163;" horiz-adv-x="357" 
d="M6 480v46l98 14l12 125l104 14v-139h128v-60h-128v-337q0 -34 1 -46.5t4 -20.5q3 -6 11 -9t26 -3h70v-39q-55 -18 -96.5 -26.5t-66.5 -8.5q-45 0 -58 37q-4 12 -6 31t-2 56v366h-97zM173 -210q-53 0 -91 28l30 40q29 -20 59 -20q20 0 31.5 8t11.5 22q0 13 -13 20.5
t-35 7.5q-11 0 -23 -1.5t-21 -4.5l-16 27l77 100h64l-43 -72l1 -3q56 0 78.5 -18t22.5 -50q0 -40 -39 -62t-94 -22z" />
    <glyph glyph-name="Tcaron" unicode="&#x164;" horiz-adv-x="669" 
d="M26 720h616v-220h-60l-32 150h-156v-573l106 -24v-53h-332v53l106 24v573h-157l-31 -150h-60v220zM393 769l119 121h-73l-103 -61l-103 61h-73l118 -121h115z" />
    <glyph glyph-name="tcaron" unicode="&#x165;" horiz-adv-x="357" 
d="M6 480v46l98 14l12 125l104 14v-139h128v-60h-128v-337q0 -34 1 -46.5t4 -20.5q3 -6 11 -9t26 -3h70v-39q-55 -18 -96.5 -26.5t-66.5 -8.5q-45 0 -58 37q-4 12 -6 31t-2 56v366h-97zM342 595h-60q0 33 -4.5 57t-9.5 44t-5 41q0 17 9.5 35t40.5 18q29 0 39 -17.5t10 -35.5
q0 -21 -5 -41t-10 -44t-5 -57z" />
    <glyph glyph-name="Tbar" unicode="&#x166;" horiz-adv-x="673" 
d="M109 346v75h456v-75h-456zM29 720h616v-220h-60l-32 150h-156v-573l106 -24v-53h-332v53l106 24v573h-157l-31 -150h-60v220z" />
    <glyph glyph-name="tbar" unicode="&#x167;" horiz-adv-x="362" 
d="M19 321v70h321v-70h-321zM9 480v46l98 14l12 125l104 14v-139h128v-60h-128v-337q0 -34 1 -46.5t4 -20.5q3 -6 11 -9t26 -3h70v-39q-55 -18 -96.5 -26.5t-66.5 -8.5q-45 0 -58 37q-4 12 -6 31t-2 56v366h-97z" />
    <glyph glyph-name="Utilde" unicode="&#x168;" horiz-adv-x="780" 
d="M587 269v377l-84 21v53h251v-53l-84 -21v-403q0 -124 -72 -189t-211 -65q-133 0 -204.5 66.5t-71.5 188.5v402l-84 21v53h288v-53l-84 -21v-375q0 -217 178 -217q94 0 136 51t42 164zM216 767q4 68 36.5 101.5t85.5 33.5q26 0 44.5 -8.5t34.5 -19t32 -19t35 -8.5
q30 0 45 13t20 37h55q-20 -141 -122 -141q-25 0 -44 8.5t-35 19.5t-31.5 19.5t-35.5 8.5q-30 0 -45 -12t-20 -33h-55z" />
    <glyph glyph-name="utilde" unicode="&#x169;" horiz-adv-x="646" 
d="M210 540v-273q0 -64 3 -96t10 -51q9 -24 28.5 -36.5t42.5 -12.5q27 0 50 10t42 27q41 37 45 115v247l-87 19v51h204v-470l77 -19v-51l-175 -10l-11 110h-4q-29 -51 -79 -80.5t-107 -29.5q-38 0 -69.5 14.5t-49.5 39.5q-19 28 -28 79t-9 136v211l-67 19v51h184zM124 629
q4 68 36.5 101.5t85.5 33.5q26 0 44.5 -8.5t34.5 -19t32 -19t35 -8.5q30 0 45 13t20 37h55q-20 -141 -122 -141q-25 0 -44 8.5t-35 19.5t-31.5 19.5t-35.5 8.5q-30 0 -45 -12t-20 -33h-55z" />
    <glyph glyph-name="Umacron" unicode="&#x16a;" horiz-adv-x="780" 
d="M587 269v377l-84 21v53h251v-53l-84 -21v-403q0 -124 -72 -189t-211 -65q-133 0 -204.5 66.5t-71.5 188.5v402l-84 21v53h288v-53l-84 -21v-375q0 -217 178 -217q94 0 136 51t42 164zM268 776v85h279v-85h-279z" />
    <glyph glyph-name="umacron" unicode="&#x16b;" horiz-adv-x="646" 
d="M210 540v-273q0 -64 3 -96t10 -51q9 -24 28.5 -36.5t42.5 -12.5q27 0 50 10t42 27q41 37 45 115v247l-87 19v51h204v-470l77 -19v-51l-175 -10l-11 110h-4q-29 -51 -79 -80.5t-107 -29.5q-38 0 -69.5 14.5t-49.5 39.5q-19 28 -28 79t-9 136v211l-67 19v51h184zM178 645
v85h279v-85h-279z" />
    <glyph glyph-name="Ubreve" unicode="&#x16c;" horiz-adv-x="780" 
d="M587 269v377l-84 21v53h251v-53l-84 -21v-403q0 -124 -72 -189t-211 -65q-133 0 -204.5 66.5t-71.5 188.5v402l-84 21v53h288v-53l-84 -21v-375q0 -217 178 -217q94 0 136 51t42 164zM567 928h-58q-1 -41 -30.5 -60t-68.5 -19t-68 18.5t-31 60.5h-58q0 -75 42.5 -121.5
t114.5 -46.5q73 0 115 46.5t42 121.5z" />
    <glyph glyph-name="ubreve" unicode="&#x16d;" horiz-adv-x="646" 
d="M210 540v-273q0 -64 3 -96t10 -51q9 -24 28.5 -36.5t42.5 -12.5q27 0 50 10t42 27q41 37 45 115v247l-87 19v51h204v-470l77 -19v-51l-175 -10l-11 110h-4q-29 -51 -79 -80.5t-107 -29.5q-38 0 -69.5 14.5t-49.5 39.5q-19 28 -28 79t-9 136v211l-67 19v51h184zM481 780
h-58q0 -43 -27.5 -62.5t-77.5 -19.5q-39 0 -65 19.5t-28 62.5h-58q0 -76 39.5 -123.5t111.5 -47.5q70 0 115.5 45.5t47.5 125.5z" />
    <glyph glyph-name="Uring" unicode="&#x16e;" horiz-adv-x="780" 
d="M587 269v377l-84 21v53h251v-53l-84 -21v-403q0 -124 -72 -189t-211 -65q-133 0 -204.5 66.5t-71.5 188.5v402l-84 21v53h288v-53l-84 -21v-375q0 -217 178 -217q94 0 136 51t42 164zM325 824q0 36 25 56t60 20q36 0 61 -20t25 -56q0 -35 -25 -54.5t-61 -19.5
q-35 0 -60 19.5t-25 54.5zM383 824q0 -13 7 -20t20 -7t21 7t8 20t-8 21t-21 8t-20 -8t-7 -21z" />
    <glyph glyph-name="uring" unicode="&#x16f;" horiz-adv-x="646" 
d="M210 540v-273q0 -64 3 -96t10 -51q9 -24 28.5 -36.5t42.5 -12.5q27 0 50 10t42 27q41 37 45 115v247l-87 19v51h204v-470l77 -19v-51l-175 -10l-11 110h-4q-29 -51 -79 -80.5t-107 -29.5q-38 0 -69.5 14.5t-49.5 39.5q-19 28 -28 79t-9 136v211l-67 19v51h184zM224 713
q0 41 27 68.5t67 27.5q41 0 68.5 -27.5t27.5 -68.5q0 -40 -27.5 -67t-68.5 -27q-40 0 -67 27t-27 67zM285 713q0 -14 9.5 -23.5t23.5 -9.5q15 0 25 9.5t10 23.5q0 15 -10 25t-25 10q-14 0 -23.5 -10t-9.5 -25z" />
    <glyph glyph-name="Uhungarumlaut" unicode="&#x170;" horiz-adv-x="780" 
d="M587 269v377l-84 21v53h251v-53l-84 -21v-403q0 -124 -72 -189t-211 -65q-133 0 -204.5 66.5t-71.5 188.5v402l-84 21v53h288v-53l-84 -21v-375q0 -217 178 -217q94 0 136 51t42 164zM284 763l60 77q20 24 34 36.5t27 17t30 4.5q21 0 32 -10.5t11 -25.5q0 -12 -6.5 -21.5
t-22.5 -20t-45 -28.5l-47 -29h-73zM464 763l60 77q20 24 34 36.5t27 17t30 4.5q21 0 32 -10.5t11 -25.5q0 -12 -6.5 -21.5t-22.5 -20t-45 -28.5l-47 -29h-73z" />
    <glyph glyph-name="uhungarumlaut" unicode="&#x171;" horiz-adv-x="646" 
d="M210 540v-273q0 -64 3 -96t10 -51q9 -24 28.5 -36.5t42.5 -12.5q27 0 50 10t42 27q41 37 45 115v247l-87 19v51h204v-470l77 -19v-51l-175 -10l-11 110h-4q-29 -51 -79 -80.5t-107 -29.5q-38 0 -69.5 14.5t-49.5 39.5q-19 28 -28 79t-9 136v211l-67 19v51h184zM184 639
l49 76q30 46 49.5 63.5t45.5 17.5q28 0 40 -11.5t12 -28.5q0 -15 -18.5 -34.5t-66.5 -54.5l-38 -28h-73zM369 639l49 76q31 46 50.5 63.5t44.5 17.5q29 0 41 -11.5t12 -28.5q0 -15 -19 -34.5t-67 -54.5l-38 -28h-73z" />
    <glyph glyph-name="Uogonek" unicode="&#x172;" horiz-adv-x="780" 
d="M587 269v377l-84 21v53h251v-53l-84 -21v-403q0 -124 -72 -189t-211 -65q-133 0 -204.5 66.5t-71.5 188.5v402l-84 21v53h288v-53l-84 -21v-375q0 -217 178 -217q94 0 136 51t42 164zM389 -210q-51 0 -79 23.5t-28 61.5q0 75 114 139h61q-19 -12 -38 -31.5t-32 -41
t-13 -41.5t13.5 -31t36.5 -11q17 0 33.5 4.5t28.5 14.5l21 -31q-17 -26 -44.5 -41t-73.5 -15z" />
    <glyph glyph-name="uogonek" unicode="&#x173;" horiz-adv-x="646" 
d="M210 540v-273q0 -64 3 -96t10 -51q9 -24 28.5 -36.5t42.5 -12.5q27 0 50 10t42 27q41 37 45 115v247l-87 19v51h204v-470l77 -19v-51l-175 -10l-11 110h-4q-29 -51 -79 -80.5t-107 -29.5q-38 0 -69.5 14.5t-49.5 39.5q-19 28 -28 79t-9 136v211l-67 19v51h184zM482 -210
q-51 0 -79 23.5t-28 61.5q0 75 114 139h61q-19 -12 -38 -31.5t-32 -41t-13 -41.5t13.5 -31t36.5 -11q17 0 33.5 4.5t28.5 14.5l21 -31q-17 -26 -44.5 -41t-73.5 -15z" />
    <glyph glyph-name="Wcircumflex" unicode="&#x174;" horiz-adv-x="1048" 
d="M737 116l146 531l-79 20v53h249v-53l-83 -21l-187 -646h-124l-136 448l-124 -448h-124l-206 646l-78 21v53h304v-53l-96 -21l150 -529h4l129 479l-10 50l-78 21v53h284v-53l-92 -21l147 -530h4zM703 769l-119 121h-115l-118 -121h73l103 61l103 -61h73z" />
    <glyph glyph-name="wcircumflex" unicode="&#x175;" horiz-adv-x="884" 
d="M185 469l91 -329l10 -59h5l12 59l108 410h92l112 -409l10 -59h4l12 59l88 328l-65 19v51h210v-51l-54 -19l-146 -479h-123l-109 371l-106 -371h-123l-150 479l-53 19v51h244v-51zM603 639l-89 151h-115l-88 -151h73l73 81l73 -81h73z" />
    <glyph glyph-name="Ycircumflex" unicode="&#x176;" horiz-adv-x="681" 
d="M360 354l159 292l-81 21v53h247v-53l-82 -21l-199 -364v-208l94 -21v-53h-308v53l94 21v192l-209 380l-83 21v53h296v-53l-84 -21zM536 770l-119 121h-115l-118 -121h73l103 61l103 -61h73z" />
    <glyph glyph-name="ycircumflex" unicode="&#x177;" horiz-adv-x="597" 
d="M524 470l-163 -446q-31 -77 -56.5 -124.5t-56.5 -68.5t-81 -21q-47 0 -80.5 25t-33.5 63q0 33 19 54t50 21q27 0 42 -13t15 -37q0 -12 -9 -28t-29 -19q2 -10 12 -13.5t17 -3.5q14 0 26 6t25.5 27t29.5 64l12 37l-203 477l-60 19v51h244l8 -51l-71 -19l132 -362h4l116 362
l-58 19v51h210v-51zM462 639l-89 151h-115l-88 -151h73l73 81l73 -81h73z" />
    <glyph glyph-name="Ydieresis" unicode="&#x178;" horiz-adv-x="681" 
d="M360 354l159 292l-81 21v53h247v-53l-82 -21l-199 -364v-208l94 -21v-53h-308v53l94 21v192l-209 380l-83 21v53h296v-53l-84 -21zM176 838q0 33 19.5 52.5t51.5 19.5t52 -20t20 -52t-19.5 -51.5t-52.5 -19.5t-52 19t-19 52zM406 838q0 33 19.5 52.5t51.5 19.5t52 -20
t20 -52t-19.5 -51.5t-52.5 -19.5t-52 19t-19 52z" />
    <glyph glyph-name="Zacute" unicode="&#x179;" horiz-adv-x="655" 
d="M505 70l32 163h77v-233h-583v61l419 589h-284l-32 -152h-72v222h529v-61l-419 -589h333zM296 763l60 77q20 24 34 36.5t27 17t30 4.5q21 0 32 -10.5t11 -25.5q0 -12 -6.5 -21.5t-22.5 -20t-45 -28.5l-47 -29h-73z" />
    <glyph glyph-name="zacute" unicode="&#x17a;" horiz-adv-x="551" 
d="M407 66l20 136h77v-202h-463v66l318 408h-204l-24 -131h-77v197h446v-66l-318 -408h225zM240 639l49 76q30 46 49.5 63.5t45.5 17.5q28 0 40 -11.5t12 -28.5q0 -15 -18.5 -34.5t-66.5 -54.5l-38 -28h-73z" />
    <glyph glyph-name="Zdotaccent" unicode="&#x17b;" horiz-adv-x="655" 
d="M505 70l32 163h77v-233h-583v61l419 589h-284l-32 -152h-72v222h529v-61l-419 -589h333zM261 835q0 34 19.5 53.5t52.5 19.5t53 -20t20 -53q0 -32 -19.5 -52t-53.5 -20t-53 19.5t-19 52.5z" />
    <glyph glyph-name="zdotaccent" unicode="&#x17c;" horiz-adv-x="551" 
d="M407 66l20 136h77v-202h-463v66l318 408h-204l-24 -131h-77v197h446v-66l-318 -408h225zM205 691q0 34 19.5 53.5t52.5 19.5t53 -20t20 -53t-19.5 -52.5t-53.5 -19.5t-53 19t-19 53z" />
    <glyph glyph-name="Zcaron" unicode="&#x17d;" horiz-adv-x="655" 
d="M505 70l32 163h77v-233h-583v61l419 589h-284l-32 -152h-72v222h529v-61l-419 -589h333zM390 769l119 121h-73l-103 -61l-103 61h-73l118 -121h115z" />
    <glyph glyph-name="zcaron" unicode="&#x17e;" horiz-adv-x="551" 
d="M407 66l20 136h77v-202h-463v66l318 408h-204l-24 -131h-77v197h446v-66l-318 -408h225zM336 632l87 148h-73l-73 -81l-72 81h-74l86 -148h119z" />
    <glyph glyph-name="uni018F" unicode="&#x18f;" horiz-adv-x="705" 
d="M43 373h480q0 49 -8.5 97t-25.5 84q-25 57 -68 84.5t-109 27.5q-63 0 -114 -30t-85 -81l-47 41q49 71 108 102.5t146 31.5q208 0 291 -153q24 -43 35.5 -98t11.5 -117q0 -114 -37 -197.5t-108.5 -129t-177.5 -45.5q-146 0 -221 84t-75 232q0 15 1 29t3 38zM344 54
q83 0 126 64.5t52 179.5h-349v-38q0 -63 22.5 -109.5t61.5 -71.5t87 -25z" />
    <glyph glyph-name="uni01C4" unicode="&#x1c4;" horiz-adv-x="1430" 
d="M247 70h135q54 0 92.5 16.5t63.5 49.5q28 34 41.5 88.5t13.5 129.5q0 147 -55 222q-26 37 -67 55.5t-99 18.5h-125v-580zM43 720h356q149 0 232 -84q47 -48 72 -118t25 -150q0 -84 -26.5 -157.5t-73.5 -123.5q-83 -87 -238 -87h-347v53l84 21v572l-84 21v53zM1280 70
l32 163h77v-233h-583v61l419 589h-284l-32 -152h-72v222h529v-61l-419 -589h333zM1165 769l119 121h-73l-103 -61l-103 61h-73l118 -121h115z" />
    <glyph glyph-name="uni01C5" unicode="&#x1c5;" horiz-adv-x="1326" 
d="M247 70h135q54 0 92.5 16.5t63.5 49.5q28 34 41.5 88.5t13.5 129.5q0 147 -55 222q-26 37 -67 55.5t-99 18.5h-125v-580zM43 720h356q149 0 232 -84q47 -48 72 -118t25 -150q0 -84 -26.5 -157.5t-73.5 -123.5q-83 -87 -238 -87h-347v53l84 21v572l-84 21v53zM1182 66
l20 136h77v-202h-463v66l318 408h-204l-24 -131h-77v197h446v-66l-318 -408h225zM1110 632l87 148h-73l-73 -81l-72 81h-74l86 -148h119z" />
    <glyph glyph-name="uni01C6" unicode="&#x1c6;" horiz-adv-x="1182" 
d="M41 268q0 65 18 123t50 94q29 32 69 48.5t90 16.5q46 0 82.5 -17t65.5 -61v238l-77 19v51h194v-710l77 -19v-51l-175 -10l-8 82q-31 -46 -70 -64t-90 -18q-54 0 -92.5 16t-64.5 47q-32 36 -50.5 92t-18.5 123zM416 266q0 59 -10 102.5t-25 67.5q-15 25 -37.5 38t-56.5 13
q-28 0 -53 -10.5t-40 -35.5q-14 -24 -21 -67.5t-7 -97.5q0 -58 8 -101.5t22 -68.5q15 -25 39 -39.5t55 -14.5q27 0 51.5 11t39.5 35q17 27 26 70t9 98zM1038 66l20 136h77v-202h-463v66l318 408h-204l-24 -131h-77v197h446v-66l-318 -408h225zM966 632l87 148h-73l-73 -81
l-72 81h-74l86 -148h119z" />
    <glyph glyph-name="uni01C7" unicode="&#x1c7;" horiz-adv-x="1232" 
d="M252 646v-576h252l34 173h75v-243h-575v53l94 21v572l-94 21v53h318v-53zM998 207v439l-99 21v53h298v-53l-79 -21v-428q0 -69 -29.5 -120.5t-82.5 -80t-124 -28.5q-68 0 -120 23t-81.5 64t-29.5 96q0 44 19 70.5t57 26.5q33 0 53 -18.5t20 -49.5q0 -23 -13 -46.5
t-30 -31.5q4 -28 34.5 -47t84.5 -19q60 0 91 37.5t31 112.5z" />
    <glyph glyph-name="uni01C8" unicode="&#x1c8;" horiz-adv-x="928" 
d="M252 646v-576h252l34 173h75v-243h-575v53l94 21v572l-94 21v53h318v-53zM850 540v-455q0 -74 -4.5 -116.5t-17.5 -69.5q-21 -46 -57.5 -67.5t-88.5 -21.5q-60 0 -98 25.5t-38 69.5q0 28 17 47.5t47 19.5q27 0 43 -17t16 -43q0 -11 -4 -22t-13 -18q2 -10 12.5 -12.5
t18.5 -2.5q26 0 38 28t12 101v484l-77 19v51h194zM723 695q0 31 18.5 50t51.5 19t52 -19t19 -50q0 -30 -18.5 -49t-52.5 -19t-52 18.5t-18 49.5z" />
    <glyph glyph-name="uni01C9" unicode="&#x1c9;" horiz-adv-x="615" 
d="M101 71v638l-77 19v52h194v-709l77 -19v-52h-271v52zM537 540v-455q0 -74 -4.5 -116.5t-17.5 -69.5q-21 -46 -57.5 -67.5t-88.5 -21.5q-60 0 -98 25.5t-38 69.5q0 28 17 47.5t47 19.5q27 0 43 -17t16 -43q0 -11 -4 -22t-13 -18q2 -10 12.5 -12.5t18.5 -2.5q26 0 38 28
t12 101v484l-77 19v51h194zM410 695q0 31 18.5 50t51.5 19t52 -19t19 -50q0 -30 -18.5 -49t-52.5 -19t-52 18.5t-18 49.5z" />
    <glyph glyph-name="uni01CA" unicode="&#x1ca;" horiz-adv-x="1395" 
d="M127 74v572l-84 21v53h218l347 -536v462l-84 21v53h253v-53l-84 -21v-646h-97l-384 582v-508l84 -21v-53h-253v53zM1161 207v439l-99 21v53h298v-53l-79 -21v-428q0 -69 -29.5 -120.5t-82.5 -80t-124 -28.5q-68 0 -120 23t-81.5 64t-29.5 96q0 44 19 70.5t57 26.5
q33 0 53 -18.5t20 -49.5q0 -23 -13 -46.5t-30 -31.5q4 -28 34.5 -47t84.5 -19q60 0 91 37.5t31 112.5z" />
    <glyph glyph-name="uni01CB" unicode="&#x1cb;" horiz-adv-x="1094" 
d="M127 74v572l-84 21v53h218l347 -536v462l-84 21v53h253v-53l-84 -21v-646h-97l-384 582v-508l84 -21v-53h-253v53zM1016 540v-455q0 -74 -4.5 -116.5t-17.5 -69.5q-21 -46 -57.5 -67.5t-88.5 -21.5q-60 0 -98 25.5t-38 69.5q0 28 17 47.5t47 19.5q27 0 43 -17t16 -43
q0 -11 -4 -22t-13 -18q2 -10 12.5 -12.5t18.5 -2.5q26 0 38 28t12 101v484l-77 19v51h194zM889 695q0 31 18.5 50t51.5 19t52 -19t19 -50q0 -30 -18.5 -49t-52.5 -19t-52 18.5t-18 49.5z" />
    <glyph glyph-name="uni01CC" unicode="&#x1cc;" horiz-adv-x="962" 
d="M110 70v400l-77 19v51h164l22 -100h4q30 51 81 80.5t109 29.5q83 0 123 -54q20 -28 28.5 -78.5t8.5 -136.5v-211l77 -19v-51h-261v51l67 19v203q0 62 -3.5 95t-12.5 52q-12 25 -32 36t-48 11q-52 0 -88 -34q-41 -37 -45 -116v-247l67 -19v-51h-261v51zM885 540v-455
q0 -74 -4.5 -116.5t-17.5 -69.5q-21 -46 -57.5 -67.5t-88.5 -21.5q-60 0 -98 25.5t-38 69.5q0 28 17 47.5t47 19.5q27 0 43 -17t16 -43q0 -11 -4 -22t-13 -18q2 -10 12.5 -12.5t18.5 -2.5q26 0 38 28t12 101v484l-77 19v51h194zM758 695q0 31 18.5 50t51.5 19t52 -19t19 -50
q0 -30 -18.5 -49t-52.5 -19t-52 18.5t-18 49.5z" />
    <glyph glyph-name="uni01EA" unicode="&#x1ea;" horiz-adv-x="771" 
d="M724 368q0 -84 -24.5 -161t-75.5 -130q-42 -44 -101 -65.5t-140 -21.5q-82 0 -141 21t-100 63q-44 46 -70 118.5t-26 159.5t26.5 163.5t73.5 127.5q42 45 100 66t139 21q79 0 139 -20t103 -64q51 -51 74 -124t23 -154zM181 371q0 -79 14.5 -140.5t39.5 -100.5
q25 -37 62 -56t91 -19q98 0 147 66q26 36 40 94.5t14 138.5t-14 140t-41 98q-26 38 -64.5 56t-87.5 18t-85 -17t-60 -49q-56 -74 -56 -229zM362 -210q-51 0 -79 23.5t-28 61.5q0 75 114 139h61q-19 -12 -38 -31.5t-32 -41t-13 -41.5t13.5 -31t36.5 -11q17 0 33.5 4.5
t28.5 14.5l21 -31q-17 -26 -44.5 -41t-73.5 -15z" />
    <glyph glyph-name="uni01EB" unicode="&#x1eb;" horiz-adv-x="590" 
d="M550 272q0 -65 -19 -122t-54 -95q-32 -34 -77.5 -49.5t-105.5 -15.5t-105 15t-77 49q-35 38 -53.5 94t-18.5 120t18.5 122t54.5 95q32 35 77.5 50t104.5 15q60 0 105.5 -15t77.5 -49q35 -37 53.5 -93.5t18.5 -120.5zM188 156q10 -34 28 -55.5t45 -30.5t50 -7t45 16
q44 32 55 131q6 50 3.5 94t-12.5 80q-9 34 -27.5 55.5t-45.5 30.5t-50 7t-45 -16q-45 -32 -55 -130q-12 -102 9 -175zM272 -210q-51 0 -79 23.5t-28 61.5q0 75 114 139h61q-19 -12 -38 -31.5t-32 -41t-13 -41.5t13.5 -31t36.5 -11q17 0 33.5 4.5t28.5 14.5l21 -31
q-17 -26 -44.5 -41t-73.5 -15z" />
    <glyph glyph-name="uni01F1" unicode="&#x1f1;" horiz-adv-x="1424" 
d="M247 70h135q54 0 92.5 16.5t63.5 49.5q28 34 41.5 88.5t13.5 129.5q0 147 -55 222q-26 37 -67 55.5t-99 18.5h-125v-580zM43 720h356q149 0 232 -84q47 -48 72 -118t25 -150q0 -84 -26.5 -157.5t-73.5 -123.5q-83 -87 -238 -87h-347v53l84 21v572l-84 21v53zM1274 70
l32 163h77v-233h-583v61l419 589h-284l-32 -152h-72v222h529v-61l-419 -589h333z" />
    <glyph glyph-name="uni01F2" unicode="&#x1f2;" horiz-adv-x="1326" 
d="M247 70h135q54 0 92.5 16.5t63.5 49.5q28 34 41.5 88.5t13.5 129.5q0 147 -55 222q-26 37 -67 55.5t-99 18.5h-125v-580zM43 720h356q149 0 232 -84q47 -48 72 -118t25 -150q0 -84 -26.5 -157.5t-73.5 -123.5q-83 -87 -238 -87h-347v53l84 21v572l-84 21v53zM1182 66
l20 136h77v-202h-463v66l318 408h-204l-24 -131h-77v197h446v-66l-318 -408h225z" />
    <glyph glyph-name="uni01F3" unicode="&#x1f3;" horiz-adv-x="1182" 
d="M41 268q0 65 18 123t50 94q29 32 69 48.5t90 16.5q46 0 82.5 -17t65.5 -61v238l-77 19v51h194v-710l77 -19v-51l-175 -10l-8 82q-31 -46 -70 -64t-90 -18q-54 0 -92.5 16t-64.5 47q-32 36 -50.5 92t-18.5 123zM416 266q0 59 -10 102.5t-25 67.5q-15 25 -37.5 38t-56.5 13
q-28 0 -53 -10.5t-40 -35.5q-14 -24 -21 -67.5t-7 -97.5q0 -58 8 -101.5t22 -68.5q15 -25 39 -39.5t55 -14.5q27 0 51.5 11t39.5 35q17 27 26 70t9 98zM1038 66l20 136h77v-202h-463v66l318 408h-204l-24 -131h-77v197h446v-66l-318 -408h225z" />
    <glyph glyph-name="Aringacute" unicode="&#x1fa;" horiz-adv-x="726" 
d="M276 760q0 36 24.5 56t61.5 20h1.5h1.5q20 26 33.5 39.5t25.5 18t26 4.5q19 0 28 -10t9 -24q0 -13 -12 -24t-45 -32q17 -19 17 -48q0 -35 -27 -56l234 -630l80 -21v-53h-295v53l82 21l-54 163h-252l-55 -163l83 -21v-53h-254v53l82 21l235 628q-13 10 -21.5 24.5
t-8.5 33.5zM343 591l-105 -286h207l-98 286h-4zM334 760q0 -13 7 -20t20 -7t21 7t8 20q0 14 -8 21.5t-21 7.5t-20 -7.5t-7 -21.5z" />
    <glyph glyph-name="aringacute" unicode="&#x1fb;" horiz-adv-x="545" 
d="M205 652l38 -33l-31 -29h-53zM323 698l-50 46q24 32 36.5 41.5t28.5 9.5q34 0 34 -31q0 -14 -9.5 -27t-39.5 -39zM33 118q0 81 75 126.5t240 70.5q-4 53 -11 82t-18 48q-14 24 -35 37.5t-50 13.5q-23 0 -42 -8.5t-26 -23.5q14 -8 20 -23.5t6 -27.5q0 -25 -20.5 -43
t-48.5 -18q-29 0 -46 19t-17 50q0 41 29 70t73.5 44t90.5 15q45 0 81.5 -13t59.5 -35q74 -67 74 -221v-135q0 -49 6.5 -68t28.5 -19h45v-40q-86 -29 -130 -29q-33 0 -43.5 22t-10.5 87h-4q-31 -51 -82 -80t-110 -29q-63 0 -99 34t-36 94zM222 58q24 0 51 14t47 40
q12 16 21.5 42.5t9.5 62.5q0 14 -1 29.5t-3 28.5q-73 -15 -115 -32.5t-59 -41.5t-17 -60q0 -43 19.5 -63t46.5 -20zM170 681q0 41 26.5 68.5t67.5 27.5q40 0 68 -27.5t28 -68.5q0 -40 -28 -67t-68 -27q-41 0 -67.5 27t-26.5 67zM231 681q0 -14 9.5 -23.5t23.5 -9.5
q15 0 24.5 9.5t9.5 23.5q0 15 -9.5 25t-24.5 10q-14 0 -23.5 -10t-9.5 -25z" />
    <glyph glyph-name="AEacute" unicode="&#x1fc;" horiz-adv-x="1067" 
d="M861 238h-71l-17 97h-147v-265h284l29 153h78v-223h-605v53l94 21v163h-236l-89 -163l74 -21v-53h-267v53l99 21l326 582l-78 11v53h660v-212h-72l-30 144h-267v-247h147l17 97h71v-264zM506 646l-13 2l-185 -343h198v341zM591 763l60 77q20 24 34 36.5t27 17t30 4.5
q21 0 32 -10.5t11 -25.5q0 -12 -6.5 -21.5t-22.5 -20t-45 -28.5l-47 -29h-73z" />
    <glyph glyph-name="aeacute" unicode="&#x1fd;" horiz-adv-x="845" 
d="M33 117q0 78 73 125.5t242 72.5q-4 55 -11 83t-18 47q-14 26 -37 38.5t-52 12.5q-20 0 -39.5 -10t-25.5 -27q14 -10 20.5 -25t6.5 -29q0 -24 -17.5 -40t-47.5 -16t-48.5 18.5t-18.5 52.5q0 42 29.5 71t74 44t89.5 15q56 0 99.5 -25.5t57.5 -77.5h5q20 51 64.5 77
t101.5 26q111 0 168.5 -63.5t57.5 -175.5q0 -10 -0.5 -21t-2.5 -31h-349q0 -37 5 -65t15 -51q17 -41 48.5 -58.5t68.5 -17.5q47 0 86 19.5t70 53.5l51 -37q-26 -32 -57 -57.5t-72.5 -40.5t-99.5 -15q-67 0 -115.5 27.5t-77.5 81.5h-7q-31 -51 -80.5 -80t-121.5 -29
q-63 0 -99 34t-36 93zM568 486q-50 0 -78 -41.5t-34 -126.5h230v28q0 67 -30.5 103.5t-87.5 36.5zM230 58q23 0 48 15t44 40q14 19 21.5 43.5t7.5 58.5q0 17 -1 31t-3 29q-73 -16 -114.5 -33.5t-59 -41.5t-17.5 -62t19.5 -59t54.5 -21zM376 639l49 76q30 46 49.5 63.5
t45.5 17.5q28 0 40 -11.5t12 -28.5q0 -15 -18.5 -34.5t-66.5 -54.5l-38 -28h-73z" />
    <glyph glyph-name="Oslashacute" unicode="&#x1fe;" horiz-adv-x="768" 
d="M64 -10l526 740h91l-526 -740h-91zM722 368q0 -84 -24.5 -161t-75.5 -130q-42 -44 -101 -65.5t-140 -21.5q-82 0 -141 21t-100 63q-44 46 -70 118.5t-26 159.5t26.5 163.5t73.5 127.5q42 45 100 66t139 21q79 0 139 -20t103 -64q51 -51 74 -124t23 -154zM179 371
q0 -79 14.5 -140.5t39.5 -100.5q25 -37 62 -56t91 -19q98 0 147 66q26 36 40 94.5t14 138.5t-14 140t-41 98q-26 38 -64.5 56t-87.5 18t-85 -17t-60 -49q-56 -74 -56 -229zM344 763l61 77q19 24 33 36.5t27 17t30 4.5q22 0 33 -10.5t11 -25.5q0 -12 -6.5 -21.5t-22.5 -20
t-46 -28.5l-47 -29h-73z" />
    <glyph glyph-name="oslashacute" unicode="&#x1ff;" horiz-adv-x="590" 
d="M90 -60l334 642h84l-334 -642h-84zM550 272q0 -65 -19 -122t-54 -95q-32 -34 -77.5 -49.5t-105.5 -15.5t-105 15t-77 49q-35 38 -53.5 94t-18.5 120t18.5 122t54.5 95q32 35 77.5 50t104.5 15q60 0 105.5 -15t77.5 -49q35 -37 53.5 -93.5t18.5 -120.5zM188 156
q10 -34 28 -55.5t45 -30.5t50 -7t45 16q44 32 55 131q6 50 3.5 94t-12.5 80q-9 34 -27.5 55.5t-45.5 30.5t-50 7t-45 -16q-45 -32 -55 -130q-12 -102 9 -175zM255 639l49 76q30 46 49.5 63.5t45.5 17.5q28 0 40 -11.5t12 -28.5q0 -15 -18.5 -34.5t-66.5 -54.5l-38 -28h-73z
" />
    <glyph glyph-name="uni0218" unicode="&#x218;" horiz-adv-x="608" 
d="M322 -11q-58 0 -100.5 17t-73.5 52l-11 -58h-76v237h81q6 -98 48.5 -140.5t118.5 -42.5q61 0 96 25t35 77q0 41 -22.5 68.5t-63 49t-94.5 43.5q-63 26 -107 52.5t-66.5 64t-22.5 95.5q0 96 59.5 149t159.5 53q99 0 161 -56l8 45h76v-237h-77q0 95 -35.5 139.5
t-109.5 44.5q-121 0 -121 -113q0 -34 13 -55.5t45.5 -39.5t88.5 -43q84 -37 134.5 -70t72.5 -70t22 -87q0 -65 -31.5 -110t-85.5 -67.5t-122 -22.5zM333 -44q31 0 48.5 -17.5t17.5 -47.5q0 -39 -22 -70.5t-72 -58.5l-27 30q27 21 39 37t13 32l-3 2q-3 -5 -17 -5
q-18 0 -28.5 13.5t-10.5 31.5q0 24 16 38.5t46 14.5z" />
    <glyph glyph-name="uni0219" unicode="&#x219;" horiz-adv-x="512" 
d="M243 46q52 0 87.5 20.5t35.5 56.5q0 29 -21.5 47.5t-54 31t-66.5 21.5q-41 13 -79 32.5t-62 52t-24 83.5q0 72 52.5 115.5t148.5 43.5q88 0 139.5 -37t51.5 -97q0 -33 -17 -51.5t-47 -18.5q-29 0 -46 15t-17 37q0 17 10 33t26 23q-13 20 -37 30t-60 10q-50 0 -76 -20
t-26 -58q0 -27 13 -44.5t36.5 -29t56.5 -21.5q38 -11 75 -24t66.5 -31.5t47 -46t17.5 -66.5q0 -52 -30.5 -88.5t-83 -55.5t-119.5 -19q-93 0 -147 35.5t-54 95.5q0 38 20.5 59.5t50.5 21.5q24 0 43 -13.5t19 -38.5q0 -18 -10.5 -35t-25.5 -25q11 -17 37.5 -30.5t69.5 -13.5z
M260 -44q31 0 48.5 -17.5t17.5 -47.5q0 -39 -22 -70.5t-72 -58.5l-27 30q27 21 39 37t13 32l-3 2q-3 -5 -17 -5q-18 0 -28.5 13.5t-10.5 31.5q0 24 16 38.5t46 14.5z" />
    <glyph glyph-name="uni021A" unicode="&#x21a;" horiz-adv-x="669" 
d="M26 720h616v-220h-60l-32 150h-156v-573l106 -24v-53h-332v53l106 24v573h-157l-31 -150h-60v220zM339 -44q31 0 48.5 -17.5t17.5 -47.5q0 -39 -22 -70.5t-72 -58.5l-27 30q27 21 39 37t13 32l-3 2q-3 -5 -17 -5q-18 0 -28.5 13.5t-10.5 31.5q0 24 16 38.5t46 14.5z" />
    <glyph glyph-name="uni021B" unicode="&#x21b;" horiz-adv-x="357" 
d="M6 480v46l98 14l12 125l104 14v-139h128v-60h-128v-337q0 -34 1 -46.5t4 -20.5q3 -6 11 -9t26 -3h70v-39q-55 -18 -96.5 -26.5t-66.5 -8.5q-45 0 -58 37q-4 12 -6 31t-2 56v366h-97zM187 -44q31 0 48.5 -17.5t17.5 -47.5q0 -39 -22 -70.5t-72 -58.5l-27 30q27 21 39 37
t13 32l-3 2q-3 -5 -17 -5q-18 0 -28.5 13.5t-10.5 31.5q0 24 16 38.5t46 14.5z" />
    <glyph glyph-name="uni0237" unicode="&#x237;" horiz-adv-x="295" 
d="M217 540v-455q0 -74 -5 -116.5t-17 -69.5q-19 -43 -55 -66t-87 -23q-35 0 -67 11t-52.5 33t-20.5 54q0 28 16.5 46t47.5 18q26 0 42 -14.5t16 -42.5q0 -13 -4 -24t-12 -19q2 -8 11.5 -12t19.5 -4q23 0 33.5 18t13.5 45.5t3 56.5v494l-77 19v51h194z" />
    <glyph glyph-name="uni0259" unicode="&#x259;" horiz-adv-x="553" 
d="M42 281h349q0 34 -5.5 60t-14.5 46q-21 46 -57 66t-80 20q-41 0 -80 -19t-67 -53l-41 33q24 32 53 58.5t70 42t99 15.5q77 0 131 -29t84 -87q15 -30 22 -68t7 -82q0 -140 -64 -217t-184 -77q-112 0 -168.5 63.5t-56.5 175.5q0 11 0.5 21t2.5 31zM268 54q59 0 87.5 42.5
t34.5 125.5h-230v-28q0 -67 30 -103.5t78 -36.5z" />
    <glyph glyph-name="apostrophe" unicode="&#x2bc;" horiz-adv-x="175" 
d="M92 797q30 0 46.5 -20.5t16.5 -51.5q0 -39 -28 -79t-74 -66l-33 36q37 26 53 47t17 31l-3 2q-3 -2 -8 -4t-13 -2q-18 0 -29.5 15t-11.5 35q0 21 17.5 39t49.5 18z" />
    <glyph glyph-name="circumflex" unicode="&#x2c6;" horiz-adv-x="352" 
d="M322 639l-89 151h-115l-88 -151h73l73 81l73 -81h73z" />
    <glyph glyph-name="caron" unicode="&#x2c7;" horiz-adv-x="352" 
d="M235 632l87 148h-73l-73 -81l-72 81h-74l86 -148h119z" />
    <glyph glyph-name="breve" unicode="&#x2d8;" horiz-adv-x="364" 
d="M339 780h-58q0 -43 -27.5 -62.5t-77.5 -19.5q-39 0 -65 19.5t-28 62.5h-58q0 -76 39.5 -123.5t111.5 -47.5q70 0 115.5 45.5t47.5 125.5z" />
    <glyph glyph-name="dotaccent" unicode="&#x2d9;" horiz-adv-x="185" 
d="M20 691q0 34 19.5 53.5t52.5 19.5t53 -20t20 -53t-19.5 -52.5t-53.5 -19.5t-53 19t-19 53z" />
    <glyph glyph-name="ring" unicode="&#x2da;" horiz-adv-x="240" 
d="M25 713q0 41 27 68.5t67 27.5q41 0 68.5 -27.5t27.5 -68.5q0 -40 -27.5 -67t-68.5 -27q-40 0 -67 27t-27 67zM86 713q0 -14 9.5 -23.5t23.5 -9.5q15 0 25 9.5t10 23.5q0 15 -10 25t-25 10q-14 0 -23.5 -10t-9.5 -25z" />
    <glyph glyph-name="ogonek" unicode="&#x2db;" horiz-adv-x="275" 
d="M132 -210q-51 0 -79 23.5t-28 61.5q0 75 114 139h61q-19 -12 -38 -31.5t-32 -41t-13 -41.5t13.5 -31t36.5 -11q17 0 33.5 4.5t28.5 14.5l21 -31q-17 -26 -44.5 -41t-73.5 -15z" />
    <glyph glyph-name="tilde" unicode="&#x2dc;" horiz-adv-x="398" 
d="M5 629q4 68 36.5 101.5t85.5 33.5q26 0 44.5 -8.5t34.5 -19t32 -19t35 -8.5q30 0 45 13t20 37h55q-20 -141 -122 -141q-25 0 -44 8.5t-35 19.5t-31.5 19.5t-35.5 8.5q-30 0 -45 -12t-20 -33h-55z" />
    <glyph glyph-name="hungarumlaut" unicode="&#x2dd;" horiz-adv-x="425" 
d="M20 639l49 76q30 46 49.5 63.5t45.5 17.5q28 0 40 -11.5t12 -28.5q0 -15 -18.5 -34.5t-66.5 -54.5l-38 -28h-73zM205 639l49 76q31 46 50.5 63.5t44.5 17.5q29 0 41 -11.5t12 -28.5q0 -15 -19 -34.5t-67 -54.5l-38 -28h-73z" />
    <glyph glyph-name="gravecomb" unicode="&#x300;" 
d="M180 715l49 -76h-73l-38 28q-48 35 -66.5 54.5t-18.5 34.5q0 17 12 28.5t40 11.5q26 0 45.5 -17.5t49.5 -63.5z" />
    <glyph glyph-name="acutecomb" unicode="&#x301;" 
d="M30 639l49 76q30 46 49.5 63.5t45.5 17.5q28 0 40 -11.5t12 -28.5q0 -15 -18.5 -34.5t-66.5 -54.5l-38 -28h-73z" />
    <glyph glyph-name="uni0302" unicode="&#x302;" 
d="M322 639l-89 151h-115l-88 -151h73l73 81l73 -81h73z" />
    <glyph glyph-name="tildecomb" unicode="&#x303;" 
d="M5 629q4 68 36.5 101.5t85.5 33.5q26 0 44.5 -8.5t34.5 -19t32 -19t35 -8.5q30 0 45 13t20 37h55q-20 -141 -122 -141q-25 0 -44 8.5t-35 19.5t-31.5 19.5t-35.5 8.5q-30 0 -45 -12t-20 -33h-55z" />
    <glyph glyph-name="uni0304" unicode="&#x304;" 
d="M25 645v85h279v-85h-279z" />
    <glyph glyph-name="uni0306" unicode="&#x306;" 
d="M339 780h-58q0 -43 -27.5 -62.5t-77.5 -19.5q-39 0 -65 19.5t-28 62.5h-58q0 -76 39.5 -123.5t111.5 -47.5q70 0 115.5 45.5t47.5 125.5z" />
    <glyph glyph-name="uni0307" unicode="&#x307;" 
d="M20 691q0 34 19.5 53.5t52.5 19.5t53 -20t20 -53t-19.5 -52.5t-53.5 -19.5t-53 19t-19 53z" />
    <glyph glyph-name="uni0308" unicode="&#x308;" 
d="M20 695q0 33 18 51t50 18t50.5 -18.5t18.5 -50.5t-18 -50t-51 -18q-32 0 -50 18t-18 50zM250 695q0 33 18 51t50 18t50.5 -18.5t18.5 -50.5t-18 -50t-51 -18q-32 0 -50 18t-18 50z" />
    <glyph glyph-name="uni030A" unicode="&#x30a;" 
d="M25 713q0 41 27 68.5t67 27.5q41 0 68.5 -27.5t27.5 -68.5q0 -40 -27.5 -67t-68.5 -27q-40 0 -67 27t-27 67zM86 713q0 -14 9.5 -23.5t23.5 -9.5q15 0 25 9.5t10 23.5q0 15 -10 25t-25 10q-14 0 -23.5 -10t-9.5 -25z" />
    <glyph glyph-name="uni030B" unicode="&#x30b;" 
d="M20 639l49 76q30 46 49.5 63.5t45.5 17.5q28 0 40 -11.5t12 -28.5q0 -15 -18.5 -34.5t-66.5 -54.5l-38 -28h-73zM205 639l49 76q31 46 50.5 63.5t44.5 17.5q29 0 41 -11.5t12 -28.5q0 -15 -19 -34.5t-67 -54.5l-38 -28h-73z" />
    <glyph glyph-name="uni030C" unicode="&#x30c;" 
d="M235 632l87 148h-73l-73 -81l-72 81h-74l86 -148h119z" />
    <glyph glyph-name="dotbelowcomb" unicode="&#x323;" 
d="M20 -129q0 35 19.5 55t53.5 20q33 0 53 -20t20 -54q0 -33 -19.5 -53t-54.5 -20q-34 0 -53 19t-19 53z" />
    <glyph glyph-name="commaaccentcomb" unicode="&#x326;" 
d="M97 -44q31 0 48.5 -17.5t17.5 -47.5q0 -39 -22 -70.5t-72 -58.5l-27 30q27 21 39 37t13 32l-3 2q-3 -5 -17 -5q-18 0 -28.5 13.5t-10.5 31.5q0 24 16 38.5t46 14.5z" />
    <glyph glyph-name="uni0327" unicode="&#x327;" 
d="M106 -210q-53 0 -91 28l30 40q29 -20 59 -20q20 0 31.5 8t11.5 22q0 13 -13 20.5t-35 7.5q-11 0 -23 -1.5t-21 -4.5l-16 27l77 100h64l-43 -72l1 -3q56 0 78.5 -18t22.5 -50q0 -40 -39 -62t-94 -22z" />
    <glyph glyph-name="uni0328" unicode="&#x328;" 
d="M132 -210q-51 0 -79 23.5t-28 61.5q0 75 114 139h61q-19 -12 -38 -31.5t-32 -41t-13 -41.5t13.5 -31t36.5 -11q17 0 33.5 4.5t28.5 14.5l21 -31q-17 -26 -44.5 -41t-73.5 -15z" />
    <glyph glyph-name="uni03BC.1" unicode="&#x3bc;" horiz-adv-x="652" 
d="M96 -179v649l-67 19v51h184v-273q0 -64 3.5 -96.5t12.5 -50.5q23 -49 84 -49q20 0 40 10t36 26q21 21 31.5 47.5t13.5 68.5v247l-87 19v51h204v-470l77 -19v-51l-175 -10l-11 110h-4q-28 -52 -64.5 -81t-76.5 -29q-35 0 -58.5 17.5t-31.5 51.5h-4l10 -238h-117z" />
    <glyph glyph-name="uni1E0C" unicode="&#x1e0c;" horiz-adv-x="775" 
d="M247 70h135q54 0 92.5 16.5t63.5 49.5q28 34 41.5 88.5t13.5 129.5q0 147 -55 222q-26 37 -67 55.5t-99 18.5h-125v-580zM43 720h356q149 0 232 -84q47 -48 72 -118t25 -150q0 -84 -26.5 -157.5t-73.5 -123.5q-83 -87 -238 -87h-347v53l84 21v572l-84 21v53zM278 -129
q0 35 19.5 55t53.5 20q33 0 53 -20t20 -54q0 -33 -19.5 -53t-54.5 -20q-34 0 -53 19t-19 53z" />
    <glyph glyph-name="uni1E0D" unicode="&#x1e0d;" horiz-adv-x="631" 
d="M41 268q0 65 18 123t50 94q29 32 69 48.5t90 16.5q46 0 82.5 -17t65.5 -61v238l-77 19v51h194v-710l77 -19v-51l-175 -10l-8 82q-31 -46 -70 -64t-90 -18q-54 0 -92.5 16t-64.5 47q-32 36 -50.5 92t-18.5 123zM416 266q0 59 -10 102.5t-25 67.5q-15 25 -37.5 38t-56.5 13
q-28 0 -53 -10.5t-40 -35.5q-14 -24 -21 -67.5t-7 -97.5q0 -58 8 -101.5t22 -68.5q15 -25 39 -39.5t55 -14.5q27 0 51.5 11t39.5 35q17 27 26 70t9 98zM240 -129q0 35 19.5 55t53.5 20q33 0 53 -20t20 -54q0 -33 -19.5 -53t-54.5 -20q-34 0 -53 19t-19 53z" />
    <glyph glyph-name="uni1E24" unicode="&#x1e24;" horiz-adv-x="814" 
d="M686 646v-572l84 -21v-53h-288v53l84 21v262h-319v-262l84 -21v-53h-288v53l84 21v572l-84 21v53h288v-53l-84 -21v-242h319v242l-84 21v53h288v-53zM337 -129q0 35 19.5 55t53.5 20q33 0 53 -20t20 -54q0 -33 -19.5 -53t-54.5 -20q-34 0 -53 19t-19 53z" />
    <glyph glyph-name="uni1E25" unicode="&#x1e25;" horiz-adv-x="653" 
d="M444 70v203q0 65 -3.5 96.5t-12.5 50.5q-24 49 -88 49q-28 0 -54 -12.5t-43 -35.5q-12 -15 -19.5 -39.5t-8.5 -60.5v-251l67 -19v-51h-261v51l77 19v640l-77 19v51h194v-334q27 48 72 76t98 28q42 0 72.5 -11.5t51.5 -35.5q27 -31 39.5 -83.5t12.5 -138.5v-211l77 -19
v-51h-261v51zM258 -129q0 35 19.5 55t53.5 20q33 0 53 -20t20 -54q0 -33 -19.5 -53t-54.5 -20q-34 0 -53 19t-19 53z" />
    <glyph glyph-name="uni1E44" unicode="&#x1e44;" horiz-adv-x="812" 
d="M127 74v572l-84 21v53h218l347 -536v462l-84 21v53h253v-53l-84 -21v-646h-97l-384 582v-508l84 -21v-53h-253v53zM333 835q0 34 19.5 53.5t52.5 19.5t53 -20t20 -53q0 -32 -19.5 -52t-53.5 -20t-53 19.5t-19 52.5z" />
    <glyph glyph-name="uni1E45" unicode="&#x1e45;" horiz-adv-x="668" 
d="M110 70v400l-77 19v51h164l22 -100h4q30 51 81 80.5t109 29.5q83 0 123 -54q20 -28 28.5 -78.5t8.5 -136.5v-211l77 -19v-51h-261v51l67 19v203q0 62 -3.5 95t-12.5 52q-12 25 -32 36t-48 11q-52 0 -88 -34q-41 -37 -45 -116v-247l67 -19v-51h-261v51zM264 691
q0 34 19.5 53.5t52.5 19.5t53 -20t20 -53t-19.5 -52.5t-53.5 -19.5t-53 19t-19 53z" />
    <glyph glyph-name="uni1E5A" unicode="&#x1e5a;" horiz-adv-x="713" 
d="M558 382q-18 -14 -41 -26t-58 -20q7 -6 17.5 -19t20.5 -30l127 -215l89 -19v-53h-226v53l-135 265h-105v-244l95 -21v-53h-299v53l84 21v572l-84 21v53h364q48 0 84.5 -9t64.5 -29q37 -25 57.5 -66.5t20.5 -83.5t-20.5 -82.5t-55.5 -67.5zM247 386h123q55 0 91 31
q20 17 31.5 46t11.5 63q0 32 -11.5 57.5t-32.5 42.5q-17 14 -39.5 20t-54.5 6h-119v-266zM308 -129q0 35 19.5 55t53.5 20q33 0 53 -20t20 -54q0 -33 -19.5 -53t-54.5 -20q-34 0 -53 19t-19 53z" />
    <glyph glyph-name="uni1E5B" unicode="&#x1e5b;" horiz-adv-x="469" 
d="M332 472q-1 1 -3 1.5t-3 0.5q-12 0 -26 -12.5t-26 -31t-19 -35.5q-12 -34 -21 -71.5t-9 -86.5v-167l108 -19v-51h-302v51l77 19v410l-77 19v41h164l22 -132h4q23 68 62 105t86 37q39 0 65 -24.5t26 -65.5q0 -30 -17 -52t-48 -22q-35 0 -51.5 17.5t-16.5 41.5q0 7 1 11z
M96 -129q0 35 19.5 55t53.5 20q33 0 53 -20t20 -54q0 -33 -19.5 -53t-54.5 -20q-34 0 -53 19t-19 53z" />
    <glyph glyph-name="uni1E62" unicode="&#x1e62;" horiz-adv-x="608" 
d="M322 -11q-58 0 -100.5 17t-73.5 52l-11 -58h-76v237h81q6 -98 48.5 -140.5t118.5 -42.5q61 0 96 25t35 77q0 41 -22.5 68.5t-63 49t-94.5 43.5q-63 26 -107 52.5t-66.5 64t-22.5 95.5q0 96 59.5 149t159.5 53q99 0 161 -56l8 45h76v-237h-77q0 95 -35.5 139.5
t-109.5 44.5q-121 0 -121 -113q0 -34 13 -55.5t45.5 -39.5t88.5 -43q84 -37 134.5 -70t72.5 -70t22 -87q0 -65 -31.5 -110t-85.5 -67.5t-122 -22.5zM248 -129q0 35 19.5 55t53.5 20q33 0 53 -20t20 -54q0 -33 -19.5 -53t-54.5 -20q-34 0 -53 19t-19 53z" />
    <glyph glyph-name="uni1E63" unicode="&#x1e63;" horiz-adv-x="512" 
d="M243 46q52 0 87.5 20.5t35.5 56.5q0 29 -21.5 47.5t-54 31t-66.5 21.5q-41 13 -79 32.5t-62 52t-24 83.5q0 72 52.5 115.5t148.5 43.5q88 0 139.5 -37t51.5 -97q0 -33 -17 -51.5t-47 -18.5q-29 0 -46 15t-17 37q0 17 10 33t26 23q-13 20 -37 30t-60 10q-50 0 -76 -20
t-26 -58q0 -27 13 -44.5t36.5 -29t56.5 -21.5q38 -11 75 -24t66.5 -31.5t47 -46t17.5 -66.5q0 -52 -30.5 -88.5t-83 -55.5t-119.5 -19q-93 0 -147 35.5t-54 95.5q0 38 20.5 59.5t50.5 21.5q24 0 43 -13.5t19 -38.5q0 -18 -10.5 -35t-25.5 -25q11 -17 37.5 -30.5t69.5 -13.5z
M179 -129q0 35 19.5 55t53.5 20q33 0 53 -20t20 -54q0 -33 -19.5 -53t-54.5 -20q-34 0 -53 19t-19 53z" />
    <glyph glyph-name="uni1E6C" unicode="&#x1e6c;" horiz-adv-x="669" 
d="M26 720h616v-220h-60l-32 150h-156v-573l106 -24v-53h-332v53l106 24v573h-157l-31 -150h-60v220zM261 -129q0 35 19.5 55t53.5 20q33 0 53 -20t20 -54q0 -33 -19.5 -53t-54.5 -20q-34 0 -53 19t-19 53z" />
    <glyph glyph-name="uni1E6D" unicode="&#x1e6d;" horiz-adv-x="357" 
d="M6 480v46l98 14l12 125l104 14v-139h128v-60h-128v-337q0 -34 1 -46.5t4 -20.5q3 -6 11 -9t26 -3h70v-39q-55 -18 -96.5 -26.5t-66.5 -8.5q-45 0 -58 37q-4 12 -6 31t-2 56v366h-97zM128 -129q0 35 19.5 55t53.5 20q33 0 53 -20t20 -54q0 -33 -19.5 -53t-54.5 -20
q-34 0 -53 19t-19 53z" />
    <glyph glyph-name="Wgrave" unicode="&#x1e80;" horiz-adv-x="1048" 
d="M737 116l146 531l-79 20v53h249v-53l-83 -21l-187 -646h-124l-136 448l-124 -448h-124l-206 646l-78 21v53h304v-53l-96 -21l150 -529h4l129 479l-10 50l-78 21v53h284v-53l-92 -21l147 -530h4zM532 840l60 -77h-73l-47 29q-29 18 -45 28.5t-22.5 20t-6.5 21.5
q0 15 11 25.5t33 10.5q17 0 30 -4.5t27 -17t33 -36.5z" />
    <glyph glyph-name="wgrave" unicode="&#x1e81;" horiz-adv-x="884" 
d="M185 469l91 -329l10 -59h5l12 59l108 410h92l112 -409l10 -59h4l12 59l88 328l-65 19v51h210v-51l-54 -19l-146 -479h-123l-109 371l-106 -371h-123l-150 479l-53 19v51h244v-51zM462 715l49 -76h-73l-38 28q-48 35 -66.5 54.5t-18.5 34.5q0 17 12 28.5t40 11.5
q26 0 45.5 -17.5t49.5 -63.5z" />
    <glyph glyph-name="Wacute" unicode="&#x1e82;" horiz-adv-x="1048" 
d="M737 116l146 531l-79 20v53h249v-53l-83 -21l-187 -646h-124l-136 448l-124 -448h-124l-206 646l-78 21v53h304v-53l-96 -21l150 -529h4l129 479l-10 50l-78 21v53h284v-53l-92 -21l147 -530h4zM490 763l60 77q20 24 34 36.5t27 17t30 4.5q21 0 32 -10.5t11 -25.5
q0 -12 -6.5 -21.5t-22.5 -20t-45 -28.5l-47 -29h-73z" />
    <glyph glyph-name="wacute" unicode="&#x1e83;" horiz-adv-x="884" 
d="M185 469l91 -329l10 -59h5l12 59l108 410h92l112 -409l10 -59h4l12 59l88 328l-65 19v51h210v-51l-54 -19l-146 -479h-123l-109 371l-106 -371h-123l-150 479l-53 19v51h244v-51zM420 639l49 76q30 46 49.5 63.5t45.5 17.5q28 0 40 -11.5t12 -28.5q0 -15 -18.5 -34.5
t-66.5 -54.5l-38 -28h-73z" />
    <glyph glyph-name="Wdieresis" unicode="&#x1e84;" horiz-adv-x="1048" 
d="M737 116l146 531l-79 20v53h249v-53l-83 -21l-187 -646h-124l-136 448l-124 -448h-124l-206 646l-78 21v53h304v-53l-96 -21l150 -529h4l129 479l-10 50l-78 21v53h284v-53l-92 -21l147 -530h4zM342 837q0 33 19.5 52.5t51.5 19.5t52 -20t20 -52t-19.5 -51.5t-52.5 -19.5
t-52 19t-19 52zM572 837q0 33 19.5 52.5t51.5 19.5t52 -20t20 -52t-19.5 -51.5t-52.5 -19.5t-52 19t-19 52z" />
    <glyph glyph-name="wdieresis" unicode="&#x1e85;" horiz-adv-x="884" 
d="M185 469l91 -329l10 -59h5l12 59l108 410h92l112 -409l10 -59h4l12 59l88 328l-65 19v51h210v-51l-54 -19l-146 -479h-123l-109 371l-106 -371h-123l-150 479l-53 19v51h244v-51zM274 695q0 33 18 51t50 18t50.5 -18.5t18.5 -50.5t-18 -50t-51 -18q-32 0 -50 18t-18 50z
M504 695q0 33 18 51t50 18t50.5 -18.5t18.5 -50.5t-18 -50t-51 -18q-32 0 -50 18t-18 50z" />
    <glyph glyph-name="uni1E92" unicode="&#x1e92;" horiz-adv-x="655" 
d="M505 70l32 163h77v-233h-583v61l419 589h-284l-32 -152h-72v222h529v-61l-419 -589h333zM258 -129q0 35 19.5 55t53.5 20q33 0 53 -20t20 -54q0 -33 -19.5 -53t-54.5 -20q-34 0 -53 19t-19 53z" />
    <glyph glyph-name="uni1E93" unicode="&#x1e93;" horiz-adv-x="551" 
d="M407 66l20 136h77v-202h-463v66l318 408h-204l-24 -131h-77v197h446v-66l-318 -408h225zM200 -129q0 35 19.5 55t53.5 20q33 0 53 -20t20 -54q0 -33 -19.5 -53t-54.5 -20q-34 0 -53 19t-19 53z" />
    <glyph glyph-name="uni1EB8" unicode="&#x1eb8;" horiz-adv-x="694" 
d="M487 238h-71l-17 97h-147v-265h284l29 153h78v-223h-605v53l94 21v572l-94 21v53h583v-212h-72l-30 144h-267v-247h147l17 97h71v-264zM287 -129q0 35 19.5 55t53.5 20q33 0 53 -20t20 -54q0 -33 -19.5 -53t-54.5 -20q-34 0 -53 19t-19 53z" />
    <glyph glyph-name="uni1EB9" unicode="&#x1eb9;" horiz-adv-x="552" 
d="M511 259h-349q0 -70 20 -116q17 -38 47.5 -57t71.5 -19q45 0 87 20t73 58l47 -36q-35 -50 -91.5 -84.5t-140.5 -34.5q-72 0 -125 29.5t-81 86.5q-15 31 -22 69t-7 82q0 140 64.5 216.5t180.5 76.5q106 0 167 -63.5t61 -175.5q0 -11 -0.5 -20.5t-2.5 -31.5zM282 486
q-108 0 -119 -168h230v28q0 67 -29 103.5t-82 36.5zM209 -129q0 35 19.5 55t53.5 20q33 0 53 -20t20 -54q0 -33 -19.5 -53t-54.5 -20q-34 0 -53 19t-19 53z" />
    <glyph glyph-name="uni1EBC" unicode="&#x1ebc;" horiz-adv-x="694" 
d="M487 238h-71l-17 97h-147v-265h284l29 153h78v-223h-605v53l94 21v572l-94 21v53h583v-212h-72l-30 144h-267v-247h147l17 97h71v-264zM157 767q4 68 36.5 101.5t85.5 33.5q26 0 44.5 -8.5t34.5 -19t32 -19t35 -8.5q30 0 45 13t20 37h55q-20 -141 -122 -141
q-25 0 -44 8.5t-35 19.5t-31.5 19.5t-35.5 8.5q-30 0 -45 -12t-20 -33h-55z" />
    <glyph glyph-name="uni1EBD" unicode="&#x1ebd;" horiz-adv-x="552" 
d="M511 259h-349q0 -70 20 -116q17 -38 47.5 -57t71.5 -19q45 0 87 20t73 58l47 -36q-35 -50 -91.5 -84.5t-140.5 -34.5q-72 0 -125 29.5t-81 86.5q-15 31 -22 69t-7 82q0 140 64.5 216.5t180.5 76.5q106 0 167 -63.5t61 -175.5q0 -11 -0.5 -20.5t-2.5 -31.5zM282 486
q-108 0 -119 -168h230v28q0 67 -29 103.5t-82 36.5zM85 629q4 68 36.5 101.5t85.5 33.5q26 0 44.5 -8.5t34.5 -19t32 -19t35 -8.5q30 0 45 13t20 37h55q-20 -141 -122 -141q-25 0 -44 8.5t-35 19.5t-31.5 19.5t-35.5 8.5q-30 0 -45 -12t-20 -33h-55z" />
    <glyph glyph-name="uni1ECA" unicode="&#x1eca;" horiz-adv-x="385" 
d="M252 646v-572l94 -21v-53h-308v53l94 21v572l-94 21v53h308v-53zM122 -129q0 35 19.5 55t53.5 20q33 0 53 -20t20 -54q0 -33 -19.5 -53t-54.5 -20q-34 0 -53 19t-19 53z" />
    <glyph glyph-name="uni1ECB" unicode="&#x1ecb;" horiz-adv-x="325" 
d="M110 470l-77 19v51h194v-470l77 -19v-51h-271v51l77 19v400zM98 695q0 31 18.5 50t51.5 19t52 -19t19 -50q0 -30 -19 -49t-52 -19q-34 0 -52 18.5t-18 49.5zM96 -129q0 35 19.5 55t53.5 20q33 0 53 -20t20 -54q0 -33 -19.5 -53t-54.5 -20q-34 0 -53 19t-19 53z" />
    <glyph glyph-name="uni1ECC" unicode="&#x1ecc;" horiz-adv-x="771" 
d="M724 368q0 -84 -24.5 -161t-75.5 -130q-42 -44 -101 -65.5t-140 -21.5q-82 0 -141 21t-100 63q-44 46 -70 118.5t-26 159.5t26.5 163.5t73.5 127.5q42 45 100 66t139 21q79 0 139 -20t103 -64q51 -51 74 -124t23 -154zM181 371q0 -79 14.5 -140.5t39.5 -100.5
q25 -37 62 -56t91 -19q98 0 147 66q26 36 40 94.5t14 138.5t-14 140t-41 98q-26 38 -64.5 56t-87.5 18t-85 -17t-60 -49q-56 -74 -56 -229zM309 -129q0 35 19.5 55t53.5 20q33 0 53 -20t20 -54q0 -33 -19.5 -53t-54.5 -20q-34 0 -53 19t-19 53z" />
    <glyph glyph-name="uni1ECD" unicode="&#x1ecd;" horiz-adv-x="590" 
d="M550 272q0 -65 -19 -122t-54 -95q-32 -34 -77.5 -49.5t-105.5 -15.5t-105 15t-77 49q-35 38 -53.5 94t-18.5 120t18.5 122t54.5 95q32 35 77.5 50t104.5 15q60 0 105.5 -15t77.5 -49q35 -37 53.5 -93.5t18.5 -120.5zM188 156q10 -34 28 -55.5t45 -30.5t50 -7t45 16
q44 32 55 131q6 50 3.5 94t-12.5 80q-9 34 -27.5 55.5t-45.5 30.5t-50 7t-45 -16q-45 -32 -55 -130q-12 -102 9 -175zM222 -129q0 35 19.5 55t53.5 20q33 0 53 -20t20 -54q0 -33 -19.5 -53t-54.5 -20q-34 0 -53 19t-19 53z" />
    <glyph glyph-name="uni1EE4" unicode="&#x1ee4;" horiz-adv-x="780" 
d="M587 269v377l-84 21v53h251v-53l-84 -21v-403q0 -124 -72 -189t-211 -65q-133 0 -204.5 66.5t-71.5 188.5v402l-84 21v53h288v-53l-84 -21v-375q0 -217 178 -217q94 0 136 51t42 164zM326 -129q0 35 19.5 55t53.5 20q33 0 53 -20t20 -54q0 -33 -19.5 -53t-54.5 -20
q-34 0 -53 19t-19 53z" />
    <glyph glyph-name="uni1EE5" unicode="&#x1ee5;" horiz-adv-x="646" 
d="M210 540v-273q0 -64 3 -96t10 -51q9 -24 28.5 -36.5t42.5 -12.5q27 0 50 10t42 27q41 37 45 115v247l-87 19v51h204v-470l77 -19v-51l-175 -10l-11 110h-4q-29 -51 -79 -80.5t-107 -29.5q-38 0 -69.5 14.5t-49.5 39.5q-19 28 -28 79t-9 136v211l-67 19v51h184zM250 -129
q0 35 19.5 55t53.5 20q33 0 53 -20t20 -54q0 -33 -19.5 -53t-54.5 -20q-34 0 -53 19t-19 53z" />
    <glyph glyph-name="Ygrave" unicode="&#x1ef2;" horiz-adv-x="681" 
d="M360 354l159 292l-81 21v53h247v-53l-82 -21l-199 -364v-208l94 -21v-53h-308v53l94 21v192l-209 380l-83 21v53h296v-53l-84 -21zM369 840l60 -77h-73l-47 29q-29 18 -45 28.5t-22.5 20t-6.5 21.5q0 15 11 25.5t33 10.5q17 0 30 -4.5t27 -17t33 -36.5z" />
    <glyph glyph-name="ygrave" unicode="&#x1ef3;" horiz-adv-x="597" 
d="M524 470l-163 -446q-31 -77 -56.5 -124.5t-56.5 -68.5t-81 -21q-47 0 -80.5 25t-33.5 63q0 33 19 54t50 21q27 0 42 -13t15 -37q0 -12 -9 -28t-29 -19q2 -10 12 -13.5t17 -3.5q14 0 26 6t25.5 27t29.5 64l12 37l-203 477l-60 19v51h244l8 -51l-71 -19l132 -362h4l116 362
l-58 19v51h210v-51zM327 715l49 -76h-73l-38 28q-48 35 -66.5 54.5t-18.5 34.5q0 17 12 28.5t40 11.5q26 0 45.5 -17.5t49.5 -63.5z" />
    <glyph glyph-name="uni1EF8" unicode="&#x1ef8;" horiz-adv-x="681" 
d="M360 354l159 292l-81 21v53h247v-53l-82 -21l-199 -364v-208l94 -21v-53h-308v53l94 21v192l-209 380l-83 21v53h296v-53l-84 -21zM166 767q4 68 36.5 101.5t85.5 33.5q26 0 44.5 -8.5t34.5 -19t32 -19t35 -8.5q30 0 45 13t20 37h55q-20 -141 -122 -141q-25 0 -44 8.5
t-35 19.5t-31.5 19.5t-35.5 8.5q-30 0 -45 -12t-20 -33h-55z" />
    <glyph glyph-name="uni1EF9" unicode="&#x1ef9;" horiz-adv-x="597" 
d="M524 470l-163 -446q-31 -77 -56.5 -124.5t-56.5 -68.5t-81 -21q-47 0 -80.5 25t-33.5 63q0 33 19 54t50 21q27 0 42 -13t15 -37q0 -12 -9 -28t-29 -19q2 -10 12 -13.5t17 -3.5q14 0 26 6t25.5 27t29.5 64l12 37l-203 477l-60 19v51h244l8 -51l-71 -19l132 -362h4l116 362
l-58 19v51h210v-51zM122 629q4 68 36.5 101.5t85.5 33.5q26 0 44.5 -8.5t34.5 -19t32 -19t35 -8.5q30 0 45 13t20 37h55q-20 -141 -122 -141q-25 0 -44 8.5t-35 19.5t-31.5 19.5t-35.5 8.5q-30 0 -45 -12t-20 -33h-55z" />
    <glyph glyph-name="endash" unicode="&#x2013;" horiz-adv-x="617" 
d="M61 239v78h494v-78h-494z" />
    <glyph glyph-name="emdash" unicode="&#x2014;" horiz-adv-x="925" 
d="M62 239v78h801v-78h-801z" />
    <glyph glyph-name="quoteleft" unicode="&#x2018;" horiz-adv-x="247" 
d="M119 477q-36 0 -57.5 25t-21.5 68q0 54 33.5 101.5t102.5 88.5l28 -32q-39 -32 -64 -60t-27 -50l4 -3q7 7 23 7q23 0 38.5 -19t15.5 -51q0 -33 -20.5 -54t-54.5 -21z" />
    <glyph glyph-name="quoteright" unicode="&#x2019;" horiz-adv-x="247" 
d="M132 760q36 0 57.5 -25t21.5 -68q0 -54 -33.5 -101.5t-102.5 -88.5l-28 32q39 32 64 60t27 50l-4 3q-7 -7 -23 -7q-23 0 -38.5 19t-15.5 51q0 33 20.5 54t54.5 21z" />
    <glyph glyph-name="quotesinglbase" unicode="&#x201a;" horiz-adv-x="252" 
d="M124 128q36 0 57.5 -25t21.5 -68q0 -54 -33.5 -101.5t-102.5 -88.5l-28 32q39 32 64 60t27 50l-4 3q-7 -7 -23 -7q-23 0 -38.5 19t-15.5 51q0 33 20.5 54t54.5 21z" />
    <glyph glyph-name="quotedblleft" unicode="&#x201c;" horiz-adv-x="447" 
d="M119 477q-36 0 -57.5 25t-21.5 68q0 54 33.5 101.5t102.5 88.5l28 -32q-39 -32 -64 -60t-27 -50l4 -3q7 7 23 7q23 0 38.5 -19t15.5 -51q0 -33 -20.5 -54t-54.5 -21zM319 477q-36 0 -57.5 25t-21.5 68q0 54 33.5 101.5t102.5 88.5l28 -32q-39 -32 -64 -60t-27 -50l4 -3
q7 7 23 7q23 0 38.5 -19t15.5 -51q0 -33 -20.5 -54t-54.5 -21z" />
    <glyph glyph-name="quotedblright" unicode="&#x201d;" horiz-adv-x="446" 
d="M132 760q36 0 57.5 -25t21.5 -68q0 -54 -33.5 -101.5t-102.5 -88.5l-28 32q39 32 64 60t27 50l-4 3q-7 -7 -23 -7q-23 0 -38.5 19t-15.5 51q0 33 20.5 54t54.5 21zM332 760q36 0 57.5 -25t21.5 -68q0 -54 -33.5 -101.5t-102.5 -88.5l-28 32q39 32 64 60t27 50l-4 3
q-7 -7 -23 -7q-23 0 -38.5 19t-15.5 51q0 33 20.5 54t54.5 21z" />
    <glyph glyph-name="quotedblbase" unicode="&#x201e;" horiz-adv-x="452" 
d="M124 119q36 0 57.5 -25t21.5 -68q0 -54 -33.5 -101.5t-102.5 -88.5l-28 32q39 32 64 60t27 50l-4 3q-7 -7 -23 -7q-23 0 -38.5 19t-15.5 51q0 33 20.5 54t54.5 21zM324 119q36 0 57.5 -25t21.5 -68q0 -54 -33.5 -101.5t-102.5 -88.5l-28 32q39 32 64 60t27 50l-4 3
q-7 -7 -23 -7q-23 0 -38.5 19t-15.5 51q0 33 20.5 54t54.5 21z" />
    <glyph glyph-name="dagger" unicode="&#x2020;" horiz-adv-x="452" 
d="M198 510l-5 5q-14 0 -36 -4t-43.5 -8.5t-37.5 -4.5q-22 0 -34.5 11.5t-12.5 33.5q0 23 13 34t34 11q16 0 37.5 -4t43.5 -8.5t36 -4.5l5 5q0 14 -3.5 37.5t-7.5 49t-7.5 47.5t-3.5 33q0 21 12.5 34t37.5 13t37.5 -12.5t12.5 -34.5q0 -11 -3.5 -33t-7.5 -47.5t-7.5 -49
t-3.5 -37.5l5 -5q14 0 35.5 4.5t44 8.5t37.5 4q21 0 34 -11t13 -34q0 -22 -12.5 -33.5t-34.5 -11.5q-15 0 -37.5 4.5t-44 8.5t-35.5 4l-5 -5v-227q0 -128 11 -201t11 -105q0 -22 -12.5 -34.5t-37.5 -12.5t-37.5 13t-12.5 34q0 32 11 105t11 201v227z" />
    <glyph glyph-name="daggerdbl" unicode="&#x2021;" horiz-adv-x="469" 
d="M263 371q0 -40 1 -80t4 -81l5 -5q14 0 34 4.5t41.5 8.5t36.5 4q22 0 34.5 -11.5t12.5 -33.5q0 -23 -13 -34t-34 -11q-15 0 -37.5 4.5t-44 8.5t-35.5 4l-5 -5q0 -14 3.5 -37.5t7.5 -49t7.5 -47.5t3.5 -33q0 -22 -12.5 -34.5t-37.5 -12.5t-37.5 13t-12.5 34q0 11 3.5 33
t7.5 47.5t7.5 49t3.5 37.5l-5 5q-14 0 -36 -4t-43.5 -8.5t-37.5 -4.5q-21 0 -34 11t-13 34q0 22 12.5 33.5t34.5 11.5q16 0 36.5 -4t41 -8.5t34.5 -4.5l5 5q3 41 4 80.5t1 80.5q0 35 -1 69.5t-4 69.5l-5 5q-14 0 -34.5 -4t-41 -8.5t-36.5 -4.5q-22 0 -34.5 11.5t-12.5 33.5
q0 23 13 34t34 11q16 0 37.5 -4t43.5 -8.5t36 -4.5l5 5q0 14 -3.5 37.5t-7.5 49t-7.5 47.5t-3.5 33q0 21 12.5 34t37.5 13t37.5 -12.5t12.5 -34.5q0 -11 -3.5 -33t-7.5 -47.5t-7.5 -49t-3.5 -37.5l5 -5q14 0 35.5 4.5t44 8.5t37.5 4q21 0 34 -11t13 -34q0 -22 -12.5 -33.5
t-34.5 -11.5q-15 0 -36.5 4.5t-41.5 8.5t-34 4l-5 -5q-3 -35 -4 -69.5t-1 -69.5z" />
    <glyph glyph-name="bullet" unicode="&#x2022;" horiz-adv-x="404" 
d="M74 343q0 61 34.5 96t93.5 35q60 0 94.5 -35.5t34.5 -95.5q0 -59 -34.5 -93t-94.5 -34q-61 0 -94.5 33t-33.5 94z" />
    <glyph glyph-name="ellipsis" unicode="&#x2026;" horiz-adv-x="721" 
d="M49 53q0 34 19.5 54.5t53.5 20.5t54 -21t20 -54q0 -34 -20 -53.5t-55 -19.5q-34 0 -53 19t-19 54zM292 53q0 34 19.5 54.5t53.5 20.5t54 -21t20 -54q0 -34 -20 -53.5t-55 -19.5q-34 0 -53 19t-19 54zM526 53q0 34 19.5 54.5t53.5 20.5t54 -21t20 -54q0 -34 -20 -53.5
t-55 -19.5q-34 0 -53 19t-19 54z" />
    <glyph glyph-name="perthousand" unicode="&#x2030;" horiz-adv-x="1004" 
d="M117 -10l386 740h74l-386 -740h-74zM33 561q0 89 36 131q17 20 41.5 28.5t59.5 8.5q66 0 99 -37q36 -41 36 -129q0 -42 -8 -75.5t-28 -54.5q-33 -37 -102 -37q-28 0 -54 8t-44 29q-36 41 -36 128zM227 562q0 65 -16 97q-6 13 -16 20.5t-25 7.5q-13 0 -24 -6t-19 -21
q-9 -19 -12.5 -45.5t-3.5 -51.5q0 -29 4 -54t12 -43q7 -14 16.5 -20.5t25.5 -6.5q14 0 24 6t18 21q7 15 11.5 39.5t4.5 56.5zM387 155q0 89 37 131q16 20 40.5 28.5t59.5 8.5q66 0 99 -37q36 -41 36 -129q0 -42 -8 -75.5t-27 -54.5q-33 -37 -103 -37q-28 0 -54 8t-44 29
q-36 41 -36 128zM581 156q0 65 -15 97q-6 13 -16 20.5t-26 7.5q-13 0 -23.5 -6t-18.5 -21q-10 -19 -13.5 -45.5t-3.5 -51.5q0 -29 4 -54t13 -43q6 -14 16 -20.5t25 -6.5t24.5 6t17.5 21t12 39.5t4 56.5zM700 155q0 89 37 131q16 20 40.5 28.5t59.5 8.5q66 0 99 -37
q36 -41 36 -129q0 -42 -8 -75.5t-27 -54.5q-33 -37 -103 -37q-28 0 -54 8t-44 29q-36 41 -36 128zM894 156q0 65 -15 97q-6 13 -16 20.5t-26 7.5q-13 0 -23.5 -6t-18.5 -21q-10 -19 -13.5 -45.5t-3.5 -51.5q0 -29 4 -54t13 -43q6 -14 16 -20.5t25 -6.5t24.5 6t17.5 21
t12 39.5t4 56.5z" />
    <glyph glyph-name="guilsinglleft" unicode="&#x2039;" horiz-adv-x="333" 
d="M155 255l133 -201l-43 -42l-210 220v43l209 216l43 -33z" />
    <glyph glyph-name="guilsinglright" unicode="&#x203a;" horiz-adv-x="333" 
d="M45 54l133 201l-132 203l43 33l209 -216v-43l-210 -220z" />
    <glyph glyph-name="fraction" unicode="&#x2044;" horiz-adv-x="40" 
d="M-210 -10l386 740h74l-386 -740h-74z" />
    <glyph glyph-name="uni2070" unicode="&#x2070;" horiz-adv-x="380" 
d="M54 561q0 89 36 131q17 20 41.5 28.5t59.5 8.5q66 0 99 -37q36 -41 36 -129q0 -42 -8 -75.5t-28 -54.5q-33 -37 -102 -37q-28 0 -54 8t-44 29q-36 41 -36 128zM248 562q0 65 -16 97q-6 13 -16 20.5t-25 7.5q-13 0 -24 -6t-19 -21q-9 -19 -12.5 -45.5t-3.5 -51.5
q0 -29 4 -54t12 -43q7 -14 16.5 -20.5t25.5 -6.5q14 0 24 6t18 21q7 15 11.5 39.5t4.5 56.5z" />
    <glyph glyph-name="uni2074" unicode="&#x2074;" horiz-adv-x="329" 
d="M168 436v38h-129l-7 41l136 205h72v-203h49l-6 -43h-43v-38l35 -9v-35h-150v35zM168 641l-77 -124h77v124z" />
    <glyph glyph-name="uni2075" unicode="&#x2075;" horiz-adv-x="330" 
d="M246 661l23 73h-42l-8 -14h-130l-25 -160l42 -15q8 11 23.5 15t27.5 4q27 0 38.5 -20t11.5 -48q0 -40 -15.5 -54t-37.5 -14q-18 0 -31 8t-16 17q11 0 18.5 8t7.5 20q0 11 -8.5 21t-25.5 10q-24 0 -35 -14t-11 -32q0 -37 32.5 -55.5t76.5 -18.5q58 0 89.5 29.5t31.5 77.5
q0 47 -28 74.5t-75 27.5q-37 0 -63 -22l12 82h117z" />
    <glyph glyph-name="uni2076" unicode="&#x2076;" horiz-adv-x="356" 
d="M125 559h4q25 36 75 36q44 0 71.5 -27.5t27.5 -71.5q0 -46 -30.5 -72.5t-84.5 -26.5q-67 0 -100.5 38.5t-33.5 118.5q0 86 34 131t102 45q47 0 71.5 -21.5t24.5 -50.5q0 -22 -9.5 -33t-31.5 -11q-15 0 -25.5 8.5t-10.5 20.5t6.5 20t17.5 9q-3 10 -14.5 15t-25.5 5
q-33 0 -51 -24.5t-18 -87.5q0 -15 1 -21zM226 496q0 34 -12.5 48t-32.5 14q-22 0 -34 -14t-12 -48t13 -48t31 -14q21 0 34 14t13 48z" />
    <glyph glyph-name="uni2077" unicode="&#x2077;" horiz-adv-x="304" 
d="M167 434q0 -15 -9 -28.5t-31 -13.5q-14 0 -24 8.5t-10 31.5q0 25 13.5 66t36.5 85t51 76h-102l-8 -44h-41v105h227v-37q-26 -27 -50 -69.5t-38.5 -90t-14.5 -89.5z" />
    <glyph glyph-name="uni2078" unicode="&#x2078;" horiz-adv-x="339" 
d="M275 658q0 -53 -53 -82q36 -19 52 -39.5t16 -47.5q0 -41 -33 -66.5t-94 -25.5q-52 0 -81.5 22t-29.5 62q0 55 65 90q-27 18 -38.5 35.5t-11.5 41.5q0 38 27 60t80 22q52 0 76.5 -19.5t24.5 -52.5zM147 552q-17 -12 -26 -28t-9 -39q0 -21 11 -35.5t39 -14.5q20 0 38 9
t18 32q0 22 -17.5 38.5t-53.5 37.5zM189 595q13 9 22 23t9 35q0 23 -12.5 33.5t-32.5 10.5t-31 -10.5t-11 -28.5q0 -14 9 -30t47 -33z" />
    <glyph glyph-name="uni2079" unicode="&#x2079;" horiz-adv-x="355" 
d="M230 568h-4q-25 -36 -75 -36q-43 0 -71 28t-28 71q0 46 33.5 72.5t87.5 26.5q67 0 97.5 -38.5t30.5 -118.5q0 -86 -33.5 -131t-103.5 -45q-47 0 -72 21.5t-25 51.5q0 21 9.5 32t31.5 11q15 0 25 -8.5t10 -21.5q0 -11 -6 -19t-17 -9q2 -10 14 -15t27 -5q34 0 52 24.5
t18 87.5q0 15 -1 21zM129 631q0 -34 12 -48t33 -14t33.5 14t12.5 48q0 35 -13 48.5t-32 13.5q-20 0 -33 -13.5t-13 -48.5z" />
    <glyph glyph-name="uni2080" unicode="&#x2080;" horiz-adv-x="381" 
d="M54 155q0 89 37 131q16 20 40.5 28.5t59.5 8.5q66 0 99 -37q36 -41 36 -129q0 -42 -8 -75.5t-27 -54.5q-33 -37 -103 -37q-28 0 -54 8t-44 29q-36 41 -36 128zM248 156q0 65 -15 97q-6 13 -16 20.5t-26 7.5q-13 0 -23.5 -6t-18.5 -21q-10 -19 -13.5 -45.5t-3.5 -51.5
q0 -29 4 -54t13 -43q6 -14 16 -20.5t25 -6.5t24.5 6t17.5 21t12 39.5t4 56.5z" />
    <glyph glyph-name="uni2081" unicode="&#x2081;" horiz-adv-x="320" 
d="M130 45v222h-60v41q16 0 41 5t32 15h59v-283l48 -9v-36h-180v36z" />
    <glyph glyph-name="uni2082" unicode="&#x2082;" horiz-adv-x="338" 
d="M119 58h109l10 49h47v-107h-237v30q0 28 16 50.5t40 42.5t48 39.5t40 41.5t16 49q0 21 -17.5 29t-34.5 8q-9 0 -20.5 -2t-21 -8.5t-11.5 -18.5q14 0 21.5 -8.5t7.5 -21.5q0 -14 -9 -23t-28 -9q-23 0 -32.5 12.5t-9.5 31.5q0 39 29 62.5t83 23.5q56 0 86 -23.5t30 -63.5
q0 -31 -16.5 -54t-40.5 -40.5t-48 -32.5t-40.5 -28.5t-16.5 -28.5z" />
    <glyph glyph-name="uni2083" unicode="&#x2083;" horiz-adv-x="335" 
d="M278 239q0 -30 -18.5 -49.5t-49.5 -24.5v-4q73 -14 73 -77q0 -42 -36.5 -68t-95.5 -26q-46 0 -74.5 23t-28.5 61q0 21 10 32.5t28 11.5q21 0 30 -9.5t9 -23.5q0 -12 -6 -19.5t-17 -7.5q3 -17 16.5 -23t31.5 -6q25 0 40.5 12.5t15.5 37.5q0 30 -20.5 47t-56.5 17v37
q34 0 55 16.5t21 46.5q0 21 -14.5 32t-39.5 11q-17 0 -31 -6t-16 -20q11 0 20 -7t9 -20t-10 -24t-31 -11q-20 0 -30 14t-10 33q0 35 29 56.5t80 21.5q55 0 86 -23t31 -61z" />
    <glyph glyph-name="uni2084" unicode="&#x2084;" horiz-adv-x="329" 
d="M168 44v38h-129l-7 41l136 205h72v-203h49l-6 -43h-43v-38l35 -9v-35h-152v35zM168 249l-77 -124h77v124z" />
    <glyph glyph-name="uni2085" unicode="&#x2085;" horiz-adv-x="331" 
d="M246 259l23 73h-42l-8 -14h-130l-25 -160l42 -15q8 11 23.5 15t27.5 4q27 0 38.5 -20t11.5 -48q0 -40 -15.5 -54t-37.5 -14q-18 0 -31 8t-16 17q11 0 18.5 8t7.5 20q0 11 -8.5 21t-25.5 10q-24 0 -35 -14t-11 -32q0 -37 32.5 -55.5t76.5 -18.5q58 0 89.5 29.5t31.5 77.5
q0 47 -28 74.5t-75 27.5q-37 0 -63 -22l12 82h117z" />
    <glyph glyph-name="uni2086" unicode="&#x2086;" horiz-adv-x="356" 
d="M124 152h4q25 36 75 36q44 0 71.5 -27.5t27.5 -71.5q0 -46 -30 -72.5t-85 -26.5q-67 0 -100.5 38.5t-33.5 118.5q0 86 34 131t102 45q47 0 72 -21.5t25 -50.5q0 -22 -9.5 -33t-31.5 -11q-15 0 -25.5 8.5t-10.5 20.5t6.5 20t16.5 9q-2 10 -13.5 15t-25.5 5
q-34 0 -52 -24.5t-18 -87.5q0 -15 1 -21zM225 89q0 34 -12 48t-33 14t-33.5 -14t-12.5 -48t13 -48t32 -14q20 0 33 14t13 48z" />
    <glyph glyph-name="uni2087" unicode="&#x2087;" horiz-adv-x="305" 
d="M168 32q0 -15 -9 -28.5t-31 -13.5q-14 0 -24 8.5t-10 31.5q0 25 13.5 66t36.5 85t51 76h-102l-8 -44h-41v105h227v-37q-27 -27 -50.5 -69.5t-38 -90t-14.5 -89.5z" />
    <glyph glyph-name="uni2088" unicode="&#x2088;" horiz-adv-x="338" 
d="M274 251q0 -53 -53 -82q36 -19 52 -39.5t16 -47.5q0 -41 -32.5 -66.5t-94.5 -25.5q-52 0 -81.5 22t-29.5 62q0 55 65 90q-27 18 -38.5 35.5t-11.5 41.5q0 38 27.5 60t80.5 22q52 0 76 -19.5t24 -52.5zM147 145q-17 -12 -26.5 -28t-9.5 -39q0 -21 11.5 -35.5t39.5 -14.5
q20 0 37.5 9t17.5 32q0 22 -17 38.5t-53 37.5zM189 188q12 9 21 23t9 35q0 23 -12 33.5t-32 10.5t-31.5 -10.5t-11.5 -28.5q0 -14 9.5 -30t47.5 -33z" />
    <glyph glyph-name="uni2089" unicode="&#x2089;" horiz-adv-x="355" 
d="M230 161h-4q-25 -36 -75 -36q-43 0 -71 28t-28 71q0 46 33.5 72.5t87.5 26.5q67 0 97.5 -38.5t30.5 -118.5q0 -86 -33.5 -131t-103.5 -45q-47 0 -72 21.5t-25 51.5q0 21 9.5 32t31.5 11q15 0 25 -8.5t10 -21.5q0 -11 -6 -19t-17 -9q2 -10 14 -15t27 -5q34 0 52 24.5
t18 87.5q0 15 -1 21zM129 224q0 -34 12 -48t33 -14t33.5 14t12.5 48q0 35 -13 48.5t-32 13.5q-20 0 -33 -13.5t-13 -48.5z" />
    <glyph glyph-name="Euro" unicode="&#x20ac;" horiz-adv-x="735" 
d="M37 393v70h107q21 131 94.5 199t197.5 68q75 0 132.5 -23.5t89.5 -62.5t32 -89q0 -36 -20 -55.5t-55 -19.5q-25 0 -43.5 16.5t-18.5 41.5q0 40 36 58q-20 32 -57.5 50.5t-85.5 18.5q-75 0 -119 -50t-56 -152h194v-70h-199q-1 -9 -1 -18v-18v-20t1 -19h199v-71h-193
q12 -97 52 -143t109 -46q75 0 121.5 38.5t56.5 108.5h75q-22 -109 -87.5 -162t-179.5 -53q-238 0 -276 257h-106v71h100q-1 8 -1 16.5v16.5v21t1 21h-100z" />
    <glyph glyph-name="uni2120" unicode="&#x2120;" horiz-adv-x="785" 
d="M181 406q-48 0 -75 31l-5 -26h-35v112h37q3 -41 22 -59t52 -18q24 0 39 8.5t15 31.5q0 19 -16.5 36.5t-59.5 33.5q-51 20 -69.5 39.5t-18.5 53.5q0 42 26.5 66.5t72.5 24.5q44 0 72 -25l4 20h35v-112h-36q0 42 -14.5 60t-50.5 18q-22 0 -35 -9.5t-13 -32.5
q0 -22 12.5 -31.5t52.5 -26.5q58 -24 78.5 -48t20.5 -59q0 -40 -30 -64t-81 -24zM523 467l81 268h120v-29l-33 -10v-246l33 -10v-29h-126v29l33 10v243l-82 -282h-64l-80 282v-243l30 -10v-29h-110v29l36 10v246l-36 10v29h122l72 -268h4z" />
    <glyph glyph-name="trademark" unicode="&#x2122;" horiz-adv-x="848" 
d="M67 730h279v-105h-34l-14 63h-59v-242l43 -11v-29h-151v29l44 11v242h-60l-14 -63h-34v105zM582 462l81 268h121v-29l-33 -10v-246l33 -10v-29h-126v29l32 10v241l-82 -280h-63l-79 280v-241l28 -10v-29h-110v29l38 10v246l-38 10v29h122l72 -268h4z" />
    <glyph glyph-name="uni2153" unicode="&#x2153;" horiz-adv-x="649" 
d="M87 -10l386 740h74l-386 -740h-74zM103 437v222h-60v41q16 0 41 5t32 15h59v-283l48 -9v-36h-180v36zM607 239q0 -30 -18.5 -49.5t-49.5 -24.5v-4q73 -14 73 -77q0 -42 -36.5 -68t-95.5 -26q-46 0 -74.5 23t-28.5 61q0 21 10 32.5t28 11.5q21 0 30 -9.5t9 -23.5
q0 -12 -6 -19.5t-17 -7.5q3 -17 16.5 -23t31.5 -6q25 0 40.5 12.5t15.5 37.5q0 30 -20.5 47t-56.5 17v37q34 0 55 16.5t21 46.5q0 21 -14.5 32t-39.5 11q-17 0 -31 -6t-16 -20q11 0 20 -7t9 -20t-10 -24t-31 -11q-20 0 -30 14t-10 33q0 35 29 56.5t80 21.5q55 0 86 -23
t31 -61z" />
    <glyph glyph-name="uni2154" unicode="&#x2154;" horiz-adv-x="666" 
d="M105 -10l386 740h74l-386 -740h-74zM625 239q0 -30 -18.5 -49.5t-49.5 -24.5v-4q73 -14 73 -77q0 -42 -36.5 -68t-95.5 -26q-46 0 -74.5 23t-28.5 61q0 21 10 32.5t28 11.5q21 0 30 -9.5t9 -23.5q0 -12 -6 -19.5t-17 -7.5q3 -17 16.5 -23t31.5 -6q25 0 40.5 12.5
t15.5 37.5q0 30 -20.5 47t-56.5 17v37q34 0 55 16.5t21 46.5q0 21 -14.5 32t-39.5 11q-17 0 -31 -6t-16 -20q11 0 20 -7t9 -20t-10 -24t-31 -11q-20 0 -30 14t-10 33q0 35 29 56.5t80 21.5q55 0 86 -23t31 -61zM110 459h109l10 49h47v-107h-237v30q0 28 16 50.5t40 42.5
t48 39.5t40 41.5t16 49q0 21 -17.5 29t-34.5 8q-9 0 -20.5 -2t-21 -8.5t-11.5 -18.5q14 0 21.5 -8.5t7.5 -21.5q0 -14 -9 -23t-28 -9q-23 0 -32.5 12.5t-9.5 31.5q0 39 29 62.5t83 23.5q56 0 86 -23.5t30 -63.5q0 -31 -16.5 -54t-40.5 -40.5t-48 -32.5t-40.5 -28.5
t-16.5 -28.5z" />
    <glyph glyph-name="oneeighth" unicode="&#x215b;" horiz-adv-x="649" 
d="M89 -10l386 740h74l-386 -740h-74zM105 437v222h-60v41q16 0 41 5t32 15h59v-283l48 -9v-36h-180v36zM599 251q0 -53 -53 -82q36 -19 52 -39.5t16 -47.5q0 -41 -32.5 -66.5t-94.5 -25.5q-52 0 -81.5 22t-29.5 62q0 55 65 90q-27 18 -38.5 35.5t-11.5 41.5q0 38 27.5 60
t80.5 22q52 0 76 -19.5t24 -52.5zM472 145q-17 -12 -26.5 -28t-9.5 -39q0 -21 11.5 -35.5t39.5 -14.5q20 0 37.5 9t17.5 32q0 22 -17 38.5t-53 37.5zM514 188q12 9 21 23t9 35q0 23 -12 33.5t-32 10.5t-31.5 -10.5t-11.5 -28.5q0 -14 9.5 -30t47.5 -33z" />
    <glyph glyph-name="threeeighths" unicode="&#x215c;" horiz-adv-x="660" 
d="M99 -10l386 740h74l-386 -740h-74zM267 646q0 -30 -18.5 -49.5t-49.5 -24.5v-4q73 -14 73 -77q0 -42 -36.5 -68t-95.5 -26q-46 0 -74.5 23t-28.5 61q0 21 10 32.5t28 11.5q21 0 30 -9.5t9 -23.5q0 -12 -6 -19.5t-17 -7.5q3 -17 16.5 -23t31.5 -6q25 0 40.5 12.5
t15.5 37.5q0 30 -20.5 47t-56.5 17v37q34 0 55 16.5t21 46.5q0 21 -14.5 32t-39.5 11q-17 0 -31 -6t-16 -20q11 0 20 -7t9 -20t-10 -24t-31 -11q-20 0 -30 14t-10 33q0 35 29 56.5t80 21.5q55 0 86 -23t31 -61zM610 251q0 -53 -53 -82q36 -19 52 -39.5t16 -47.5
q0 -41 -32.5 -66.5t-94.5 -25.5q-52 0 -81.5 22t-29.5 62q0 55 65 90q-27 18 -38.5 35.5t-11.5 41.5q0 38 27.5 60t80.5 22q52 0 76 -19.5t24 -52.5zM483 145q-17 -12 -26.5 -28t-9.5 -39q0 -21 11.5 -35.5t39.5 -14.5q20 0 37.5 9t17.5 32q0 22 -17 38.5t-53 37.5zM525 188
q12 9 21 23t9 35q0 23 -12 33.5t-32 10.5t-31.5 -10.5t-11.5 -28.5q0 -14 9.5 -30t47.5 -33z" />
    <glyph glyph-name="fiveeighths" unicode="&#x215d;" horiz-adv-x="645" 
d="M94 -10l386 740h74l-386 -740h-74zM594 251q0 -53 -53 -82q36 -19 52 -39.5t16 -47.5q0 -41 -32.5 -66.5t-94.5 -25.5q-52 0 -81.5 22t-29.5 62q0 55 65 90q-27 18 -38.5 35.5t-11.5 41.5q0 38 27.5 60t80.5 22q52 0 76 -19.5t24 -52.5zM467 145q-17 -12 -26.5 -28
t-9.5 -39q0 -21 11.5 -35.5t39.5 -14.5q20 0 37.5 9t17.5 32q0 22 -17 38.5t-53 37.5zM509 188q12 9 21 23t9 35q0 23 -12 33.5t-32 10.5t-31.5 -10.5t-11.5 -28.5q0 -14 9.5 -30t47.5 -33zM228 661l23 73h-42l-8 -14h-130l-25 -160l42 -15q8 11 23.5 15t27.5 4
q27 0 38.5 -20t11.5 -48q0 -40 -15.5 -54t-37.5 -14q-18 0 -31 8t-16 17q11 0 18.5 8t7.5 20q0 11 -8.5 21t-25.5 10q-24 0 -35 -14t-11 -32q0 -37 32.5 -55.5t76.5 -18.5q58 0 89.5 29.5t31.5 77.5q0 47 -28 74.5t-75 27.5q-37 0 -63 -22l12 82h117z" />
    <glyph glyph-name="seveneighths" unicode="&#x215e;" horiz-adv-x="629" 
d="M78 -10l386 740h74l-386 -740h-74zM579 251q0 -53 -53 -82q36 -19 52 -39.5t16 -47.5q0 -41 -32.5 -66.5t-94.5 -25.5q-52 0 -81.5 22t-29.5 62q0 55 65 90q-27 18 -38.5 35.5t-11.5 41.5q0 38 27.5 60t80.5 22q52 0 76 -19.5t24 -52.5zM452 145q-17 -12 -26.5 -28
t-9.5 -39q0 -21 11.5 -35.5t39.5 -14.5q20 0 37.5 9t17.5 32q0 22 -17 38.5t-53 37.5zM494 188q12 9 21 23t9 35q0 23 -12 33.5t-32 10.5t-31.5 -10.5t-11.5 -28.5q0 -14 9.5 -30t47.5 -33zM158 434q0 -15 -9 -28.5t-31 -13.5q-14 0 -24 8.5t-10 31.5q0 25 13.5 66t36.5 85
t51 76h-102l-8 -44h-41v105h227v-37q-26 -27 -50 -69.5t-38.5 -90t-14.5 -89.5z" />
    <glyph glyph-name="minus" unicode="&#x2212;" horiz-adv-x="533" 
d="M67 324v77h398v-77h-398z" />
    <glyph glyph-name="uni2215" unicode="&#x2215;" horiz-adv-x="427" 
d="M-16 -10l386 740h74l-386 -740h-74z" />
    <glyph glyph-name="uni2219" unicode="&#x2219;" horiz-adv-x="263" 
d="M58 298q0 35 20 55t53 20q34 0 54 -21t20 -54q0 -34 -20 -53.5t-54 -19.5t-53.5 19t-19.5 54z" />
    <glyph glyph-name="dotbelow" horiz-adv-x="185" 
d="M20 -129q0 35 19.5 55t53.5 20q33 0 53 -20t20 -54q0 -33 -19.5 -53t-54.5 -20q-34 0 -53 19t-19 53z" />
    <glyph glyph-name="caron.alt" horiz-adv-x="119" 
d="M89 595h-60q0 33 -4.5 57t-9.5 44t-5 41q0 17 9.5 35t40.5 18q29 0 39 -17.5t10 -35.5q0 -21 -5 -41t-10 -44t-5 -57z" />
    <glyph glyph-name="gravecomb.case" 
d="M164 840l60 -77h-73l-47 29q-29 18 -45 28.5t-22.5 20t-6.5 21.5q0 15 11 25.5t33 10.5q17 0 30 -4.5t27 -17t33 -36.5z" />
    <glyph glyph-name="acutecomb.case" 
d="M30 763l60 77q20 24 34 36.5t27 17t30 4.5q21 0 32 -10.5t11 -25.5q0 -12 -6.5 -21.5t-22.5 -20t-45 -28.5l-47 -29h-73z" />
    <glyph glyph-name="uni0302.case" 
d="M352 769l-119 121h-115l-118 -121h73l103 61l103 -61h73z" />
    <glyph glyph-name="tildecomb.case" 
d="M5 767q4 68 36.5 101.5t85.5 33.5q26 0 44.5 -8.5t34.5 -19t32 -19t35 -8.5q30 0 45 13t20 37h55q-20 -141 -122 -141q-25 0 -44 8.5t-35 19.5t-31.5 19.5t-35.5 8.5q-30 0 -45 -12t-20 -33h-55z" />
    <glyph glyph-name="uni0304.case" 
d="M25 776v85h279v-85h-279z" />
    <glyph glyph-name="uni0306.case" 
d="M333 928h-58q-1 -41 -30.5 -60t-68.5 -19t-68 18.5t-31 60.5h-58q0 -75 42.5 -121.5t114.5 -46.5q73 0 115 46.5t42 121.5z" />
    <glyph glyph-name="uni0307.case" 
d="M20 835q0 34 19.5 53.5t52.5 19.5t53 -20t20 -53q0 -32 -19.5 -52t-53.5 -20t-53 19.5t-19 52.5z" />
    <glyph glyph-name="uni0308.case" 
d="M17 834q0 33 19.5 52.5t51.5 19.5t52 -20t20 -52t-19.5 -51.5t-52.5 -19.5t-52 19t-19 52zM247 834q0 33 19.5 52.5t51.5 19.5t52 -20t20 -52t-19.5 -51.5t-52.5 -19.5t-52 19t-19 52z" />
    <glyph glyph-name="uni030A.case" 
d="M34 824q0 36 25 56t60 20q36 0 61 -20t25 -56q0 -35 -25 -54.5t-61 -19.5q-35 0 -60 19.5t-25 54.5zM92 824q0 -13 7 -20t20 -7t21 7t8 20t-8 21t-21 8t-20 -8t-7 -21z" />
    <glyph glyph-name="uni030B.case" 
d="M30 763l60 77q20 24 34 36.5t27 17t30 4.5q21 0 32 -10.5t11 -25.5q0 -12 -6.5 -21.5t-22.5 -20t-45 -28.5l-47 -29h-73zM210 763l60 77q20 24 34 36.5t27 17t30 4.5q21 0 32 -10.5t11 -25.5q0 -12 -6.5 -21.5t-22.5 -20t-45 -28.5l-47 -29h-73z" />
    <glyph glyph-name="uni030C.case" 
d="M233 769l119 121h-73l-103 -61l-103 61h-73l118 -121h115z" />
    </font>
</defs>
</svg>
